osu file format v14

[General]
AudioFilename: audio.mp3
AudioLeadIn: 0
PreviewTime: 61597
Countdown: 0
SampleSet: Normal
StackLeniency: 0.2
Mode: 1
LetterboxInBreaks: 0
WidescreenStoryboard: 1

[Editor]
DistanceSpacing: 1
BeatDivisor: 4
GridSize: 32
TimelineZoom: 1.900005

[Metadata]
Title:TSLove
TitleUnicode:TSLove
Artist:O2i3
ArtistUnicode:O2i3
Creator:[_Chichinya_]
Version:MelaLove <3
Source:
Tags:Melanie Friggy-chan kqrth DDM Hi_Hello 404 AccNotFound FlamingRok Dargin Cyoris210 BlackWolf159 Yuno Taikocracy Prancer agu gamerock Nifty Lno Nepuri Raphalge frukoyurdakul Cyssel Unmei Muma Q____X Vulkin JessiChan iContol Chocola_2287 AezLack _yu68 zigizigiefe Grimbow
BeatmapID:1290037
BeatmapSetID:549370

[Difficulty]
HPDrainRate:7
CircleSize:2
OverallDifficulty:5.2
ApproachRate:9
SliderMultiplier:1.4
SliderTickRate:1

[Events]
//Background and Video events
0,0,"677447.jpg",0,0
//Break Periods
//Storyboard Layer 0 (Background)
//Storyboard Layer 1 (Fail)
//Storyboard Layer 2 (Pass)
//Storyboard Layer 3 (Foreground)
//Storyboard Sound Samples

[TimingPoints]
645,324.324324324324,4,1,0,80,1,0
21401,-100,4,1,0,100,0,1
23672,-100,4,1,0,80,0,0
23996,-100,4,1,0,100,0,1
26266,-100,4,1,0,80,0,0
26590,-100,4,1,0,100,0,1
28861,-100,4,1,0,80,0,0
29185,-100,4,1,0,100,0,1
31131,-100,4,1,0,80,0,0
31293,-95.2380952380952,4,1,0,80,0,0
31455,-90.9090909090909,4,1,0,80,0,0
31617,-83.3333333333333,4,1,0,80,0,0
31780,-100,4,1,0,100,0,1
34050,-100,4,1,0,80,0,0
34374,-100,4,1,0,100,0,1
36644,-100,4,1,0,80,0,0
36969,-100,4,1,0,100,0,1
39239,-100,4,1,0,80,0,0
39563,-100,4,1,0,100,0,1
42158,-100,4,1,0,80,0,0
57726,-100,4,1,0,80,0,0
59023,-100,4,1,0,80,0,0
60320,-100,4,1,0,80,0,0
61617,-100,4,1,0,80,0,0
62915,-100,4,1,0,100,0,1
72644,-100,4,1,0,80,0,0
72807,-95.2380952380952,4,1,0,80,0,0
72969,-90.9090909090909,4,1,0,80,0,0
73131,-83.3333333333333,4,1,0,80,0,0
73293,-100,4,1,0,100,0,1
83672,-100,4,1,0,80,0,0

[Colours]
Combo1 : 133,24,82
Combo2 : 96,61,99
Combo3 : 252,143,143
Combo4 : 234,69,21

[HitObjects]
192,256,645,5,0,0:0:0:0:
192,256,807,1,0,0:0:0:0:
192,256,969,1,8,0:0:0:0:
192,256,1131,1,0,0:0:0:0:
192,256,1212,1,0,0:0:0:0:
192,256,1293,1,0,0:0:0:0:
192,256,1455,1,0,0:0:0:0:
192,256,1617,1,8,0:0:0:0:
192,256,1780,1,8,0:0:0:0:
192,256,1861,1,0,0:0:0:0:
192,256,1942,1,0,0:0:0:0:
192,256,2023,1,8,0:0:0:0:
192,256,2104,1,0,0:0:0:0:
192,256,2266,1,8,0:0:0:0:
192,256,2428,1,8,0:0:0:0:
192,256,2509,1,0,0:0:0:0:
192,256,2590,1,0,0:0:0:0:
192,256,2753,1,0,0:0:0:0:
192,256,2915,1,8,0:0:0:0:
192,256,3077,1,8,0:0:0:0:
192,256,3158,1,0,0:0:0:0:
192,256,3239,1,8,0:0:0:0:
192,256,3401,1,0,0:0:0:0:
192,256,3563,1,8,0:0:0:0:
192,256,3725,1,8,0:0:0:0:
192,256,3806,1,0,0:0:0:0:
192,256,3969,1,0,0:0:0:0:
192,256,4050,1,0,0:0:0:0:
192,256,4212,1,8,0:0:0:0:
192,256,4374,1,8,0:0:0:0:
192,256,4455,1,8,0:0:0:0:
192,256,4536,1,0,0:0:0:0:
192,256,4617,1,0,0:0:0:0:
192,256,4699,1,8,0:0:0:0:
192,256,4861,1,0,0:0:0:0:
192,256,5023,1,0,0:0:0:0:
192,256,5104,1,0,0:0:0:0:
192,256,5185,1,0,0:0:0:0:
192,256,5347,1,0,0:0:0:0:
192,256,5509,1,8,0:0:0:0:
192,256,5671,1,8,0:0:0:0:
192,256,5753,1,8,0:0:0:0:
192,256,5834,1,0,0:0:0:0:
192,256,5996,1,0,0:0:0:0:
192,256,6158,1,8,0:0:0:0:
192,256,6320,1,0,0:0:0:0:
192,256,6401,1,8,0:0:0:0:
192,256,6482,1,0,0:0:0:0:
192,256,6563,1,8,0:0:0:0:
192,256,6644,1,8,0:0:0:0:
192,256,6807,1,8,0:0:0:0:
192,256,6969,1,8,0:0:0:0:
192,256,7050,1,0,0:0:0:0:
192,256,7131,1,0,0:0:0:0:
192,256,7212,1,8,0:0:0:0:
96,128,7293,1,0,0:0:0:0:
192,256,7455,1,8,0:0:0:0:
96,128,7617,1,8,0:0:0:0:
96,128,7699,1,0,0:0:0:0:
192,256,7780,1,0,0:0:0:0:
192,256,7942,1,0,0:0:0:0:
192,256,8104,1,8,0:0:0:0:
96,128,8266,1,8,0:0:0:0:
96,128,8347,1,8,0:0:0:0:
192,256,8428,1,0,0:0:0:0:
96,128,8509,1,0,0:0:0:0:
192,256,8590,1,8,0:0:0:0:
192,256,8753,1,8,0:0:0:0:
192,256,8915,1,0,0:0:0:0:
96,128,8996,1,0,0:0:0:0:
192,256,9077,1,0,0:0:0:0:
96,128,9239,1,0,0:0:0:0:
192,256,9401,1,8,0:0:0:0:
96,128,9482,1,0,0:0:0:0:
192,256,9644,1,0,0:0:0:0:
192,256,9726,1,8,0:0:0:0:
192,256,9888,1,0,0:0:0:0:
192,256,9969,1,0,0:0:0:0:
96,128,10050,1,8,0:0:0:0:
192,256,10212,1,8,0:0:0:0:
192,256,10293,1,8,0:0:0:0:
192,256,10374,1,0,0:0:0:0:
192,256,10536,1,8,0:0:0:0:
192,256,10699,1,0,0:0:0:0:
192,256,10780,1,0,0:0:0:0:
192,256,10861,1,0,0:0:0:0:
192,256,11023,1,12,0:0:0:0:
192,256,11347,1,0,0:0:0:0:
192,256,11590,1,8,0:0:0:0:
192,256,11672,1,0,0:0:0:0:
192,256,11834,1,0,0:0:0:0:
192,256,11996,1,8,0:0:0:0:
192,256,12158,1,8,0:0:0:0:
192,256,12239,1,8,0:0:0:0:
192,256,12320,1,0,0:0:0:0:
192,256,12401,1,0,0:0:0:0:
128,192,12482,1,8,0:0:0:0:
192,256,12644,1,8,0:0:0:0:
192,256,12807,1,0,0:0:0:0:
192,256,12888,1,0,0:0:0:0:
192,256,12969,1,0,0:0:0:0:
192,256,13131,1,0,0:0:0:0:
192,256,13293,1,8,0:0:0:0:
128,192,13455,1,8,0:0:0:0:
192,256,13536,1,8,0:0:0:0:
192,256,13617,1,0,0:0:0:0:
192,256,13780,1,0,0:0:0:0:
192,256,13942,1,8,0:0:0:0:
192,256,14104,1,0,0:0:0:0:
192,256,14185,1,8,0:0:0:0:
192,256,14266,1,0,0:0:0:0:
192,256,14428,1,0,0:0:0:0:
192,256,14590,1,8,0:0:0:0:
128,192,14753,1,0,0:0:0:0:
128,192,14834,1,0,0:0:0:0:
192,256,14915,1,8,0:0:0:0:
192,256,14996,1,8,0:0:0:0:
128,192,15077,1,0,0:0:0:0:
192,256,15239,1,8,0:0:0:0:
96,128,15320,1,0,0:0:0:0:
96,128,15401,1,0,0:0:0:0:
96,128,15563,1,0,0:0:0:0:
192,256,15725,1,8,0:0:0:0:
96,128,15806,1,0,0:0:0:0:
192,256,15968,1,0,0:0:0:0:
192,256,16050,1,8,0:0:0:0:
96,128,16212,1,0,0:0:0:0:
96,128,16374,1,0,0:0:0:0:
96,128,16536,1,8,0:0:0:0:
96,128,16699,1,0,0:0:0:0:
96,128,16861,1,0,0:0:0:0:
96,128,17023,1,0,0:0:0:0:
96,128,17185,1,8,0:0:0:0:
96,128,17347,1,0,0:0:0:0:
96,128,17509,1,0,0:0:0:0:
96,128,17672,1,0,0:0:0:0:
96,128,17834,1,8,0:0:0:0:
96,128,17996,1,0,0:0:0:0:
96,128,18158,1,0,0:0:0:0:
96,128,18320,1,0,0:0:0:0:
96,128,18482,1,8,0:0:0:0:
96,128,18644,1,0,0:0:0:0:
96,128,18807,1,0,0:0:0:0:
96,128,18888,1,0,0:0:0:0:
96,128,18969,1,8,0:0:0:0:
96,128,19050,1,0,0:0:0:0:
96,128,19131,1,8,0:0:0:0:
96,128,19212,1,0,0:0:0:0:
96,128,19293,1,0,0:0:0:0:
96,128,19374,1,0,0:0:0:0:
96,128,19455,1,8,0:0:0:0:
96,128,19496,1,8,0:0:0:0:
96,128,19537,1,8,0:0:0:0:
96,128,19577,1,8,0:0:0:0:
96,128,19617,1,8,0:0:0:0:
96,128,19618,1,8,0:0:0:0:
96,128,19699,1,0,0:0:0:0:
96,128,19780,1,8,0:0:0:0:
96,128,19861,1,8,0:0:0:0:
96,128,19942,1,0,0:0:0:0:
96,128,20023,1,8,0:0:0:0:
96,128,20104,1,0,0:0:0:0:
192,224,20266,2,0,L|256:160,5,70
96,128,21401,1,12,0:0:0:0:
96,128,21563,1,0,0:0:0:0:
96,128,21726,1,0,0:0:0:0:
96,128,21888,1,8,0:0:0:0:
96,128,21969,1,0,0:0:0:0:
96,128,22050,1,8,0:0:0:0:
96,128,22212,1,0,0:0:0:0:
96,128,22374,1,8,0:0:0:0:
96,128,22455,1,0,0:0:0:0:
96,128,22536,1,8,0:0:0:0:
96,128,22617,1,8,0:0:0:0:
96,128,22699,1,0,0:0:0:0:
96,128,22861,1,8,0:0:0:0:
96,128,22942,1,0,0:0:0:0:
96,128,23023,1,0,0:0:0:0:
96,128,23185,1,0,0:0:0:0:
96,128,23266,1,0,0:0:0:0:
96,128,23347,1,8,0:0:0:0:
96,128,23672,1,12,0:0:0:0:
96,128,23996,1,4,0:0:0:0:
96,128,24320,1,0,0:0:0:0:
96,128,24482,1,8,0:0:0:0:
96,128,24563,1,8,0:0:0:0:
96,128,24644,1,0,0:0:0:0:
96,128,24807,1,0,0:0:0:0:
96,128,24969,1,0,0:0:0:0:
96,128,25050,1,0,0:0:0:0:
96,128,25131,1,8,0:0:0:0:
96,128,25212,1,0,0:0:0:0:
96,128,25293,1,0,0:0:0:0:
96,128,25455,1,0,0:0:0:0:
96,128,25536,1,0,0:0:0:0:
96,128,25617,1,0,0:0:0:0:
96,128,25780,1,8,0:0:0:0:
96,128,25942,1,0,0:0:0:0:
96,128,26104,1,0,0:0:0:0:
96,128,26266,1,12,0:0:0:0:
96,128,26590,1,4,0:0:0:0:
96,128,26915,1,0,0:0:0:0:
96,128,26996,1,0,0:0:0:0:
96,128,27077,1,8,0:0:0:0:
96,128,27158,1,8,0:0:0:0:
96,128,27239,1,0,0:0:0:0:
96,128,27401,1,8,0:0:0:0:
96,128,27482,1,8,0:0:0:0:
96,128,27563,1,0,0:0:0:0:
96,128,27644,1,0,0:0:0:0:
96,128,27726,1,8,0:0:0:0:
96,128,27807,1,8,0:0:0:0:
96,128,27888,1,0,0:0:0:0:
96,128,28050,1,8,0:0:0:0:
96,128,28212,1,0,0:0:0:0:
96,128,28293,1,0,0:0:0:0:
96,128,28374,1,0,0:0:0:0:
96,128,28536,1,8,0:0:0:0:
96,128,28861,1,8,0:0:0:0:
96,128,29185,1,12,0:0:0:0:
96,128,29509,1,0,0:0:0:0:
96,128,29672,1,0,0:0:0:0:
96,128,29753,1,8,0:0:0:0:
96,128,29834,1,8,0:0:0:0:
96,128,29996,1,0,0:0:0:0:
96,128,30158,1,0,0:0:0:0:
96,128,30239,1,8,0:0:0:0:
96,128,30320,1,0,0:0:0:0:
96,128,30401,1,0,0:0:0:0:
96,128,30482,1,8,0:0:0:0:
96,128,30807,1,0,0:0:0:0:
96,128,31131,1,8,0:0:0:0:
96,128,31293,1,8,0:0:0:0:
96,128,31455,1,0,0:0:0:0:
96,128,31617,1,8,0:0:0:0:
96,128,31780,1,12,0:0:0:0:
96,128,32104,1,0,0:0:0:0:
96,128,32266,1,8,0:0:0:0:
96,128,32347,1,8,0:0:0:0:
96,128,32428,1,0,0:0:0:0:
96,128,32590,1,0,0:0:0:0:
96,128,32753,1,0,0:0:0:0:
96,128,32834,1,0,0:0:0:0:
96,128,32915,1,8,0:0:0:0:
96,128,32996,1,0,0:0:0:0:
96,128,33077,1,8,0:0:0:0:
96,128,33239,1,0,0:0:0:0:
96,128,33320,1,8,0:0:0:0:
96,128,33401,1,0,0:0:0:0:
96,128,33563,1,8,0:0:0:0:
96,128,33726,1,0,0:0:0:0:
96,128,34050,1,12,0:0:0:0:
96,128,34374,1,4,0:0:0:0:
192,256,34699,1,0,0:0:0:0:
96,128,34861,1,8,0:0:0:0:
96,128,34942,1,8,0:0:0:0:
192,256,35023,1,0,0:0:0:0:
192,256,35185,1,0,0:0:0:0:
192,256,35266,1,0,0:0:0:0:
192,256,35347,1,8,0:0:0:0:
96,128,35509,1,0,0:0:0:0:
192,256,35672,1,8,0:0:0:0:
192,256,35834,1,0,0:0:0:0:
192,256,35996,1,8,0:0:0:0:
192,256,36320,1,0,0:0:0:0:
192,256,36482,1,0,0:0:0:0:
192,256,36644,1,12,0:0:0:0:
192,256,36969,1,4,0:0:0:0:
192,256,37293,1,8,0:0:0:0:
192,256,37374,1,8,0:0:0:0:
192,256,37455,1,0,0:0:0:0:
192,256,37618,1,0,0:0:0:0:
192,256,37699,1,8,0:0:0:0:
192,256,37780,1,0,0:0:0:0:
192,256,37861,1,0,0:0:0:0:
192,256,37942,1,8,0:0:0:0:
192,256,38104,1,0,0:0:0:0:
192,256,38185,1,0,0:0:0:0:
192,256,38266,1,8,0:0:0:0:
192,256,38428,1,8,0:0:0:0:
192,256,38509,1,0,0:0:0:0:
192,256,38590,1,8,0:0:0:0:
192,256,38753,1,0,0:0:0:0:
192,256,38915,1,0,0:0:0:0:
192,256,39239,1,12,0:0:0:0:
192,256,39563,1,4,0:0:0:0:
192,256,39888,1,8,0:0:0:0:
192,256,40050,1,0,0:0:0:0:
192,256,40212,1,8,0:0:0:0:
192,256,40293,1,8,0:0:0:0:
192,256,40374,1,8,0:0:0:0:
192,256,40536,1,0,0:0:0:0:
192,256,40617,1,0,0:0:0:0:
192,256,40699,1,8,0:0:0:0:
192,256,40861,1,0,0:0:0:0:
192,256,40942,1,8,0:0:0:0:
192,256,41023,1,0,0:0:0:0:
192,256,41185,1,8,0:0:0:0:
192,256,41509,1,8,0:0:0:0:
192,256,41672,1,0,0:0:0:0:
192,256,41834,1,0,0:0:0:0:
192,256,42158,1,8,0:0:0:0:
192,256,42320,1,0,0:0:0:0:
192,256,42644,1,8,0:0:0:0:
192,256,42969,1,0,0:0:0:0:
192,256,43293,1,0,0:0:0:0:
192,256,43617,1,8,0:0:0:0:
192,256,43942,1,8,0:0:0:0:
192,256,44104,1,0,0:0:0:0:
192,256,44266,1,8,0:0:0:0:
192,256,44428,1,0,0:0:0:0:
192,256,44753,1,8,0:0:0:0:
192,256,45077,1,0,0:0:0:0:
192,256,45401,1,8,0:0:0:0:
192,256,45563,1,0,0:0:0:0:
192,256,45888,1,0,0:0:0:0:
192,256,46212,1,0,0:0:0:0:
192,256,46374,1,8,0:0:0:0:
192,256,46699,1,0,0:0:0:0:
192,256,47023,1,8,0:0:0:0:
192,256,47347,1,0,0:0:0:0:
192,256,47509,1,8,0:0:0:0:
192,256,47834,1,8,0:0:0:0:
192,256,48158,1,8,0:0:0:0:
192,256,48482,1,0,0:0:0:0:
192,256,48644,1,8,0:0:0:0:
192,256,48807,1,0,0:0:0:0:
192,256,49131,1,0,0:0:0:0:
192,256,49455,1,8,0:0:0:0:
192,256,49780,1,8,0:0:0:0:
192,256,49942,1,0,0:0:0:0:
192,256,50104,1,8,0:0:0:0:
192,256,50428,1,0,0:0:0:0:
192,256,50753,1,8,0:0:0:0:
192,256,51077,1,8,0:0:0:0:
192,256,51401,1,0,0:0:0:0:
192,256,51726,1,8,0:0:0:0:
192,256,52050,1,0,0:0:0:0:
192,256,52212,1,8,0:0:0:0:
192,256,52536,1,0,0:0:0:0:
192,256,52699,1,0,0:0:0:0:
192,256,52780,1,0,0:0:0:0:
192,256,52861,1,8,0:0:0:0:
192,256,52942,1,0,0:0:0:0:
192,256,53023,1,0,0:0:0:0:
192,256,53104,1,8,0:0:0:0:
192,256,53185,1,8,0:0:0:0:
96,128,53347,1,0,0:0:0:0:
192,256,53509,1,0,0:0:0:0:
192,256,53671,1,8,0:0:0:0:
192,256,53834,1,0,0:0:0:0:
192,256,53996,1,8,0:0:0:0:
192,256,54158,1,0,0:0:0:0:
192,256,54320,1,8,0:0:0:0:
192,256,54482,1,0,0:0:0:0:
192,256,54644,1,8,0:0:0:0:
192,256,54726,1,0,0:0:0:0:
192,256,54807,1,8,0:0:0:0:
192,256,54888,1,0,0:0:0:0:
192,256,54969,1,8,0:0:0:0:
192,256,55131,1,0,0:0:0:0:
192,256,55455,1,0,0:0:0:0:
192,256,55617,1,0,0:0:0:0:
192,256,55780,1,8,0:0:0:0:
192,256,55861,1,8,0:0:0:0:
192,256,55942,1,0,0:0:0:0:
192,256,56023,1,0,0:0:0:0:
192,256,56104,1,8,0:0:0:0:
192,256,56185,1,8,0:0:0:0:
192,256,56266,1,0,0:0:0:0:
192,256,56428,1,0,0:0:0:0:
192,256,56753,1,0,0:0:0:0:
192,256,56915,1,0,0:0:0:0:
192,256,57077,1,0,0:0:0:0:
192,256,57158,1,0,0:0:0:0:
192,256,57239,1,8,0:0:0:0:
192,256,57320,1,0,0:0:0:0:
192,256,57401,1,8,0:0:0:0:
192,256,57726,1,8,0:0:0:0:
192,256,57888,1,0,0:0:0:0:
192,256,58050,1,8,0:0:0:0:
192,256,58131,1,0,0:0:0:0:
192,256,58212,1,0,0:0:0:0:
192,256,58374,1,8,0:0:0:0:
192,256,58536,1,8,0:0:0:0:
192,256,58617,1,8,0:0:0:0:
192,256,58699,1,0,0:0:0:0:
192,256,58861,1,0,0:0:0:0:
192,256,59023,1,0,0:0:0:0:
192,256,59185,1,8,0:0:0:0:
192,256,59347,1,8,0:0:0:0:
192,256,59509,1,0,0:0:0:0:
192,256,59672,1,0,0:0:0:0:
192,256,59834,1,0,0:0:0:0:
192,256,59996,1,8,0:0:0:0:
192,256,60158,1,8,0:0:0:0:
192,256,60239,1,0,0:0:0:0:
192,256,60320,1,0,0:0:0:0:
192,256,60401,1,8,0:0:0:0:
192,256,60482,1,0,0:0:0:0:
192,256,60563,1,0,0:0:0:0:
192,256,60644,1,8,0:0:0:0:
192,256,60726,1,8,0:0:0:0:
192,256,60807,1,0,0:0:0:0:
192,256,60888,1,8,0:0:0:0:
192,256,60969,1,8,0:0:0:0:
192,256,61009,1,8,0:0:0:0:
192,256,61050,1,8,0:0:0:0:
192,256,61090,1,8,0:0:0:0:
192,256,61131,1,0,0:0:0:0:
192,256,61212,1,0,0:0:0:0:
192,256,61293,1,0,0:0:0:0:
192,256,61374,1,8,0:0:0:0:
192,256,61455,1,0,0:0:0:0:
192,256,61536,1,0,0:0:0:0:
192,256,61617,1,0,0:0:0:0:
192,256,62915,1,12,0:0:0:0:
192,256,63239,1,0,0:0:0:0:
192,256,63401,1,8,0:0:0:0:
192,256,63482,1,0,0:0:0:0:
192,256,63563,1,0,0:0:0:0:
192,256,63644,1,8,0:0:0:0:
192,256,63726,1,0,0:0:0:0:
192,256,63888,1,8,0:0:0:0:
192,256,63969,1,0,0:0:0:0:
192,256,64050,1,8,0:0:0:0:
192,256,64131,1,8,0:0:0:0:
192,256,64212,1,0,0:0:0:0:
192,256,64374,1,0,0:0:0:0:
192,256,64455,1,0,0:0:0:0:
192,256,64536,1,8,0:0:0:0:
192,256,64699,1,0,0:0:0:0:
192,256,64861,1,0,0:0:0:0:
192,256,65185,1,12,0:0:0:0:
192,256,65509,1,4,0:0:0:0:
192,256,65834,1,0,0:0:0:0:
192,256,65996,1,8,0:0:0:0:
192,256,66077,1,8,0:0:0:0:
192,256,66158,1,8,0:0:0:0:
192,256,66320,1,0,0:0:0:0:
192,256,66482,1,8,0:0:0:0:
192,256,66563,1,0,0:0:0:0:
192,256,66644,1,8,0:0:0:0:
192,256,66807,1,0,0:0:0:0:
192,256,66969,1,0,0:0:0:0:
192,256,67131,1,0,0:0:0:0:
192,256,67293,1,8,0:0:0:0:
192,256,67374,1,0,0:0:0:0:
192,256,67455,1,8,0:0:0:0:
192,256,67536,1,8,0:0:0:0:
192,256,67617,1,0,0:0:0:0:
192,256,67780,1,12,0:0:0:0:
192,256,68104,1,4,0:0:0:0:
192,256,68428,1,0,0:0:0:0:
192,256,68590,1,8,0:0:0:0:
192,256,68672,1,0,0:0:0:0:
192,256,68753,1,8,0:0:0:0:
192,256,68834,1,0,0:0:0:0:
192,256,68915,1,0,0:0:0:0:
192,256,69077,1,8,0:0:0:0:
192,256,69158,1,0,0:0:0:0:
192,256,69239,1,0,0:0:0:0:
192,256,69320,1,8,0:0:0:0:
192,256,69401,1,8,0:0:0:0:
192,256,69563,1,0,0:0:0:0:
192,256,69644,1,8,0:0:0:0:
192,256,69726,1,8,0:0:0:0:
192,256,69807,1,0,0:0:0:0:
192,256,69888,1,0,0:0:0:0:
192,256,70050,1,8,0:0:0:0:
192,256,70374,1,8,0:0:0:0:
192,256,70699,1,0,0:0:0:0:
192,256,71023,1,8,0:0:0:0:
192,256,71104,1,0,0:0:0:0:
192,256,71185,1,0,0:0:0:0:
192,256,71347,1,0,0:0:0:0:
192,256,71509,1,0,0:0:0:0:
192,256,71590,1,0,0:0:0:0:
192,256,71672,1,8,0:0:0:0:
192,256,71834,1,0,0:0:0:0:
192,256,71996,1,8,0:0:0:0:
192,256,72158,1,0,0:0:0:0:
192,256,72320,1,8,0:0:0:0:
192,256,72644,1,0,0:0:0:0:
192,256,72807,1,8,0:0:0:0:
192,256,72969,1,8,0:0:0:0:
192,256,73131,1,0,0:0:0:0:
192,256,73293,1,12,0:0:0:0:
192,224,73455,1,0,0:0:0:0:
192,224,73617,1,0,0:0:0:0:
192,256,73699,1,8,0:0:0:0:
192,256,73780,1,8,0:0:0:0:
192,256,73861,1,0,0:0:0:0:
192,256,73942,1,8,0:0:0:0:
192,256,74104,1,8,0:0:0:0:
192,256,74185,1,8,0:0:0:0:
192,256,74266,1,0,0:0:0:0:
192,256,74428,1,0,0:0:0:0:
192,256,74509,1,0,0:0:0:0:
192,256,74590,1,8,0:0:0:0:
192,256,74753,1,0,0:0:0:0:
192,256,74834,1,8,0:0:0:0:
192,256,74915,1,8,0:0:0:0:
192,256,75077,1,0,0:0:0:0:
192,256,75239,1,8,0:0:0:0:
192,256,75401,1,0,0:0:0:0:
192,256,75563,1,12,0:0:0:0:
192,256,75888,1,4,0:0:0:0:
192,256,76212,1,0,0:0:0:0:
192,256,76374,1,8,0:0:0:0:
192,256,76455,1,0,0:0:0:0:
192,256,76536,1,8,0:0:0:0:
192,256,76699,1,0,0:0:0:0:
192,256,76861,1,0,0:0:0:0:
192,256,77023,1,8,0:0:0:0:
192,256,77185,1,0,0:0:0:0:
192,256,77347,1,0,0:0:0:0:
192,256,77428,1,0,0:0:0:0:
192,256,77509,1,8,0:0:0:0:
192,256,77672,1,8,0:0:0:0:
192,256,77834,1,0,0:0:0:0:
192,256,77996,1,0,0:0:0:0:
192,256,78158,1,8,0:0:0:0:
192,256,78482,1,4,0:0:0:0:
192,256,78807,1,0,0:0:0:0:
192,256,78969,1,8,0:0:0:0:
192,256,79050,1,8,0:0:0:0:
192,256,79131,1,8,0:0:0:0:
192,256,79293,1,0,0:0:0:0:
192,256,79455,1,8,0:0:0:0:
192,256,79536,1,8,0:0:0:0:
192,256,79617,1,0,0:0:0:0:
192,256,79699,1,8,0:0:0:0:
192,256,79780,1,0,0:0:0:0:
192,256,79942,1,0,0:0:0:0:
192,256,80023,1,8,0:0:0:0:
192,256,80104,1,8,0:0:0:0:
192,256,80266,1,8,0:0:0:0:
192,256,80428,1,0,0:0:0:0:
192,256,80590,1,0,0:0:0:0:
192,256,80753,1,12,0:0:0:0:
192,256,81077,1,4,0:0:0:0:
192,256,81401,1,0,0:0:0:0:
192,256,81563,1,8,0:0:0:0:
192,256,81644,1,0,0:0:0:0:
192,256,81726,1,8,0:0:0:0:
192,256,81888,1,0,0:0:0:0:
192,256,81969,1,8,0:0:0:0:
192,256,82050,1,0,0:0:0:0:
192,256,82212,1,0,0:0:0:0:
192,256,82374,1,8,0:0:0:0:
192,256,82536,1,0,0:0:0:0:
192,256,82699,1,0,0:0:0:0:
192,256,83023,1,8,0:0:0:0:
192,256,83185,1,8,0:0:0:0:
192,256,83347,1,8,0:0:0:0:
192,256,83672,1,8,0:0:0:0:
192,224,83753,1,0,0:0:0:0:
192,256,83835,1,8,0:0:0:0:
192,256,83916,1,8,0:0:0:0:
192,256,83997,1,0,0:0:0:0:
192,256,84078,1,8,0:0:0:0:
192,224,84157,1,8,0:0:0:0:
192,256,84239,1,0,0:0:0:0:
192,256,84320,1,8,0:0:0:0:
192,256,84401,1,0,0:0:0:0:
192,224,84481,1,0,0:0:0:0:
192,256,84563,1,8,0:0:0:0:
192,256,84644,1,8,0:0:0:0:
192,256,84725,1,0,0:0:0:0:
192,256,84806,1,8,0:0:0:0:
192,224,84888,1,0,0:0:0:0:
192,256,84970,1,0,0:0:0:0:
192,256,85051,1,8,0:0:0:0:
192,256,85132,1,0,0:0:0:0:
192,256,85213,1,8,0:0:0:0:
192,224,85293,1,0,0:0:0:0:
192,256,85375,1,8,0:0:0:0:
192,256,85456,1,8,0:0:0:0:
192,256,85537,1,0,0:0:0:0:
192,256,85618,1,8,0:0:0:0:
192,224,85699,1,0,0:0:0:0:
192,256,85781,1,8,0:0:0:0:
192,256,85862,1,8,0:0:0:0:
192,256,85943,1,0,0:0:0:0:
192,256,86266,1,8,0:0:0:0:
192,224,86428,1,0,0:0:0:0:
192,256,86510,1,8,0:0:0:0:
192,256,86591,1,8,0:0:0:0:
192,256,86672,1,0,0:0:0:0:
192,256,86753,1,8,0:0:0:0:
192,224,86834,1,0,0:0:0:0:
192,256,86916,1,8,0:0:0:0:
192,256,86997,1,8,0:0:0:0:
192,256,87078,1,0,0:0:0:0:
192,256,87159,1,8,0:0:0:0:
192,224,87239,1,0,0:0:0:0:
192,256,87321,1,8,0:0:0:0:
192,256,87402,1,8,0:0:0:0:
192,256,87483,1,0,0:0:0:0:
192,256,87564,1,8,0:0:0:0:
192,224,87644,1,0,0:0:0:0:
192,256,87726,1,8,0:0:0:0:
192,256,87807,1,8,0:0:0:0:
192,256,87888,1,0,0:0:0:0:
192,256,87969,1,8,0:0:0:0:
192,224,88050,1,0,0:0:0:0:
192,256,88132,1,8,0:0:0:0:
192,256,88213,1,8,0:0:0:0:
192,256,88294,1,0,0:0:0:0:
192,256,88375,1,8,0:0:0:0:
192,224,88455,1,0,0:0:0:0:
192,224,88536,1,0,0:0:0:0:
192,224,88861,1,0,0:0:0:0:
192,256,88943,1,8,0:0:0:0:
192,256,89024,1,8,0:0:0:0:
192,256,89105,1,0,0:0:0:0:
192,256,89186,1,8,0:0:0:0:
192,224,89266,1,0,0:0:0:0:
192,256,89348,1,8,0:0:0:0:
192,256,89429,1,8,0:0:0:0:
192,256,89510,1,0,0:0:0:0:
192,256,89591,1,8,0:0:0:0:
192,224,89672,1,0,0:0:0:0:
192,256,89754,1,8,0:0:0:0:
192,256,89835,1,8,0:0:0:0:
192,256,89916,1,0,0:0:0:0:
192,256,89997,1,8,0:0:0:0:
192,224,90077,1,0,0:0:0:0:
192,256,90159,1,0,0:0:0:0:
192,256,90240,1,8,0:0:0:0:
192,256,90321,1,0,0:0:0:0:
192,256,90401,1,8,0:0:0:0:
192,224,90482,1,0,0:0:0:0:
192,256,90564,1,8,0:0:0:0:
192,256,90645,1,8,0:0:0:0:
192,256,90726,1,0,0:0:0:0:
192,256,90807,1,8,0:0:0:0:
192,224,90888,1,0,0:0:0:0:
192,256,90970,1,8,0:0:0:0:
192,256,91051,1,8,0:0:0:0:
192,256,91456,1,8,0:0:0:0:
192,256,91537,1,0,0:0:0:0:
192,256,91618,1,8,0:0:0:0:
192,224,91699,1,0,0:0:0:0:
192,256,91781,1,8,0:0:0:0:
192,256,91862,1,8,0:0:0:0:
192,256,91943,1,8,0:0:0:0:
192,256,92023,1,0,0:0:0:0:
192,224,92104,1,0,0:0:0:0:
192,256,92186,1,8,0:0:0:0:
192,256,92267,1,8,0:0:0:0:
192,256,92348,1,0,0:0:0:0:
192,256,92429,1,8,0:0:0:0:
192,224,92509,1,0,0:0:0:0:
192,256,92591,1,8,0:0:0:0:
192,256,92672,1,0,0:0:0:0:
192,256,92753,1,0,0:0:0:0:
192,256,92834,1,8,0:0:0:0:
192,224,92915,1,0,0:0:0:0:
192,256,92997,1,8,0:0:0:0:
192,256,93077,1,0,0:0:0:0:
192,256,93158,1,8,0:0:0:0:
192,256,93240,1,8,0:0:0:0:
192,224,93320,1,0,0:0:0:0:
192,256,93402,1,8,0:0:0:0:
192,256,93482,1,8,0:0:0:0:
192,256,93563,1,8,0:0:0:0:
192,256,93604,1,8,0:0:0:0:
192,256,93644,1,8,0:0:0:0:
192,256,93645,1,8,0:0:0:0:
192,224,93726,1,0,0:0:0:0:
