osu file format v14

[General]
AudioFilename: audio.mp3
AudioLeadIn: 0
PreviewTime: 61597
Countdown: 0
SampleSet: Normal
StackLeniency: 0.7
Mode: 1
LetterboxInBreaks: 0
WidescreenStoryboard: 1

[Editor]
DistanceSpacing: 1
BeatDivisor: 4
GridSize: 32
TimelineZoom: 1.600005

[Metadata]
Title:TSLove
TitleUnicode:TSLove
Artist:O2i3
ArtistUnicode:O2i3
Creator:[_Chichinya_]
Version:LnoLove<3
Source:
Tags:Melanie Friggy-chan kqrth DDM Hi_Hello 404 AccNotFound FlamingRok Dargin Cyoris210 BlackWolf159 Yuno Taikocracy Prancer agu gamerock Nifty Lno Nepuri Raphalge frukoyurdakul Cyssel Unmei Muma Q____X Vulkin JessiChan iContol Chocola_2287 AezLack _yu68 zigizigiefe Grimbow
BeatmapID:1199356
BeatmapSetID:549370

[Difficulty]
HPDrainRate:6
CircleSize:6
OverallDifficulty:6.5
ApproachRate:6
SliderMultiplier:1.4999999666214
SliderTickRate:1

[Events]
//Background and Video events
0,0,"Lno's BG.png",0,0
//Break Periods
//Storyboard Layer 0 (Background)
//Storyboard Layer 1 (Fail)
//Storyboard Layer 2 (Pass)
//Storyboard Layer 3 (Foreground)
//Storyboard Sound Samples

[TimingPoints]
650,324.324324324324,4,1,0,80,1,0
21406,-100,4,1,0,80,0,1
23677,-0.01,4,1,0,80,0,1
24001,-100,4,1,0,80,0,1
26109,-0.01,4,1,0,80,0,1
26595,-100,4,1,0,80,0,1
28866,-0.01,4,1,0,80,0,1
29190,-100,4,1,0,80,0,1
30487,-0.01,4,1,0,80,0,1
30649,-100,4,1,0,80,0,1
30812,-0.01,4,1,0,80,0,1
30974,-100,4,1,0,80,0,1
31136,-0.01,4,1,0,80,0,1
31785,-100,4,1,0,80,0,1
34055,-0.01,4,1,0,80,0,1
34379,-100,4,1,0,80,0,1
36487,-0.01,4,1,0,80,0,1
36974,-100,4,1,0,80,0,1
39244,-0.01,4,1,0,80,0,1
39568,-100,4,1,0,80,0,1
40866,-0.01,4,1,0,80,0,1
41028,-100,4,1,0,80,0,1
41190,-0.01,4,1,0,80,0,1
41514,-50,4,1,0,80,0,1
41839,-100,4,1,0,80,0,1
42163,-200,4,1,0,80,0,0
52541,-138.888888888889,4,1,0,80,0,0
53190,-136.986301369863,4,1,0,80,0,0
53839,-135.135135135135,4,1,0,80,0,0
54487,-133.333333333333,4,1,0,80,0,0
55136,-131.578947368421,4,1,0,80,0,0
55785,-129.87012987013,4,1,0,80,0,0
56433,-128.205128205128,4,1,0,80,0,0
57082,-126.582278481013,4,1,0,80,0,0
57731,-125,4,1,0,80,0,0
57974,-123.456790123457,4,1,0,80,0,0
58217,-121.951219512195,4,1,0,80,0,0
58460,-120.481927710843,4,1,0,80,0,0
58704,-119.047619047619,4,1,0,80,0,0
58947,-117.647058823529,4,1,0,80,0,0
59190,-116.279069767442,4,1,0,80,0,0
59433,-114.942528735632,4,1,0,80,0,0
59677,-113.636363636364,4,1,0,80,0,0
59920,-112.359550561798,4,1,0,80,0,0
60325,-111.111111111111,4,1,0,80,0,0
61622,-50,4,1,0,80,0,0
62920,-100,4,1,0,80,0,1
65190,-0.01,4,1,0,80,0,1
65514,-100,4,1,0,80,0,1
67622,-0.01,4,1,0,80,0,1
68109,-100,4,1,0,80,0,1
70379,-0.01,4,1,0,80,0,1
70704,-100,4,1,0,80,0,1
72001,-0.01,4,1,0,80,0,1
72163,-100,4,1,0,80,0,1
72325,-0.01,4,1,0,80,0,1
72487,-100,4,1,0,80,0,1
72649,-0.01,4,1,0,80,0,1
73298,-100,4,1,0,80,0,1
75568,-0.01,4,1,0,80,0,1
75893,-100,4,1,0,80,0,1
78001,-0.01,4,1,0,80,0,1
78487,-100,4,1,0,80,0,1
80758,-0.01,4,1,0,80,0,1
81082,-100,4,1,0,80,0,1
82379,-0.01,4,1,0,80,0,1
82541,-100,4,1,0,80,0,1
82704,-0.01,4,1,0,80,0,1
83677,-100,4,1,0,80,0,0
85947,-0.01,4,1,0,80,0,0
86271,-100,4,1,0,80,0,0
88541,-0.01,4,1,0,80,0,0
88866,-100,4,1,0,80,0,0
91136,-0.01,4,1,0,80,0,0
91460,-100,4,1,0,80,0,0

[Colours]
Combo1 : 133,24,82
Combo2 : 96,61,99
Combo3 : 252,143,143
Combo4 : 234,69,21

[HitObjects]
224,224,11028,5,0,0:0:0:0:
288,224,11352,1,8,0:0:0:0:
288,224,11595,1,8,0:0:0:0:
224,224,11677,1,0,0:0:0:0:
224,224,11839,1,0,0:0:0:0:
288,224,12001,1,8,0:0:0:0:
224,224,12325,1,0,0:0:0:0:
224,224,12406,1,0,0:0:0:0:
224,224,12487,1,0,0:0:0:0:
288,224,12649,1,8,0:0:0:0:
288,224,12812,1,8,0:0:0:0:
224,224,12893,1,0,0:0:0:0:
224,224,12974,1,0,0:0:0:0:
224,224,13136,1,0,0:0:0:0:
288,224,13298,1,8,0:0:0:0:
224,224,13622,1,0,0:0:0:0:
288,224,13947,1,8,0:0:0:0:
288,224,14190,1,8,0:0:0:0:
224,224,14271,1,0,0:0:0:0:
224,224,14433,1,0,0:0:0:0:
288,224,14595,1,8,0:0:0:0:
224,224,14920,1,0,0:0:0:0:
288,224,15082,1,8,0:0:0:0:
224,224,15163,1,0,0:0:0:0:
288,224,15244,1,8,0:0:0:0:
288,224,15406,1,8,0:0:0:0:
224,224,15487,1,0,0:0:0:0:
224,224,15568,1,0,0:0:0:0:
288,224,15649,1,8,0:0:0:0:
224,224,15731,1,0,0:0:0:0:
288,224,15893,1,8,0:0:0:0:
288,224,16055,1,8,0:0:0:0:
224,224,16136,1,0,0:0:0:0:
224,224,16217,1,0,0:0:0:0:
224,224,16379,1,0,0:0:0:0:
288,224,16541,1,8,0:0:0:0:
224,224,16704,1,0,0:0:0:0:
224,224,16866,1,0,0:0:0:0:
224,224,17028,1,0,0:0:0:0:
288,224,17190,1,8,0:0:0:0:
288,224,17352,1,8,0:0:0:0:
224,224,17433,1,0,0:0:0:0:
224,224,17514,1,0,0:0:0:0:
224,224,17677,1,0,0:0:0:0:
288,224,17839,1,8,0:0:0:0:
224,224,18001,1,0,0:0:0:0:
224,224,18163,1,0,0:0:0:0:
224,224,18325,1,0,0:0:0:0:
288,224,18487,1,8,0:0:0:0:
224,224,18649,1,0,0:0:0:0:
288,224,18812,1,8,0:0:0:0:
224,224,18893,1,0,0:0:0:0:
224,224,18974,1,0,0:0:0:0:
224,224,19055,1,0,0:0:0:0:
224,224,19136,1,0,0:0:0:0:
224,224,19217,1,0,0:0:0:0:
224,224,19298,1,0,0:0:0:0:
224,224,19379,1,0,0:0:0:0:
288,224,19460,1,8,0:0:0:0:
288,224,19501,1,8,0:0:0:0:
288,224,19541,1,8,0:0:0:0:
288,224,19582,1,8,0:0:0:0:
224,224,19622,1,0,0:0:0:0:
224,224,19704,1,0,0:0:0:0:
224,224,19785,1,0,0:0:0:0:
224,224,19866,1,0,0:0:0:0:
224,224,19947,1,0,0:0:0:0:
224,224,20028,1,0,0:0:0:0:
256,192,20109,12,0,21406,0:0:0:0:
288,160,21406,5,12,0:0:0:0:
224,224,21731,1,0,0:0:0:0:
224,224,21893,1,0,0:0:0:0:
224,224,21974,1,0,0:0:0:0:
288,224,22055,1,8,0:0:0:0:
288,224,22217,1,8,0:0:0:0:
288,224,22379,1,8,0:0:0:0:
288,224,22460,1,8,0:0:0:0:
224,224,22541,1,0,0:0:0:0:
288,224,22622,1,8,0:0:0:0:
288,224,22704,1,8,0:0:0:0:
288,224,22866,1,8,0:0:0:0:
288,224,22947,1,8,0:0:0:0:
288,224,23028,1,8,0:0:0:0:
288,224,23190,1,8,0:0:0:0:
224,224,23352,1,0,0:0:0:0:
288,160,23677,5,12,0:0:0:0:
224,224,24001,1,0,0:0:0:0:
224,224,24325,1,0,0:0:0:0:
224,224,24406,1,0,0:0:0:0:
288,224,24487,1,8,0:0:0:0:
224,224,24568,1,0,0:0:0:0:
288,224,24649,1,8,0:0:0:0:
288,224,24812,1,8,0:0:0:0:
288,224,24974,1,8,0:0:0:0:
224,224,25136,1,0,0:0:0:0:
288,224,25298,1,8,0:0:0:0:
288,224,25460,1,8,0:0:0:0:
288,224,25541,1,8,0:0:0:0:
224,224,25622,1,0,0:0:0:0:
224,224,25785,1,0,0:0:0:0:
288,224,25947,1,8,0:0:0:0:
288,160,26109,1,12,0:0:0:0:
288,160,26271,1,12,0:0:0:0:
288,224,26595,1,8,0:0:0:0:
224,224,26920,1,0,0:0:0:0:
224,224,27082,1,0,0:0:0:0:
224,224,27163,1,0,0:0:0:0:
288,224,27244,1,8,0:0:0:0:
288,224,27406,1,8,0:0:0:0:
288,224,27568,1,8,0:0:0:0:
288,224,27649,1,8,0:0:0:0:
224,224,27731,1,0,0:0:0:0:
288,224,27812,1,8,0:0:0:0:
288,224,27893,1,8,0:0:0:0:
288,224,28055,1,8,0:0:0:0:
288,224,28136,1,8,0:0:0:0:
288,224,28217,1,8,0:0:0:0:
288,224,28379,1,8,0:0:0:0:
224,224,28541,1,0,0:0:0:0:
288,160,28866,1,12,0:0:0:0:
224,224,29190,1,0,0:0:0:0:
224,224,29514,1,0,0:0:0:0:
224,224,29595,1,0,0:0:0:0:
288,224,29677,1,8,0:0:0:0:
224,224,29758,1,0,0:0:0:0:
288,224,29839,1,8,0:0:0:0:
288,224,30001,1,8,0:0:0:0:
288,224,30163,1,8,0:0:0:0:
224,224,30325,1,0,0:0:0:0:
288,160,30487,1,12,0:0:0:0:
224,224,30649,1,0,0:0:0:0:
288,160,30812,1,12,0:0:0:0:
224,224,30974,1,0,0:0:0:0:
288,160,31136,1,12,0:0:0:0:
288,160,31298,1,12,0:0:0:0:
288,160,31460,1,12,0:0:0:0:
288,160,31622,1,12,0:0:0:0:
288,160,31785,1,12,0:0:0:0:
224,224,32109,1,0,0:0:0:0:
224,224,32271,1,0,0:0:0:0:
224,224,32352,1,0,0:0:0:0:
288,224,32433,1,8,0:0:0:0:
288,224,32595,1,8,0:0:0:0:
288,224,32758,1,8,0:0:0:0:
288,224,32839,1,8,0:0:0:0:
224,224,32920,1,0,0:0:0:0:
288,224,33001,1,8,0:0:0:0:
288,224,33082,1,8,0:0:0:0:
288,224,33244,1,8,0:0:0:0:
288,224,33325,1,8,0:0:0:0:
288,224,33406,1,8,0:0:0:0:
288,224,33568,1,8,0:0:0:0:
224,224,33731,1,0,0:0:0:0:
288,160,34055,1,12,0:0:0:0:
224,224,34379,1,0,0:0:0:0:
224,224,34704,1,0,0:0:0:0:
224,224,34785,1,0,0:0:0:0:
288,224,34866,1,8,0:0:0:0:
224,224,34947,1,0,0:0:0:0:
288,224,35028,1,8,0:0:0:0:
288,224,35190,1,8,0:0:0:0:
288,224,35352,1,8,0:0:0:0:
224,224,35514,1,0,0:0:0:0:
288,224,35677,1,8,0:0:0:0:
288,224,35839,1,8,0:0:0:0:
288,224,35920,1,8,0:0:0:0:
224,224,36001,1,0,0:0:0:0:
224,224,36163,1,0,0:0:0:0:
288,224,36325,1,8,0:0:0:0:
288,160,36487,1,12,0:0:0:0:
288,160,36649,1,12,0:0:0:0:
288,160,36974,1,12,0:0:0:0:
224,224,37298,1,0,0:0:0:0:
224,224,37460,1,0,0:0:0:0:
224,224,37541,1,0,0:0:0:0:
288,224,37622,1,8,0:0:0:0:
288,224,37785,1,8,0:0:0:0:
288,224,37947,1,8,0:0:0:0:
288,224,38028,1,8,0:0:0:0:
224,224,38109,1,0,0:0:0:0:
288,224,38190,1,8,0:0:0:0:
288,224,38271,1,8,0:0:0:0:
288,224,38433,1,8,0:0:0:0:
288,224,38514,1,8,0:0:0:0:
288,224,38595,1,8,0:0:0:0:
288,224,38758,1,8,0:0:0:0:
224,224,38920,1,0,0:0:0:0:
288,160,39244,1,12,0:0:0:0:
224,224,39568,1,0,0:0:0:0:
288,224,39893,1,8,0:0:0:0:
288,224,39974,1,8,0:0:0:0:
288,224,40055,1,8,0:0:0:0:
288,224,40136,1,8,0:0:0:0:
288,224,40217,1,8,0:0:0:0:
288,224,40379,1,8,0:0:0:0:
288,224,40541,1,8,0:0:0:0:
224,224,40704,1,0,0:0:0:0:
288,160,40866,1,12,0:0:0:0:
288,224,41028,1,8,0:0:0:0:
288,160,41190,1,12,0:0:0:0:
288,224,41514,1,8,0:0:0:0:
224,224,41839,1,0,0:0:0:0:
288,160,42163,1,12,0:0:0:0:
224,224,44109,1,0,0:0:0:0:
224,224,44271,1,0,0:0:0:0:
288,224,44433,1,8,0:0:0:0:
224,224,44595,1,0,0:0:0:0:
288,224,44758,1,8,0:0:0:0:
288,224,45082,1,8,0:0:0:0:
224,224,45244,1,0,0:0:0:0:
224,224,45568,1,0,0:0:0:0:
288,224,45893,1,8,0:0:0:0:
224,224,46217,1,0,0:0:0:0:
224,224,46866,1,0,0:0:0:0:
288,224,47028,1,8,0:0:0:0:
224,224,47190,1,0,0:0:0:0:
224,224,48163,1,0,0:0:0:0:
288,224,48487,1,8,0:0:0:0:
224,224,48974,1,0,0:0:0:0:
288,224,49136,1,8,0:0:0:0:
224,224,49298,1,0,0:0:0:0:
288,224,49460,1,8,0:0:0:0:
288,224,49622,1,8,0:0:0:0:
224,224,49785,1,0,0:0:0:0:
288,224,49947,1,8,0:0:0:0:
224,224,50271,1,0,0:0:0:0:
288,224,50433,1,8,0:0:0:0:
224,224,50758,1,0,0:0:0:0:
288,224,50920,1,8,0:0:0:0:
224,224,52541,1,0,0:0:0:0:
288,224,52704,1,8,0:0:0:0:
224,224,52866,1,0,0:0:0:0:
288,224,53028,1,8,0:0:0:0:
288,224,53109,1,8,0:0:0:0:
288,224,53352,1,8,0:0:0:0:
224,224,53514,1,0,0:0:0:0:
288,224,53677,1,8,0:0:0:0:
224,224,54001,1,0,0:0:0:0:
224,224,54325,1,0,0:0:0:0:
288,224,54649,1,8,0:0:0:0:
224,224,54812,1,0,0:0:0:0:
288,224,54974,1,8,0:0:0:0:
288,224,55298,1,8,0:0:0:0:
224,224,55460,1,0,0:0:0:0:
288,224,55622,1,8,0:0:0:0:
224,224,55785,1,0,0:0:0:0:
288,224,55866,1,8,0:0:0:0:
288,224,56028,1,8,0:0:0:0:
224,224,56109,1,0,0:0:0:0:
288,224,56271,1,8,0:0:0:0:
288,224,56433,1,8,0:0:0:0:
224,224,56595,1,0,0:0:0:0:
288,224,56758,1,8,0:0:0:0:
288,224,56920,1,8,0:0:0:0:
224,224,57082,1,0,0:0:0:0:
224,224,57244,1,0,0:0:0:0:
288,224,57406,1,8,0:0:0:0:
224,224,57731,1,0,0:0:0:0:
288,224,57893,1,8,0:0:0:0:
224,224,58055,1,0,0:0:0:0:
224,224,58217,1,0,0:0:0:0:
224,224,58298,1,0,0:0:0:0:
224,224,58379,1,0,0:0:0:0:
288,224,58541,1,8,0:0:0:0:
224,224,58704,1,0,0:0:0:0:
288,224,58866,1,8,0:0:0:0:
224,224,59028,1,0,0:0:0:0:
224,224,59190,1,0,0:0:0:0:
224,224,59352,1,0,0:0:0:0:
288,224,59514,1,8,0:0:0:0:
224,224,59677,1,0,0:0:0:0:
288,224,59839,1,8,0:0:0:0:
224,224,60001,1,0,0:0:0:0:
224,224,60163,1,0,0:0:0:0:
224,224,60325,1,0,0:0:0:0:
224,224,60406,1,0,0:0:0:0:
224,224,60487,1,0,0:0:0:0:
224,224,60568,1,0,0:0:0:0:
224,224,60649,1,0,0:0:0:0:
224,224,60731,1,0,0:0:0:0:
224,224,60812,1,0,0:0:0:0:
224,224,60893,1,0,0:0:0:0:
288,224,60974,1,8,0:0:0:0:
288,224,61014,1,8,0:0:0:0:
288,224,61055,1,8,0:0:0:0:
288,224,61095,1,8,0:0:0:0:
224,224,61136,1,0,0:0:0:0:
224,224,61217,1,0,0:0:0:0:
224,224,61298,1,0,0:0:0:0:
224,224,61379,1,0,0:0:0:0:
224,224,61460,1,0,0:0:0:0:
224,224,61541,1,0,0:0:0:0:
224,224,61622,1,0,0:0:0:0:
224,224,61785,1,0,0:0:0:0:
288,224,61947,1,8,0:0:0:0:
224,224,62028,1,0,0:0:0:0:
224,224,62109,1,0,0:0:0:0:
224,224,62190,1,0,0:0:0:0:
288,224,62271,1,8,0:0:0:0:
288,224,62433,1,8,0:0:0:0:
224,224,62595,1,0,0:0:0:0:
288,160,62920,5,12,0:0:0:0:
224,224,63245,1,0,0:0:0:0:
224,224,63407,1,0,0:0:0:0:
224,224,63488,1,0,0:0:0:0:
288,224,63569,1,8,0:0:0:0:
288,224,63731,1,8,0:0:0:0:
288,224,63893,1,8,0:0:0:0:
288,224,63974,1,8,0:0:0:0:
224,224,64055,1,0,0:0:0:0:
288,224,64136,1,8,0:0:0:0:
288,224,64218,1,8,0:0:0:0:
288,224,64380,1,8,0:0:0:0:
288,224,64461,1,8,0:0:0:0:
288,224,64542,1,8,0:0:0:0:
288,224,64704,1,8,0:0:0:0:
224,224,64866,1,0,0:0:0:0:
288,160,65191,5,12,0:0:0:0:
224,224,65515,1,0,0:0:0:0:
224,224,65839,1,0,0:0:0:0:
224,224,65920,1,0,0:0:0:0:
288,224,66001,1,8,0:0:0:0:
224,224,66082,1,0,0:0:0:0:
288,224,66163,1,8,0:0:0:0:
288,224,66326,1,8,0:0:0:0:
288,224,66488,1,8,0:0:0:0:
224,224,66650,1,0,0:0:0:0:
288,224,66812,1,8,0:0:0:0:
288,224,66974,1,8,0:0:0:0:
288,224,67055,1,8,0:0:0:0:
224,224,67136,1,0,0:0:0:0:
224,224,67299,1,0,0:0:0:0:
288,224,67461,1,8,0:0:0:0:
288,160,67623,1,12,0:0:0:0:
288,160,67785,1,12,0:0:0:0:
288,224,68109,1,8,0:0:0:0:
224,224,68434,1,0,0:0:0:0:
224,224,68596,1,0,0:0:0:0:
224,224,68677,1,0,0:0:0:0:
288,224,68758,1,8,0:0:0:0:
288,224,68920,1,8,0:0:0:0:
288,224,69082,1,8,0:0:0:0:
288,224,69163,1,8,0:0:0:0:
224,224,69245,1,0,0:0:0:0:
288,224,69326,1,8,0:0:0:0:
288,224,69407,1,8,0:0:0:0:
288,224,69569,1,8,0:0:0:0:
288,224,69650,1,8,0:0:0:0:
288,224,69731,1,8,0:0:0:0:
288,224,69893,1,8,0:0:0:0:
224,224,70055,1,0,0:0:0:0:
288,160,70380,1,12,0:0:0:0:
224,224,70704,1,0,0:0:0:0:
224,224,71028,1,0,0:0:0:0:
224,224,71109,1,0,0:0:0:0:
288,224,71191,1,8,0:0:0:0:
224,224,71272,1,0,0:0:0:0:
288,224,71353,1,8,0:0:0:0:
288,224,71515,1,8,0:0:0:0:
288,224,71677,1,8,0:0:0:0:
224,224,71839,1,0,0:0:0:0:
288,160,72001,1,12,0:0:0:0:
224,224,72163,1,0,0:0:0:0:
288,160,72326,1,12,0:0:0:0:
224,224,72488,1,0,0:0:0:0:
288,160,72650,1,12,0:0:0:0:
288,160,72812,1,12,0:0:0:0:
288,160,72974,1,12,0:0:0:0:
288,160,73136,1,12,0:0:0:0:
288,160,73299,1,12,0:0:0:0:
224,224,73623,1,0,0:0:0:0:
224,224,73785,1,0,0:0:0:0:
224,224,73866,1,0,0:0:0:0:
288,224,73947,1,8,0:0:0:0:
288,224,74109,1,8,0:0:0:0:
288,224,74272,1,8,0:0:0:0:
288,224,74353,1,8,0:0:0:0:
224,224,74434,1,0,0:0:0:0:
288,224,74515,1,8,0:0:0:0:
288,224,74596,1,8,0:0:0:0:
288,224,74758,1,8,0:0:0:0:
288,224,74839,1,8,0:0:0:0:
288,224,74920,1,8,0:0:0:0:
288,224,75082,1,8,0:0:0:0:
224,224,75245,1,0,0:0:0:0:
288,160,75569,1,12,0:0:0:0:
224,224,75893,1,0,0:0:0:0:
224,224,76218,1,0,0:0:0:0:
224,224,76299,1,0,0:0:0:0:
288,224,76380,1,8,0:0:0:0:
224,224,76461,1,0,0:0:0:0:
288,224,76542,1,8,0:0:0:0:
288,224,76704,1,8,0:0:0:0:
288,224,76866,1,8,0:0:0:0:
224,224,77028,1,0,0:0:0:0:
288,224,77191,1,8,0:0:0:0:
288,224,77353,1,8,0:0:0:0:
288,224,77434,1,8,0:0:0:0:
224,224,77515,1,0,0:0:0:0:
224,224,77677,1,0,0:0:0:0:
288,224,77839,1,8,0:0:0:0:
288,160,78001,1,12,0:0:0:0:
288,160,78163,1,12,0:0:0:0:
288,160,78488,1,12,0:0:0:0:
224,224,78812,1,0,0:0:0:0:
224,224,78974,1,0,0:0:0:0:
224,224,79055,1,0,0:0:0:0:
288,224,79136,1,8,0:0:0:0:
288,224,79299,1,8,0:0:0:0:
288,224,79461,1,8,0:0:0:0:
288,224,79542,1,8,0:0:0:0:
224,224,79623,1,0,0:0:0:0:
288,224,79704,1,8,0:0:0:0:
288,224,79785,1,8,0:0:0:0:
288,224,79947,1,8,0:0:0:0:
288,224,80028,1,8,0:0:0:0:
288,224,80109,1,8,0:0:0:0:
288,224,80272,1,8,0:0:0:0:
288,224,80434,1,8,0:0:0:0:
288,160,80758,1,12,0:0:0:0:
224,224,81082,1,0,0:0:0:0:
288,224,81407,1,8,0:0:0:0:
288,224,81488,1,8,0:0:0:0:
288,224,81569,1,8,0:0:0:0:
288,224,81650,1,8,0:0:0:0:
288,224,81731,1,8,0:0:0:0:
288,224,81893,1,8,0:0:0:0:
288,224,82055,1,8,0:0:0:0:
224,224,82218,1,0,0:0:0:0:
288,160,82380,1,12,0:0:0:0:
288,224,82542,1,8,0:0:0:0:
288,160,82704,1,12,0:0:0:0:
288,224,83677,1,8,0:0:0:0:
288,224,83758,1,8,0:0:0:0:
288,224,83839,1,8,0:0:0:0:
288,224,83920,1,8,0:0:0:0:
224,224,84001,1,0,0:0:0:0:
224,224,84163,1,0,0:0:0:0:
288,224,84244,1,8,0:0:0:0:
288,224,84325,1,8,0:0:0:0:
288,224,84487,1,8,0:0:0:0:
224,224,84568,1,0,0:0:0:0:
288,224,84649,1,8,0:0:0:0:
288,224,84731,1,8,0:0:0:0:
224,224,84812,1,0,0:0:0:0:
224,224,84893,1,0,0:0:0:0:
288,224,84974,1,8,0:0:0:0:
224,224,85136,1,0,0:0:0:0:
288,224,85217,1,8,0:0:0:0:
288,224,85298,1,8,0:0:0:0:
288,224,85352,1,8,0:0:0:0:
288,224,85406,1,8,0:0:0:0:
288,224,85460,1,8,0:0:0:0:
224,224,85541,1,0,0:0:0:0:
288,224,85622,1,8,0:0:0:0:
288,224,85704,1,8,0:0:0:0:
224,224,85785,1,0,0:0:0:0:
128,320,85947,2,4,B|128:32|128:32|-64:160,2,499.9999888738
224,224,86271,1,0,0:0:0:0:
224,224,86433,1,0,0:0:0:0:
224,224,86514,1,0,0:0:0:0:
288,224,86595,1,8,0:0:0:0:
224,224,86758,1,0,0:0:0:0:
288,224,86920,1,8,0:0:0:0:
288,224,86940,1,8,0:0:0:0:
288,224,87082,1,8,0:0:0:0:
224,224,87163,1,0,0:0:0:0:
288,224,87244,1,8,0:0:0:0:
288,224,87325,1,8,0:0:0:0:
288,224,87406,1,8,0:0:0:0:
224,224,87487,1,0,0:0:0:0:
288,224,87568,1,8,0:0:0:0:
288,224,87589,1,8,0:0:0:0:
288,224,87731,1,8,0:0:0:0:
288,224,87785,1,8,0:0:0:0:
288,224,87839,1,8,0:0:0:0:
224,224,87893,1,0,0:0:0:0:
224,224,87974,1,0,0:0:0:0:
288,224,88055,1,8,0:0:0:0:
288,224,88136,1,8,0:0:0:0:
224,224,88217,1,0,0:0:0:0:
224,224,88298,1,0,0:0:0:0:
288,224,88379,1,8,0:0:0:0:
224,224,88460,1,0,0:0:0:0:
128,320,88541,2,4,B|128:64|128:64,1,249.9999944369
128,320,88704,2,4,B|128:64|128:64,1,249.9999944369
224,224,88866,1,0,0:0:0:0:
224,224,89028,1,0,0:0:0:0:
288,224,89109,1,8,0:0:0:0:
224,224,89190,1,0,0:0:0:0:
288,224,89352,1,8,0:0:0:0:
288,224,89514,1,8,0:0:0:0:
224,224,89677,1,0,0:0:0:0:
224,224,89758,1,0,0:0:0:0:
288,224,89839,1,8,0:0:0:0:
224,224,89920,1,0,0:0:0:0:
288,224,90001,1,8,0:0:0:0:
224,224,90082,1,0,0:0:0:0:
224,224,90163,1,0,0:0:0:0:
288,224,90325,1,8,0:0:0:0:
288,224,90406,1,8,0:0:0:0:
288,224,90568,1,8,0:0:0:0:
224,224,90649,1,0,0:0:0:0:
288,224,90731,1,8,0:0:0:0:
288,224,90812,1,8,0:0:0:0:
288,224,90974,1,8,0:0:0:0:
128,224,91136,2,4,B|128:64|128:64|-32:160|-32:160|64:288,2,499.9999888738
288,224,91460,1,8,0:0:0:0:
224,224,91622,1,0,0:0:0:0:
224,224,91785,1,0,0:0:0:0:
288,224,91866,1,8,0:0:0:0:
224,224,91947,1,0,0:0:0:0:
288,224,92028,1,8,0:0:0:0:
288,224,92109,1,8,0:0:0:0:
224,224,92271,1,0,0:0:0:0:
288,224,92433,1,8,0:0:0:0:
288,224,92487,1,8,0:0:0:0:
288,224,92541,1,8,0:0:0:0:
224,224,92595,1,0,0:0:0:0:
288,224,92677,1,8,0:0:0:0:
224,224,92758,1,0,0:0:0:0:
288,224,92839,1,8,0:0:0:0:
224,224,92920,1,0,0:0:0:0:
224,224,93001,1,0,0:0:0:0:
288,224,93082,1,8,0:0:0:0:
288,224,93136,1,8,0:0:0:0:
288,224,93190,1,8,0:0:0:0:
224,224,93244,1,0,0:0:0:0:
224,224,93325,1,0,0:0:0:0:
288,224,93406,1,8,0:0:0:0:
288,224,93487,1,8,0:0:0:0:
288,224,93568,1,8,0:0:0:0:
288,224,93649,1,8,0:0:0:0:
224,224,93731,1,0,0:0:0:0:
