osu file format v14

[General]
AudioFilename: audio.mp3
AudioLeadIn: 0
PreviewTime: 61597
Countdown: 0
SampleSet: Normal
StackLeniency: 0.7
Mode: 1
LetterboxInBreaks: 0
WidescreenStoryboard: 1

[Editor]
Bookmarks: 1273,5489,11003,16192,21381,31760,42138,52516,61780,62590,70516,86084
DistanceSpacing: 1
BeatDivisor: 4
GridSize: 32
TimelineZoom: 2.900004

[Metadata]
Title:TSLove
TitleUnicode:TSLove
Artist:O2i3
ArtistUnicode:O2i3
Creator:[_Chichinya_]
Version:JessiLove <3
Source:
Tags:Melanie Friggy-chan kqrth DDM Hi_Hello 404 AccNotFound FlamingRok Dargin Cyoris210 BlackWolf159 Yuno Taikocracy Prancer agu gamerock Nifty Lno Nepuri Raphalge frukoyurdakul Cyssel Unmei Muma Q____X Vulkin JessiChan iContol Chocola_2287 AezLack _yu68 zigizigiefe Grimbow
BeatmapID:1165843
BeatmapSetID:549370

[Difficulty]
HPDrainRate:7
CircleSize:4
OverallDifficulty:6
ApproachRate:9
SliderMultiplier:1.5042328936501
SliderTickRate:1

[Events]
//Background and Video events
0,0,"BG3.png",0,0
//Break Periods
//Storyboard Layer 0 (Background)
//Storyboard Layer 1 (Fail)
//Storyboard Layer 2 (Pass)
//Storyboard Layer 3 (Foreground)
//Storyboard Sound Samples

[TimingPoints]
645,324.324324324324,4,1,0,100,1,0
645,-100,4,1,0,40,0,0
5590,-100,4,1,0,20,0,0
5996,-100,4,1,0,40,0,0
7617,-100,4,1,0,50,0,0
11023,-100,4,1,0,60,0,0
16212,-100,4,1,0,70,0,0
18807,-100,4,1,0,80,0,0
20104,-33.3333333333333,4,1,0,100,0,0
20185,-33.3333333333333,4,1,0,5,0,0
21401,-25,4,1,0,100,0,1
21563,-100,4,1,0,100,0,1
23672,-25,4,2,1,100,0,0
23996,-100,4,1,0,100,0,1
26266,-25,4,2,1,100,0,0
26590,-25,4,1,0,100,0,1
26753,-100,4,1,0,100,0,1
28861,-25,4,2,1,100,0,0
29185,-100,4,1,0,100,0,1
30482,-66.6666666666667,4,2,1,100,0,1
30563,-100,4,1,0,100,0,1
30807,-50,4,2,1,100,0,1
30888,-100,4,1,0,100,0,1
31131,-40,4,2,1,100,0,0
31212,-100,4,1,0,100,0,0
31293,-33.3333333333333,4,2,1,100,0,0
31374,-100,4,1,0,100,0,0
31455,-28.5714285714286,4,2,1,100,0,0
31536,-100,4,1,0,100,0,0
31617,-25,4,2,1,100,0,0
31699,-100,4,1,0,100,0,0
31780,-25,4,1,0,100,0,1
31780,-25,4,1,0,100,0,1
31942,-100,4,1,0,100,0,1
34050,-25,4,2,1,100,0,0
34374,-25,4,1,0,100,0,1
34536,-100,4,1,0,100,0,1
36644,-25,4,2,1,100,0,0
36969,-25,4,1,0,100,0,1
37131,-100,4,1,0,100,0,1
39239,-25,4,2,1,100,0,0
39563,-25,4,1,0,100,0,1
39726,-100,4,1,0,100,0,1
40861,-25,4,2,1,100,0,1
40915,-100,4,1,0,100,0,1
41185,-25,4,2,1,100,0,1
41266,-100,4,1,0,100,0,1
41509,-25,4,2,1,70,0,1
41672,-100,4,1,0,70,0,1
41834,-100,4,1,0,60,0,1
41996,-100,4,1,0,50,0,1
42158,-100,4,1,0,40,0,0
52536,-100,4,1,0,30,0,0
52699,-100,4,1,0,40,0,0
55131,-100,4,1,0,50,0,0
57726,-100,4,1,0,60,0,0
60320,-100,4,1,0,80,0,0
61617,-90.9090909090909,4,1,0,80,0,0
61780,-83.3333333333333,4,1,0,80,0,0
61942,-76.9230769230769,4,1,0,80,0,0
62104,-71.4285714285714,4,1,0,80,0,0
62266,-66.6666666666667,4,1,0,80,0,0
62428,-62.5,4,1,0,80,0,0
62590,-58.8235294117647,4,1,0,80,0,0
62915,-25,4,1,0,100,0,1
63077,-100,4,1,0,100,0,1
65185,-25,4,2,1,100,0,0
65509,-100,4,1,0,100,0,1
67780,-25,4,2,1,100,0,0
68104,-25,4,1,0,100,0,1
68266,-100,4,1,0,100,0,1
70374,-25,4,2,1,100,0,0
70699,-100,4,1,0,100,0,1
71996,-66.6666666666667,4,2,1,100,0,1
72077,-100,4,1,0,100,0,1
72320,-50,4,2,1,100,0,1
72401,-100,4,1,0,100,0,1
72644,-40,4,2,1,100,0,0
72726,-100,4,1,0,100,0,0
72807,-33.3333333333333,4,2,1,100,0,0
72888,-100,4,1,0,100,0,0
72969,-28.5714285714286,4,2,1,100,0,0
73050,-100,4,1,0,100,0,0
73131,-25,4,2,1,100,0,0
73212,-100,4,1,0,100,0,0
73293,-25,4,1,0,100,0,1
73455,-100,4,1,0,100,0,1
75563,-25,4,2,1,100,0,0
75888,-25,4,1,0,100,0,1
76050,-100,4,1,0,100,0,1
78158,-25,4,2,1,100,0,0
78482,-25,4,1,0,100,0,1
78644,-100,4,1,0,100,0,1
80753,-25,4,2,1,100,0,0
80807,-25,4,1,0,30,0,0
81077,-25,4,1,0,100,0,0
81239,-100,4,1,0,100,0,0
83023,-83.3333333333333,4,1,0,50,0,0
83185,-76.9230769230769,4,1,0,50,0,0
83347,-71.4285714285714,4,1,0,50,0,0
83509,-66.6666666666667,4,1,0,50,0,0
83672,-76.9230769230769,4,1,0,60,0,1
85942,-50,4,1,0,60,0,0
86266,-76.9230769230769,4,1,0,60,0,1
88536,-25,4,1,0,60,0,0
88861,-25,4,1,0,60,0,1
89023,-90.9090909090909,4,1,0,70,0,1
89185,-83.3333333333333,4,1,0,70,0,1
89347,-76.9230769230769,4,1,0,70,0,1
89509,-71.4285714285714,4,1,0,70,0,1
89672,-66.6666666666667,4,1,0,70,0,1
89834,-62.5,4,1,0,70,0,1
89996,-58.8235294117647,4,1,0,70,0,1
90158,-55.5555555555556,4,1,0,70,0,1
90320,-52.6315789473684,4,1,0,70,0,1
90482,-50,4,1,0,70,0,1
90644,-47.6190476190476,4,1,0,70,0,1
90807,-45.4545454545455,4,1,0,70,0,1
90969,-43.4782608695652,4,1,0,70,0,1
91131,-41.6666666666667,4,1,0,70,0,0
91455,-76.9230769230769,4,1,0,70,0,0

[HitObjects]
256,192,645,5,12,0:0:0:0:
256,192,807,1,0,0:0:0:0:
256,192,969,1,8,0:0:0:0:
256,192,1131,1,0,0:0:0:0:
256,192,1212,1,0,0:0:0:0:
256,192,1293,1,0,0:0:0:0:
256,192,1455,1,0,0:0:0:0:
256,192,1617,1,8,0:0:0:0:
256,192,1780,1,8,0:0:0:0:
256,192,1942,1,0,0:0:0:0:
256,192,2104,1,0,0:0:0:0:
256,192,2266,1,8,0:0:0:0:
256,192,2428,1,0,0:0:0:0:
256,192,2509,1,0,0:0:0:0:
256,192,2590,1,0,0:0:0:0:
256,192,2753,1,0,0:0:0:0:
256,192,2915,1,8,0:0:0:0:
256,192,3077,1,0,0:0:0:0:
256,192,3239,1,0,0:0:0:0:
256,192,3401,1,0,0:0:0:0:
256,192,3563,1,8,0:0:0:0:
256,192,3726,1,0,0:0:0:0:
256,192,3807,1,0,0:0:0:0:
256,192,3888,1,0,0:0:0:0:
256,192,4050,1,0,0:0:0:0:
256,192,4212,1,8,0:0:0:0:
256,192,4374,1,8,0:0:0:0:
256,192,4536,1,0,0:0:0:0:
256,192,4699,1,0,0:0:0:0:
256,192,4861,1,8,0:0:0:0:
256,192,5023,1,0,0:0:0:0:
256,192,5104,1,0,0:0:0:0:
256,192,5185,1,0,0:0:0:0:
256,192,5347,1,0,0:0:0:0:
256,192,5509,1,8,0:0:0:0:
256,192,5590,1,8,0:0:0:0:
256,192,5672,1,0,0:0:0:0:
256,192,5753,1,8,0:0:0:0:
256,192,5834,1,0,0:0:0:0:
256,192,5996,1,0,0:0:0:0:
256,192,6158,1,8,0:0:0:0:
256,192,6320,1,0,0:0:0:0:
256,192,6401,1,0,0:0:0:0:
256,192,6482,1,0,0:0:0:0:
256,192,6644,1,0,0:0:0:0:
256,192,6806,1,8,0:0:0:0:
256,192,6968,1,8,0:0:0:0:
256,192,7131,1,0,0:0:0:0:
256,192,7293,1,0,0:0:0:0:
256,192,7455,1,8,0:0:0:0:
256,192,7617,1,0,0:0:0:0:
256,192,7699,1,0,0:0:0:0:
256,192,7779,1,0,0:0:0:0:
256,192,7941,1,0,0:0:0:0:
256,192,8104,1,8,0:0:0:0:
256,192,8266,1,0,0:0:0:0:
256,192,8428,1,0,0:0:0:0:
256,192,8590,1,0,0:0:0:0:
256,192,8752,1,8,0:0:0:0:
256,192,8914,1,0,0:0:0:0:
256,192,8996,1,0,0:0:0:0:
256,192,9077,1,0,0:0:0:0:
256,192,9239,1,0,0:0:0:0:
256,192,9401,1,8,0:0:0:0:
256,192,9563,1,8,0:0:0:0:
256,192,9725,1,0,0:0:0:0:
256,192,9887,1,0,0:0:0:0:
256,192,10050,1,8,0:0:0:0:
256,192,10212,1,0,0:0:0:0:
256,192,10374,1,0,0:0:0:0:
256,192,10536,1,8,0:0:0:0:
256,192,10617,1,8,0:0:0:0:
256,192,10698,1,8,0:0:0:0:
256,192,10861,1,8,0:0:0:0:
256,192,10942,1,0,0:0:0:0:
256,192,11023,1,0,0:0:0:0:
256,192,11185,1,0,0:0:0:0:
256,192,11347,1,8,0:0:0:0:
256,192,11509,1,8,0:0:0:0:
256,192,11590,1,0,0:0:0:0:
256,192,11671,1,0,0:0:0:0:
256,192,11833,1,0,0:0:0:0:
256,192,11995,1,8,0:0:0:0:
256,192,12077,1,8,0:0:0:0:
256,192,12157,1,0,0:0:0:0:
256,192,12239,1,8,0:0:0:0:
256,192,12319,1,0,0:0:0:0:
256,192,12482,1,0,0:0:0:0:
256,192,12644,1,8,0:0:0:0:
256,192,12806,1,0,0:0:0:0:
256,192,12968,1,0,0:0:0:0:
256,192,13130,1,0,0:0:0:0:
256,192,13212,1,0,0:0:0:0:
256,192,13293,1,8,0:0:0:0:
256,192,13455,1,8,0:0:0:0:
256,192,13536,1,0,0:0:0:0:
256,192,13617,1,0,0:0:0:0:
256,192,13779,1,0,0:0:0:0:
256,192,13941,1,8,0:0:0:0:
256,192,14103,1,0,0:0:0:0:
256,192,14185,1,0,0:0:0:0:
256,192,14265,1,0,0:0:0:0:
256,192,14428,1,0,0:0:0:0:
256,192,14590,1,8,0:0:0:0:
256,192,14672,1,0,0:0:0:0:
256,192,14752,1,0,0:0:0:0:
256,192,14834,1,8,0:0:0:0:
256,192,14914,1,0,0:0:0:0:
256,192,15076,1,0,0:0:0:0:
256,192,15238,1,8,0:0:0:0:
256,192,15401,1,0,0:0:0:0:
256,192,15563,1,0,0:0:0:0:
256,192,15725,1,0,0:0:0:0:
256,192,15807,1,0,0:0:0:0:
256,192,15887,1,8,0:0:0:0:
256,192,16049,1,8,0:0:0:0:
256,192,16211,1,4,0:0:0:0:
256,192,16374,1,0,0:0:0:0:
256,192,16536,1,8,0:0:0:0:
256,192,16699,1,0,0:0:0:0:
256,192,16861,1,0,0:0:0:0:
256,192,17023,1,0,0:0:0:0:
256,192,17185,1,8,0:0:0:0:
256,192,17347,1,8,0:0:0:0:
256,192,17509,1,0,0:0:0:0:
256,192,17671,1,0,0:0:0:0:
256,192,17834,1,8,0:0:0:0:
256,192,17996,1,0,0:0:0:0:
256,192,18158,1,0,0:0:0:0:
256,192,18320,1,0,0:0:0:0:
256,192,18482,1,8,0:0:0:0:
256,192,18644,1,8,0:0:0:0:
256,192,18807,1,8,0:0:0:0:
256,192,18888,1,0,0:0:0:0:
256,192,18969,1,0,0:0:0:0:
256,192,19050,1,0,0:0:0:0:
256,192,19131,1,8,0:0:0:0:
256,192,19212,1,0,0:0:0:0:
256,192,19293,1,8,0:0:0:0:
256,192,19374,1,0,0:0:0:0:
256,192,19455,1,8,0:0:0:0:
256,192,19509,1,8,0:0:0:0:
256,192,19563,1,8,0:0:0:0:
256,192,19617,1,0,0:0:0:0:
256,192,19699,1,0,0:0:0:0:
256,192,19780,1,8,0:0:0:0:
256,192,19861,1,8,0:0:0:0:
256,192,19942,1,8,0:0:0:0:
256,192,20023,1,8,0:0:0:0:
256,192,20104,2,4,L|352:192,21,75.211644682505
256,192,21401,1,4,0:0:0:0:
256,192,21563,1,0,0:0:0:0:
256,192,21726,1,8,0:0:0:0:
256,192,21888,1,8,0:0:0:0:
256,192,21969,1,0,0:0:0:0:
256,192,22050,1,0,0:0:0:0:
256,192,22212,1,0,0:0:0:0:
256,192,22374,1,8,0:0:0:0:
256,192,22455,1,0,0:0:0:0:
256,192,22536,1,8,0:0:0:0:
256,192,22617,1,8,0:0:0:0:
256,192,22699,1,0,0:0:0:0:
256,192,22861,1,0,0:0:0:0:
256,192,22942,1,0,0:0:0:0:
256,192,23023,1,8,0:0:0:0:
256,192,23185,1,8,0:0:0:0:
256,192,23347,1,0,0:0:0:0:
256,192,23672,1,12,0:0:0:0:
256,192,23996,1,8,0:0:0:0:
256,192,24158,1,0,0:0:0:0:
256,192,24320,1,8,0:0:0:0:
256,192,24482,1,8,0:0:0:0:
256,192,24563,1,0,0:0:0:0:
256,192,24644,1,8,0:0:0:0:
256,192,24807,1,8,0:0:0:0:
256,192,24969,1,8,0:0:0:0:
256,192,25050,1,0,0:0:0:0:
256,192,25131,1,0,0:0:0:0:
256,192,25212,1,0,0:0:0:0:
256,192,25293,1,8,0:0:0:0:
256,192,25455,1,0,0:0:0:0:
256,192,25536,1,8,0:0:0:0:
256,192,25617,1,8,0:0:0:0:
256,192,25780,1,8,0:0:0:0:
256,192,25942,1,8,0:0:0:0:
256,192,26023,1,8,0:0:0:0:
256,192,26104,1,0,0:0:0:0:
256,192,26266,1,12,0:0:0:0:
256,192,26590,1,4,0:0:0:0:
256,192,26753,1,0,0:0:0:0:
256,192,26916,1,8,0:0:0:0:
256,192,27078,1,8,0:0:0:0:
256,192,27159,1,0,0:0:0:0:
256,192,27240,1,0,0:0:0:0:
256,192,27402,1,0,0:0:0:0:
256,192,27564,1,8,0:0:0:0:
256,192,27645,1,8,0:0:0:0:
256,192,27726,1,0,0:0:0:0:
256,192,27807,1,8,0:0:0:0:
256,192,27889,1,0,0:0:0:0:
256,192,28051,1,0,0:0:0:0:
256,192,28132,1,8,0:0:0:0:
256,192,28213,1,8,0:0:0:0:
256,192,28375,1,8,0:0:0:0:
256,192,28537,1,0,0:0:0:0:
256,192,28862,1,12,0:0:0:0:
256,192,29186,1,8,0:0:0:0:
256,192,29348,1,0,0:0:0:0:
256,192,29510,1,8,0:0:0:0:
256,192,29672,1,0,0:0:0:0:
256,192,29753,1,0,0:0:0:0:
256,192,29834,1,8,0:0:0:0:
256,192,29997,1,8,0:0:0:0:
256,192,30159,1,8,0:0:0:0:
256,192,30240,1,8,0:0:0:0:
256,192,30321,1,0,0:0:0:0:
256,192,30402,1,0,0:0:0:0:
256,192,30483,1,8,0:0:0:0:
256,192,30563,1,0,0:0:0:0:
256,192,30645,1,0,0:0:0:0:
256,192,30726,1,0,0:0:0:0:
256,192,30807,1,8,0:0:0:0:
256,192,30889,1,0,0:0:0:0:
256,192,30970,1,0,0:0:0:0:
256,192,31050,1,0,0:0:0:0:
256,192,31131,1,8,0:0:0:0:
256,192,31212,1,0,0:0:0:0:
256,192,31294,1,8,0:0:0:0:
256,192,31375,1,0,0:0:0:0:
256,192,31456,1,8,0:0:0:0:
256,192,31536,1,0,0:0:0:0:
256,192,31617,1,8,0:0:0:0:
256,192,31699,1,0,0:0:0:0:
256,192,31780,1,4,0:0:0:0:
256,192,31942,1,0,0:0:0:0:
256,192,32104,1,8,0:0:0:0:
256,192,32266,1,8,0:0:0:0:
256,192,32347,1,8,0:0:0:0:
256,192,32428,1,0,0:0:0:0:
256,192,32590,1,0,0:0:0:0:
256,192,32753,1,8,0:0:0:0:
256,192,32834,1,8,0:0:0:0:
256,192,32915,1,8,0:0:0:0:
256,192,32996,1,0,0:0:0:0:
256,192,33077,1,8,0:0:0:0:
256,192,33239,1,0,0:0:0:0:
256,192,33320,1,8,0:0:0:0:
256,192,33401,1,8,0:0:0:0:
256,192,33563,1,8,0:0:0:0:
256,192,33644,1,0,0:0:0:0:
256,192,33726,1,0,0:0:0:0:
256,192,33888,1,0,0:0:0:0:
256,192,34050,1,12,0:0:0:0:
256,192,34374,1,4,0:0:0:0:
256,192,34536,1,0,0:0:0:0:
256,192,34699,1,8,0:0:0:0:
256,192,34780,1,0,0:0:0:0:
256,192,34861,1,8,0:0:0:0:
256,192,35023,1,8,0:0:0:0:
256,192,35185,1,8,0:0:0:0:
256,192,35266,1,8,0:0:0:0:
256,192,35347,1,0,0:0:0:0:
256,192,35428,1,0,0:0:0:0:
256,192,35509,1,8,0:0:0:0:
256,192,35590,1,0,0:0:0:0:
256,192,35672,1,8,0:0:0:0:
256,192,35834,1,8,0:0:0:0:
256,192,35915,1,0,0:0:0:0:
256,192,35996,1,0,0:0:0:0:
256,192,36158,1,8,0:0:0:0:
256,192,36320,1,8,0:0:0:0:
256,192,36401,1,0,0:0:0:0:
256,192,36482,1,0,0:0:0:0:
256,192,36644,1,12,0:0:0:0:
256,192,36969,1,4,0:0:0:0:
256,192,37131,1,0,0:0:0:0:
256,192,37293,1,8,0:0:0:0:
256,192,37374,1,0,0:0:0:0:
256,192,37455,1,8,0:0:0:0:
256,192,37617,1,8,0:0:0:0:
256,192,37780,1,8,0:0:0:0:
256,192,37861,1,8,0:0:0:0:
256,192,37942,1,0,0:0:0:0:
256,192,38023,1,0,0:0:0:0:
256,192,38104,1,8,0:0:0:0:
256,192,38185,1,8,0:0:0:0:
256,192,38266,1,0,0:0:0:0:
256,192,38428,1,8,0:0:0:0:
256,192,38509,1,0,0:0:0:0:
256,192,38590,1,8,0:0:0:0:
256,192,38753,1,8,0:0:0:0:
256,192,38834,1,0,0:0:0:0:
256,192,38915,1,0,0:0:0:0:
256,192,39077,1,0,0:0:0:0:
256,192,39239,1,12,0:0:0:0:
256,192,39563,1,4,0:0:0:0:
256,192,39726,1,0,0:0:0:0:
256,192,39888,1,8,0:0:0:0:
256,192,39969,1,8,0:0:0:0:
256,192,40050,1,8,0:0:0:0:
256,192,40131,1,0,0:0:0:0:
256,192,40212,1,8,0:0:0:0:
256,192,40293,1,0,0:0:0:0:
256,192,40374,1,0,0:0:0:0:
256,192,40536,1,8,0:0:0:0:
256,192,40699,1,0,0:0:0:0:
256,192,40780,1,8,0:0:0:0:
256,192,40861,1,8,0:0:0:0:
256,192,40915,1,0,0:0:0:0:
256,192,40969,1,0,0:0:0:0:
256,192,41023,1,0,0:0:0:0:
256,192,41104,1,0,0:0:0:0:
256,192,41185,1,8,0:0:0:0:
256,192,41266,1,0,0:0:0:0:
256,192,41347,1,0,0:0:0:0:
256,192,41509,1,12,0:0:0:0:
256,192,41672,1,8,0:0:0:0:
256,192,41834,1,0,0:0:0:0:
256,192,41996,1,0,0:0:0:0:
256,192,42158,1,12,0:0:0:0:
256,192,42320,1,8,0:0:0:0:
256,192,42482,1,0,0:0:0:0:
256,192,42644,1,8,0:0:0:0:
256,192,42807,1,0,0:0:0:0:
256,192,42969,1,8,0:0:0:0:
256,192,43131,1,0,0:0:0:0:
256,192,43293,1,8,0:0:0:0:
256,192,43455,1,0,0:0:0:0:
256,192,43617,1,8,0:0:0:0:
256,192,43780,1,0,0:0:0:0:
256,192,43942,1,8,0:0:0:0:
256,192,44104,1,0,0:0:0:0:
256,192,44266,1,8,0:0:0:0:
256,192,44428,1,0,0:0:0:0:
256,192,44590,1,8,0:0:0:0:
256,192,44753,1,0,0:0:0:0:
256,192,44915,1,8,0:0:0:0:
256,192,45077,1,0,0:0:0:0:
256,192,45239,1,8,0:0:0:0:
256,192,45401,1,0,0:0:0:0:
256,192,45563,1,8,0:0:0:0:
256,192,45726,1,0,0:0:0:0:
256,192,45888,1,8,0:0:0:0:
256,192,46050,1,0,0:0:0:0:
256,192,46212,1,8,0:0:0:0:
256,192,46374,1,0,0:0:0:0:
256,192,46536,1,8,0:0:0:0:
256,192,46699,1,0,0:0:0:0:
256,192,46861,1,8,0:0:0:0:
256,192,47023,1,0,0:0:0:0:
256,192,47185,1,8,0:0:0:0:
256,192,47347,1,0,0:0:0:0:
256,192,47509,1,8,0:0:0:0:
256,192,47671,1,0,0:0:0:0:
256,192,47833,1,8,0:0:0:0:
256,192,47996,1,0,0:0:0:0:
256,192,48158,1,8,0:0:0:0:
256,192,48320,1,0,0:0:0:0:
256,192,48482,1,8,0:0:0:0:
256,192,48644,1,0,0:0:0:0:
256,192,48806,1,8,0:0:0:0:
256,192,48969,1,0,0:0:0:0:
256,192,49131,1,8,0:0:0:0:
256,192,49293,1,0,0:0:0:0:
256,192,49455,1,8,0:0:0:0:
256,192,49617,1,0,0:0:0:0:
256,192,49779,1,8,0:0:0:0:
256,192,49942,1,0,0:0:0:0:
256,192,50104,1,8,0:0:0:0:
256,192,50266,1,0,0:0:0:0:
256,192,50428,1,8,0:0:0:0:
256,192,50590,1,0,0:0:0:0:
256,192,50752,1,8,0:0:0:0:
256,192,50915,1,0,0:0:0:0:
256,192,51077,1,8,0:0:0:0:
256,192,51239,1,0,0:0:0:0:
256,192,51401,1,8,0:0:0:0:
256,192,51563,1,0,0:0:0:0:
256,192,51725,1,8,0:0:0:0:
256,192,51888,1,0,0:0:0:0:
256,192,52050,1,8,0:0:0:0:
256,192,52212,1,0,0:0:0:0:
256,192,52374,1,8,0:0:0:0:
256,192,52536,1,12,0:0:0:0:
256,192,52699,1,8,0:0:0:0:
256,192,52861,1,0,0:0:0:0:
256,192,52942,1,0,0:0:0:0:
256,192,53023,1,8,0:0:0:0:
256,192,53186,1,0,0:0:0:0:
256,192,53348,1,8,0:0:0:0:
256,192,53510,1,0,0:0:0:0:
256,192,53590,1,0,0:0:0:0:
256,192,53672,1,8,0:0:0:0:
256,192,53753,1,8,0:0:0:0:
256,192,53834,1,0,0:0:0:0:
256,192,53915,1,0,0:0:0:0:
256,192,53996,1,8,0:0:0:0:
256,192,54159,1,0,0:0:0:0:
256,192,54321,1,8,0:0:0:0:
256,192,54483,1,0,0:0:0:0:
256,192,54563,1,0,0:0:0:0:
256,192,54645,1,8,0:0:0:0:
256,192,54807,1,0,0:0:0:0:
256,192,54969,1,8,0:0:0:0:
256,192,55132,1,8,0:0:0:0:
256,192,55212,1,0,0:0:0:0:
256,192,55294,1,8,0:0:0:0:
256,192,55456,1,0,0:0:0:0:
256,192,55618,1,8,0:0:0:0:
256,192,55780,1,0,0:0:0:0:
256,192,55861,1,0,0:0:0:0:
256,192,55942,1,8,0:0:0:0:
256,192,56023,1,8,0:0:0:0:
256,192,56105,1,0,0:0:0:0:
256,192,56267,1,8,0:0:0:0:
256,192,56429,1,0,0:0:0:0:
256,192,56591,1,8,0:0:0:0:
256,192,56753,1,0,0:0:0:0:
256,192,56834,1,0,0:0:0:0:
256,192,56915,1,8,0:0:0:0:
256,192,56996,1,8,0:0:0:0:
256,192,57078,1,0,0:0:0:0:
256,192,57158,1,0,0:0:0:0:
256,192,57240,1,8,0:0:0:0:
256,192,57402,1,0,0:0:0:0:
256,192,57564,1,8,0:0:0:0:
256,192,57726,1,4,0:0:0:0:
256,192,57888,1,0,0:0:0:0:
256,192,58050,1,8,0:0:0:0:
256,192,58212,1,8,0:0:0:0:
256,192,58375,1,0,0:0:0:0:
256,192,58537,1,0,0:0:0:0:
256,192,58699,1,8,0:0:0:0:
256,192,58861,1,8,0:0:0:0:
256,192,59023,1,0,0:0:0:0:
256,192,59185,1,0,0:0:0:0:
256,192,59348,1,8,0:0:0:0:
256,192,59510,1,8,0:0:0:0:
256,192,59672,1,0,0:0:0:0:
256,192,59834,1,0,0:0:0:0:
256,192,59996,1,8,0:0:0:0:
256,192,60158,1,8,0:0:0:0:
256,192,60321,1,8,0:0:0:0:
256,192,60401,1,8,0:0:0:0:
256,192,60482,1,0,0:0:0:0:
256,192,60483,1,0,0:0:0:0:
256,192,60563,1,0,0:0:0:0:
256,192,60645,1,8,0:0:0:0:
256,192,60726,1,8,0:0:0:0:
256,192,60807,1,0,0:0:0:0:
256,192,60888,1,0,0:0:0:0:
256,192,60969,1,8,0:0:0:0:
256,192,61023,1,8,0:0:0:0:
256,192,61077,1,8,0:0:0:0:
256,192,61131,1,0,0:0:0:0:
256,192,61212,1,0,0:0:0:0:
256,192,61294,1,8,0:0:0:0:
256,192,61374,1,0,0:0:0:0:
256,192,61456,1,8,0:0:0:0:
256,192,61536,1,0,0:0:0:0:
256,192,61618,1,8,0:0:0:0:
256,192,61780,1,8,0:0:0:0:
256,192,61942,1,0,0:0:0:0:
256,192,62104,1,0,0:0:0:0:
256,192,62266,1,8,0:0:0:0:
256,192,62428,1,0,0:0:0:0:
256,192,62590,1,0,0:0:0:0:
256,192,62915,1,4,0:0:0:0:
256,192,63077,1,0,0:0:0:0:
256,192,63240,1,8,0:0:0:0:
256,192,63402,1,8,0:0:0:0:
256,192,63483,1,0,0:0:0:0:
256,192,63564,1,0,0:0:0:0:
256,192,63726,1,0,0:0:0:0:
256,192,63888,1,8,0:0:0:0:
256,192,63969,1,0,0:0:0:0:
256,192,64050,1,8,0:0:0:0:
256,192,64131,1,8,0:0:0:0:
256,192,64213,1,0,0:0:0:0:
256,192,64375,1,0,0:0:0:0:
256,192,64456,1,0,0:0:0:0:
256,192,64537,1,8,0:0:0:0:
256,192,64699,1,8,0:0:0:0:
256,192,64861,1,0,0:0:0:0:
256,192,65186,1,12,0:0:0:0:
256,192,65510,1,8,0:0:0:0:
256,192,65672,1,0,0:0:0:0:
256,192,65834,1,8,0:0:0:0:
256,192,65996,1,8,0:0:0:0:
256,192,66077,1,0,0:0:0:0:
256,192,66158,1,8,0:0:0:0:
256,192,66321,1,8,0:0:0:0:
256,192,66483,1,8,0:0:0:0:
256,192,66564,1,0,0:0:0:0:
256,192,66645,1,0,0:0:0:0:
256,192,66726,1,0,0:0:0:0:
256,192,66807,1,8,0:0:0:0:
256,192,66969,1,0,0:0:0:0:
256,192,67050,1,8,0:0:0:0:
256,192,67131,1,8,0:0:0:0:
256,192,67294,1,8,0:0:0:0:
256,192,67456,1,8,0:0:0:0:
256,192,67537,1,8,0:0:0:0:
256,192,67618,1,0,0:0:0:0:
256,192,67780,1,12,0:0:0:0:
256,192,68104,1,4,0:0:0:0:
256,192,68267,1,0,0:0:0:0:
256,192,68430,1,8,0:0:0:0:
256,192,68592,1,8,0:0:0:0:
256,192,68673,1,0,0:0:0:0:
256,192,68754,1,0,0:0:0:0:
256,192,68916,1,0,0:0:0:0:
256,192,69078,1,8,0:0:0:0:
256,192,69159,1,8,0:0:0:0:
256,192,69240,1,0,0:0:0:0:
256,192,69321,1,8,0:0:0:0:
256,192,69403,1,0,0:0:0:0:
256,192,69565,1,0,0:0:0:0:
256,192,69646,1,8,0:0:0:0:
256,192,69727,1,8,0:0:0:0:
256,192,69889,1,8,0:0:0:0:
256,192,70051,1,0,0:0:0:0:
256,192,70376,1,12,0:0:0:0:
256,192,70700,1,8,0:0:0:0:
256,192,70862,1,0,0:0:0:0:
256,192,71024,1,8,0:0:0:0:
256,192,71186,1,0,0:0:0:0:
256,192,71267,1,0,0:0:0:0:
256,192,71348,1,8,0:0:0:0:
256,192,71511,1,8,0:0:0:0:
256,192,71673,1,8,0:0:0:0:
256,192,71754,1,8,0:0:0:0:
256,192,71835,1,0,0:0:0:0:
256,192,71916,1,0,0:0:0:0:
256,192,71997,1,8,0:0:0:0:
256,192,72077,1,0,0:0:0:0:
256,192,72159,1,0,0:0:0:0:
256,192,72240,1,0,0:0:0:0:
256,192,72321,1,8,0:0:0:0:
256,192,72403,1,0,0:0:0:0:
256,192,72484,1,0,0:0:0:0:
256,192,72564,1,0,0:0:0:0:
256,192,72645,1,8,0:0:0:0:
256,192,72726,1,0,0:0:0:0:
256,192,72808,1,8,0:0:0:0:
256,192,72889,1,0,0:0:0:0:
256,192,72970,1,8,0:0:0:0:
256,192,73050,1,0,0:0:0:0:
256,192,73131,1,8,0:0:0:0:
256,192,73213,1,0,0:0:0:0:
256,192,73294,1,4,0:0:0:0:
256,192,73456,1,0,0:0:0:0:
256,192,73618,1,8,0:0:0:0:
256,192,73780,1,8,0:0:0:0:
256,192,73861,1,8,0:0:0:0:
256,192,73942,1,0,0:0:0:0:
256,192,74104,1,0,0:0:0:0:
256,192,74267,1,8,0:0:0:0:
256,192,74348,1,8,0:0:0:0:
256,192,74429,1,8,0:0:0:0:
256,192,74510,1,0,0:0:0:0:
256,192,74591,1,8,0:0:0:0:
256,192,74753,1,0,0:0:0:0:
256,192,74834,1,8,0:0:0:0:
256,192,74915,1,8,0:0:0:0:
256,192,75077,1,8,0:0:0:0:
256,192,75158,1,0,0:0:0:0:
256,192,75240,1,0,0:0:0:0:
256,192,75402,1,0,0:0:0:0:
256,192,75564,1,12,0:0:0:0:
256,192,75888,1,4,0:0:0:0:
256,192,76050,1,0,0:0:0:0:
256,192,76213,1,8,0:0:0:0:
256,192,76294,1,0,0:0:0:0:
256,192,76375,1,8,0:0:0:0:
256,192,76537,1,8,0:0:0:0:
256,192,76699,1,8,0:0:0:0:
256,192,76780,1,8,0:0:0:0:
256,192,76861,1,0,0:0:0:0:
256,192,76942,1,0,0:0:0:0:
256,192,77023,1,8,0:0:0:0:
256,192,77104,1,0,0:0:0:0:
256,192,77186,1,8,0:0:0:0:
256,192,77348,1,8,0:0:0:0:
256,192,77429,1,0,0:0:0:0:
256,192,77510,1,0,0:0:0:0:
256,192,77672,1,8,0:0:0:0:
256,192,77834,1,8,0:0:0:0:
256,192,77915,1,0,0:0:0:0:
256,192,77996,1,0,0:0:0:0:
256,192,78158,1,12,0:0:0:0:
256,192,78483,1,4,0:0:0:0:
256,192,78645,1,0,0:0:0:0:
256,192,78807,1,8,0:0:0:0:
256,192,78888,1,0,0:0:0:0:
256,192,78969,1,8,0:0:0:0:
256,192,79131,1,8,0:0:0:0:
256,192,79294,1,8,0:0:0:0:
256,192,79375,1,8,0:0:0:0:
256,192,79456,1,0,0:0:0:0:
256,192,79537,1,0,0:0:0:0:
256,192,79618,1,8,0:0:0:0:
256,192,79699,1,8,0:0:0:0:
256,192,79780,1,0,0:0:0:0:
256,192,79942,1,8,0:0:0:0:
256,192,80023,1,0,0:0:0:0:
256,192,80104,1,8,0:0:0:0:
256,192,80267,1,8,0:0:0:0:
256,192,80348,1,0,0:0:0:0:
256,192,80429,1,0,0:0:0:0:
256,192,80591,1,0,0:0:0:0:
256,192,80753,1,8,0:0:0:0:
256,192,80807,1,8,0:0:0:0:
256,192,80861,1,8,0:0:0:0:
256,192,80915,1,8,0:0:0:0:
256,192,81077,1,4,0:0:0:0:
256,192,81240,1,0,0:0:0:0:
256,192,81402,1,8,0:0:0:0:
256,192,81483,1,8,0:0:0:0:
256,192,81564,1,8,0:0:0:0:
256,192,81645,1,0,0:0:0:0:
256,192,81726,1,8,0:0:0:0:
256,192,81807,1,0,0:0:0:0:
256,192,81888,1,0,0:0:0:0:
256,192,82050,1,8,0:0:0:0:
256,192,82213,1,0,0:0:0:0:
256,192,82294,1,8,0:0:0:0:
256,192,82375,1,8,0:0:0:0:
256,192,82429,1,0,0:0:0:0:
256,192,82483,1,0,0:0:0:0:
256,192,82537,1,0,0:0:0:0:
256,192,82618,1,0,0:0:0:0:
256,192,82699,1,8,0:0:0:0:
256,192,82780,1,0,0:0:0:0:
256,192,82861,1,0,0:0:0:0:
256,192,83023,1,12,0:0:0:0:
256,192,83186,1,0,0:0:0:0:
256,192,83348,1,8,0:0:0:0:
256,192,83510,1,0,0:0:0:0:
256,192,83672,1,8,0:0:0:0:
256,192,83753,1,0,0:0:0:0:
256,192,83834,1,8,0:0:0:0:
256,192,83915,1,8,0:0:0:0:
256,192,83996,1,0,0:0:0:0:
256,192,84077,1,0,0:0:0:0:
256,192,84158,1,8,0:0:0:0:
256,192,84239,1,8,0:0:0:0:
256,192,84320,1,8,0:0:0:0:
256,192,84401,1,0,0:0:0:0:
256,192,84482,1,8,0:0:0:0:
256,192,84563,1,8,0:0:0:0:
256,192,84644,1,8,0:0:0:0:
256,192,84726,1,0,0:0:0:0:
256,192,84807,1,0,0:0:0:0:
256,192,84888,1,8,0:0:0:0:
256,192,84969,1,8,0:0:0:0:
256,192,85050,1,0,0:0:0:0:
256,192,85131,1,0,0:0:0:0:
256,192,85212,1,8,0:0:0:0:
256,192,85293,1,0,0:0:0:0:
256,192,85347,1,8,0:0:0:0:
256,192,85401,1,8,0:0:0:0:
256,192,85455,1,0,0:0:0:0:
256,192,85536,1,0,0:0:0:0:
256,192,85617,1,8,0:0:0:0:
256,192,85699,1,0,0:0:0:0:
256,192,85780,1,0,0:0:0:0:
256,192,85861,1,8,0:0:0:0:
256,192,85942,1,0,0:0:0:0:
256,192,86266,1,0,0:0:0:0:
256,192,86347,1,0,0:0:0:0:
256,192,86428,1,8,0:0:0:0:
256,192,86509,1,0,0:0:0:0:
256,192,86590,1,0,0:0:0:0:
256,192,86672,1,8,0:0:0:0:
256,192,86753,1,8,0:0:0:0:
256,192,86834,1,0,0:0:0:0:
256,192,86915,1,8,0:0:0:0:
256,192,86996,1,0,0:0:0:0:
256,192,87077,1,8,0:0:0:0:
256,192,87158,1,0,0:0:0:0:
256,192,87239,1,0,0:0:0:0:
256,192,87293,1,8,0:0:0:0:
256,192,87347,1,8,0:0:0:0:
256,192,87401,1,8,0:0:0:0:
256,192,87455,1,0,0:0:0:0:
256,192,87509,1,0,0:0:0:0:
256,192,87563,1,8,0:0:0:0:
256,192,87644,1,0,0:0:0:0:
256,192,87726,1,8,0:0:0:0:
256,192,87807,1,8,0:0:0:0:
256,192,87888,1,8,0:0:0:0:
256,192,87969,1,0,0:0:0:0:
256,192,88050,1,8,0:0:0:0:
256,192,88131,1,0,0:0:0:0:
256,192,88212,1,0,0:0:0:0:
256,192,88293,1,8,0:0:0:0:
256,192,88374,1,8,0:0:0:0:
256,192,88455,1,0,0:0:0:0:
256,192,88536,1,8,0:0:0:0:
256,192,88577,1,8,0:0:0:0:
256,192,88699,1,8,0:0:0:0:
256,192,88739,1,8,0:0:0:0:
256,192,88861,1,4,0:0:0:0:
256,192,89023,1,0,0:0:0:0:
256,192,89063,1,8,0:0:0:0:
256,192,89185,1,0,0:0:0:0:
256,192,89226,1,8,0:0:0:0:
256,192,89347,1,0,0:0:0:0:
256,192,89388,1,8,0:0:0:0:
256,192,89509,1,0,0:0:0:0:
256,192,89550,1,8,0:0:0:0:
256,192,89672,1,0,0:0:0:0:
256,192,89712,1,8,0:0:0:0:
256,192,89834,1,0,0:0:0:0:
256,192,89874,1,0,0:0:0:0:
256,192,89996,1,0,0:0:0:0:
256,192,90036,1,0,0:0:0:0:
256,192,90158,1,8,0:0:0:0:
256,192,90199,1,8,0:0:0:0:
256,192,90320,1,8,0:0:0:0:
256,192,90361,1,8,0:0:0:0:
256,192,90482,1,0,0:0:0:0:
256,192,90523,1,0,0:0:0:0:
256,192,90644,1,8,0:0:0:0:
256,192,90685,1,8,0:0:0:0:
256,192,90807,1,8,0:0:0:0:
256,192,90847,1,8,0:0:0:0:
256,192,90969,1,8,0:0:0:0:
256,192,91131,12,0,91455,0:0:0:0:
256,192,91455,5,0,0:0:0:0:
256,192,91617,1,8,0:0:0:0:
256,192,91699,1,0,0:0:0:0:
256,192,91780,1,8,0:0:0:0:
256,192,91861,1,0,0:0:0:0:
256,192,91942,1,8,0:0:0:0:
256,192,92023,1,0,0:0:0:0:
256,192,92104,1,8,0:0:0:0:
256,192,92185,1,0,0:0:0:0:
256,192,92266,1,0,0:0:0:0:
256,192,92347,1,0,0:0:0:0:
256,192,92428,1,8,0:0:0:0:
256,192,92509,1,8,0:0:0:0:
256,192,92590,1,8,0:0:0:0:
256,192,92672,1,0,0:0:0:0:
256,192,92753,1,8,0:0:0:0:
256,192,92834,1,0,0:0:0:0:
256,192,92915,1,0,0:0:0:0:
256,192,92996,1,0,0:0:0:0:
256,192,93077,1,8,0:0:0:0:
256,192,93158,1,0,0:0:0:0:
256,192,93239,1,0,0:0:0:0:
256,192,93320,1,0,0:0:0:0:
256,192,93401,1,8,0:0:0:0:
256,192,93455,1,8,0:0:0:0:
256,192,93509,1,8,0:0:0:0:
256,192,93563,1,0,0:0:0:0:
256,192,93644,1,0,0:0:0:0:
256,192,93726,1,4,0:0:0:0:
