osu file format v14

[General]
AudioFilename: audio.mp3
AudioLeadIn: 0
PreviewTime: 61617
Countdown: 0
SampleSet: Normal
StackLeniency: 0.7
Mode: 3
LetterboxInBreaks: 0
SpecialStyle: 0
WidescreenStoryboard: 1

[Editor]
Bookmarks: 21401,26104,27077,28050,29185,30158,31131,32104,33077,34050,35347,36320,37293,38266,39239,40536,41834,42158,52536,57726,62915,67617,83672
DistanceSpacing: 1
BeatDivisor: 4
GridSize: 32
TimelineZoom: 2.600004

[Metadata]
Title:TSLove
TitleUnicode:TSLove
Artist:O2i3
ArtistUnicode:O2i3
Creator:[_Chichinya_]
Version:JessiChanLoves7K <3
Source:
Tags:Melanie Friggy-chan kqrth DDM Hi_Hello 404 AccNotFound FlamingRok Dargin Cyoris210 BlackWolf159 Yuno Taikocracy Prancer agu gamerock Nifty Lno Nepuri Raphalge frukoyurdakul Cyssel Unmei Muma Q____X Vulkin JessiChan iContol Chocola_2287 AezLack _yu68 zigizigiefe Grimbow
BeatmapID:1190980
BeatmapSetID:549370

[Difficulty]
HPDrainRate:6
CircleSize:7
OverallDifficulty:7
ApproachRate:9
SliderMultiplier:1.5042328936501
SliderTickRate:1

[Events]
//Background and Video events
0,0,"Cardcaptor.Sakura.full.1652689.jpg",0,0
//Break Periods
//Storyboard Layer 0 (Background)
//Storyboard Layer 1 (Fail)
//Storyboard Layer 2 (Pass)
//Storyboard Layer 3 (Foreground)
//Storyboard Sound Samples

[TimingPoints]
645,324.324324324324,4,1,1,70,1,0
20104,-100,4,1,1,5,0,0
21401,-100,4,1,1,70,0,1
21401,-100,4,1,1,70,0,1
23347,-25,4,1,1,70,0,1
23509,-1000,4,1,1,70,0,1
23672,-1000,4,2,1,70,0,0
23712,-1000,4,1,1,70,0,1
23753,-100,4,1,1,70,0,0
23996,-100,4,1,1,70,0,1
26104,-25,4,2,1,70,0,0
26158,-25,4,1,1,70,0,0
26185,-1000,4,1,1,70,0,0
26266,-1000,4,2,1,70,0,0
26293,-1000,4,1,1,70,0,0
26307,-25,4,1,1,70,0,0
26428,-1000,4,1,1,70,0,0
26590,-100,4,1,1,70,0,1
28536,-25,4,1,1,70,0,1
28699,-1000,4,2,1,70,0,0
28901,-100,4,1,1,70,0,0
29185,-100,4,1,1,70,0,1
30482,-25,4,2,1,70,0,1
30644,-1000,4,2,1,70,0,1
30861,-25,4,2,1,70,0,1
30969,-1000,4,2,1,70,0,0
31185,-25,4,2,1,70,0,0
31239,-1000,4,2,1,70,0,0
31347,-25,4,2,1,70,0,0
31401,-1000,4,2,1,70,0,0
31509,-25,4,2,1,70,0,0
31563,-1000,4,2,1,70,0,0
31617,-100,4,2,1,70,0,0
31780,-100,4,1,1,70,0,1
33726,-25,4,1,1,70,0,1
33888,-1000,4,1,1,70,0,1
34050,-100,4,2,1,70,0,0
34104,-100,4,1,1,70,0,0
34374,-100,4,1,1,70,0,1
36482,-25,4,2,1,70,0,0
36590,-1000,4,2,1,70,0,0
36699,-25,4,2,1,70,0,0
36807,-1000,4,2,1,70,0,0
36969,-100,4,1,1,70,0,1
38915,-25,4,1,1,70,0,1
39077,-1000,4,1,1,70,0,1
39239,-100,4,2,1,70,0,0
39293,-100,4,1,1,70,0,0
39563,-100,4,1,1,70,0,1
40861,-25,4,2,1,70,0,1
41023,-1000,4,2,1,70,0,1
41185,-25,4,2,1,70,0,1
41347,-1000,4,2,1,70,0,1
41509,-100,4,1,1,70,0,0
42320,-100,4,2,1,70,0,0
57726,-100,4,1,1,70,0,0
61617,-100,4,1,1,5,0,0
61617,-90.9090909090909,4,1,1,5,0,0
61780,-83.3333333333333,4,1,1,5,0,0
61942,-76.9230769230769,4,1,1,5,0,0
62104,-71.4285714285714,4,1,1,5,0,0
62266,-66.6666666666667,4,1,1,5,0,0
62428,-62.5,4,1,1,5,0,0
62590,-58.8235294117647,4,1,1,5,0,0
62915,-100,4,1,1,70,0,1
64861,-25,4,1,1,70,0,1
65023,-1000,4,1,1,70,0,1
65185,-100,4,2,1,70,0,0
65239,-100,4,1,1,70,0,0
65509,-100,4,1,1,70,0,1
67617,-25,4,2,1,70,0,0
67699,-1000,4,2,1,70,0,0
67780,-25,4,2,1,70,0,0
67942,-1000,4,2,1,70,0,0
68104,-100,4,1,1,70,0,1
70050,-25,4,1,1,70,0,1
70212,-1000,4,1,1,70,0,1
70374,-100,4,2,1,70,0,0
70428,-100,4,1,1,70,0,0
70699,-100,4,1,1,70,0,1
71996,-25,4,2,1,70,0,1
72158,-1000,4,2,1,70,0,1
72320,-25,4,2,1,70,0,1
72482,-1000,4,2,1,70,0,0
72699,-25,4,2,1,70,0,0
72753,-1000,4,2,1,70,0,0
72861,-25,4,2,1,70,0,0
72915,-1000,4,2,1,70,0,0
73023,-25,4,2,1,70,0,0
73077,-1000,4,2,1,70,0,0
73185,-25,4,2,1,70,0,0
73239,-1000,4,2,1,70,0,0
73293,-100,4,1,1,70,0,1
75239,-25,4,1,1,70,0,1
75401,-1000,4,1,1,70,0,1
75563,-100,4,2,1,70,0,0
75617,-100,4,1,1,70,0,0
75888,-100,4,1,1,70,0,1
77996,-25,4,2,1,70,0,0
78077,-1000,4,2,1,70,0,0
78158,-25,4,2,1,70,0,0
78320,-1000,4,2,1,70,0,0
78482,-100,4,1,1,70,0,1
80428,-25,4,1,1,70,0,1
80590,-1000,4,1,1,70,0,0
80807,-25,4,1,1,70,0,0
81077,-100,4,1,1,70,0,1
82374,-25,4,2,1,70,0,1
82536,-1000,4,2,1,70,0,1
82753,-25,4,2,1,70,0,1
82861,-1000,4,2,1,70,0,1
83023,-100,4,1,1,5,0,0
83185,-50,4,1,1,5,0,0
83347,-33.3333333333333,4,1,1,5,0,0
83509,-25,4,1,1,5,0,0
83590,-1000,4,1,1,70,0,1
83672,-100,4,1,1,70,0,1
85942,-25,4,1,1,70,0,1
86104,-1000,4,1,1,70,0,1
86266,-100,4,1,1,70,0,1
88536,-25,4,1,1,70,0,0
88536,-100,4,1,1,70,0,0
88617,-1000,4,1,1,70,0,0
88726,-25,4,1,1,70,0,0
88780,-1000,4,1,1,70,0,0
88861,-100,4,1,1,70,0,1
88861,-100,4,1,1,70,0,1
88861,-90.9090909090909,4,1,1,70,0,1
89023,-83.3333333333333,4,1,1,70,0,1
89185,-76.9230769230769,4,1,1,70,0,1
89347,-71.4285714285714,4,1,1,70,0,1
89509,-66.6666666666667,4,1,1,70,0,1
89672,-62.5,4,1,1,70,0,1
89834,-58.8235294117647,4,1,1,70,0,1
89996,-55.5555555555556,4,1,1,70,0,1
90158,-52.6315789473684,4,1,1,70,0,1
90320,-50,4,1,1,70,0,1
90482,-47.6190476190476,4,1,1,70,0,1
90644,-45.4545454545455,4,1,1,70,0,1
90807,-43.4782608695652,4,1,1,70,0,1
90969,-41.6666666666667,4,1,1,70,0,1
91131,-25,4,1,1,70,0,0
91131,-100,4,1,1,70,0,0
91293,-1000,4,1,1,70,0,0
91455,-100,4,1,1,70,0,1
93726,-100,4,1,1,70,0,0

[HitObjects]
36,192,645,5,0,0:0:0:0:
329,192,645,1,0,0:0:0:0:
402,192,645,1,0,0:0:0:0:
475,192,645,1,0,0:0:0:0:
182,192,807,1,0,0:0:0:0:
329,192,969,1,8,0:0:0:0:
109,192,969,1,0,0:0:0:0:
36,192,1131,1,0,0:0:0:0:
109,192,1212,1,0,0:0:0:0:
182,192,1293,1,0,0:0:0:0:
475,192,1455,1,0,0:0:0:0:
256,192,1617,1,8,0:0:0:0:
402,192,1617,1,0,0:0:0:0:
329,192,1780,1,0,0:0:0:0:
36,192,1942,1,0,0:0:0:0:
182,192,2104,1,0,0:0:0:0:
402,192,2266,1,0,0:0:0:0:
109,192,2266,1,8,0:0:0:0:
329,192,2428,1,0,0:0:0:0:
182,192,2509,1,0,0:0:0:0:
109,192,2590,1,0,0:0:0:0:
256,192,2753,1,0,0:0:0:0:
36,192,2915,1,0,0:0:0:0:
402,192,2915,1,8,0:0:0:0:
329,192,3077,1,0,0:0:0:0:
182,192,3239,1,0,0:0:0:0:
329,192,3401,1,0,0:0:0:0:
256,192,3563,1,8,0:0:0:0:
475,192,3563,1,0,0:0:0:0:
109,192,3726,1,0,0:0:0:0:
182,192,3807,1,0,0:0:0:0:
402,192,3888,1,0,0:0:0:0:
329,192,4050,1,0,0:0:0:0:
109,192,4212,1,8,0:0:0:0:
475,192,4212,1,0,0:0:0:0:
182,192,4374,1,0,0:0:0:0:
36,192,4536,1,0,0:0:0:0:
329,192,4699,1,0,0:0:0:0:
475,192,4861,1,8,0:0:0:0:
182,192,4861,1,0,0:0:0:0:
329,192,5023,1,0,0:0:0:0:
256,192,5104,1,0,0:0:0:0:
36,192,5185,1,0,0:0:0:0:
182,192,5347,1,0,0:0:0:0:
329,192,5509,1,8,0:0:0:0:
402,192,5509,1,0,0:0:0:0:
109,192,5509,1,0,0:0:0:0:
182,192,5590,1,0,0:0:0:0:
256,192,5672,1,0,0:0:0:0:
329,192,5753,1,0,0:0:0:0:
402,192,5834,1,0,0:0:0:0:
182,192,5996,1,0,0:0:0:0:
36,192,6158,1,0,0:0:0:0:
329,192,6158,1,8,0:0:0:0:
402,192,6320,1,0,0:0:0:0:
329,192,6401,1,0,0:0:0:0:
182,192,6482,1,0,0:0:0:0:
256,192,6644,1,0,0:0:0:0:
109,192,6807,1,8,0:0:0:0:
36,192,6807,1,0,0:0:0:0:
402,192,6969,1,0,0:0:0:0:
109,192,7131,1,0,0:0:0:0:
256,192,7293,1,0,0:0:0:0:
329,192,7455,1,8,0:0:0:0:
36,192,7455,1,0,0:0:0:0:
182,192,7617,1,0,0:0:0:0:
329,192,7699,1,0,0:0:0:0:
475,192,7780,1,0,0:0:0:0:
109,192,7942,1,0,0:0:0:0:
182,192,8104,1,8,0:0:0:0:
402,192,8104,1,0,0:0:0:0:
329,192,8266,1,0,0:0:0:0:
109,192,8428,1,0,0:0:0:0:
402,192,8590,1,0,0:0:0:0:
256,192,8753,1,8,0:0:0:0:
36,192,8753,1,0,0:0:0:0:
329,192,8915,1,0,0:0:0:0:
182,192,8996,1,0,0:0:0:0:
109,192,9077,1,0,0:0:0:0:
329,192,9239,1,0,0:0:0:0:
182,192,9401,1,0,0:0:0:0:
475,192,9401,1,8,0:0:0:0:
256,192,9563,1,0,0:0:0:0:
109,192,9726,1,0,0:0:0:0:
402,192,9888,1,0,0:0:0:0:
182,192,10050,1,0,0:0:0:0:
36,192,10050,1,8,0:0:0:0:
109,192,10212,1,0,0:0:0:0:
256,192,10293,1,0,0:0:0:0:
329,192,10374,1,0,0:0:0:0:
402,192,10536,1,0,0:0:0:0:
329,192,10617,1,0,0:0:0:0:
182,192,10699,1,0,0:0:0:0:
109,192,10699,1,8,0:0:0:0:
36,192,10861,1,0,0:0:0:0:
109,192,10942,1,0,0:0:0:0:
329,192,11023,128,0,11347:0:0:0:0:
475,192,11023,1,0,0:0:0:0:
182,192,11023,1,0,0:0:0:0:
475,192,11347,128,0,11672:0:0:0:0:
182,192,11347,1,0,0:0:0:0:
402,192,11347,1,8,0:0:0:0:
109,192,11509,1,0,0:0:0:0:
36,192,11590,1,0,0:0:0:0:
182,192,11672,1,0,0:0:0:0:
256,192,11672,128,0,11996:0:0:0:0:
402,192,11834,1,0,0:0:0:0:
109,192,11996,128,0,12320:0:0:0:0:
329,192,11996,1,0,0:0:0:0:
36,192,11996,1,8,0:0:0:0:
402,192,12158,1,0,0:0:0:0:
329,192,12320,128,0,12644:0:0:0:0:
256,192,12320,1,0,0:0:0:0:
475,192,12320,1,0,0:0:0:0:
182,192,12482,1,0,0:0:0:0:
36,192,12644,1,0,0:0:0:0:
402,192,12644,1,8,0:0:0:0:
109,192,12644,128,0,12969:0:0:0:0:
182,192,12807,1,0,0:0:0:0:
329,192,12888,1,0,0:0:0:0:
402,192,12969,128,0,13293:0:0:0:0:
475,192,12969,1,0,0:0:0:0:
36,192,12969,1,0,0:0:0:0:
256,192,13131,1,0,0:0:0:0:
182,192,13293,128,0,13617:0:0:0:0:
109,192,13293,1,0,0:0:0:0:
329,192,13293,1,8,0:0:0:0:
36,192,13455,1,0,0:0:0:0:
256,192,13617,128,0,13942:0:0:0:0:
475,192,13617,1,0,0:0:0:0:
402,192,13617,1,0,0:0:0:0:
109,192,13780,1,0,0:0:0:0:
402,192,13942,128,0,14266:0:0:0:0:
36,192,13942,1,0,0:0:0:0:
182,192,13942,1,8,0:0:0:0:
329,192,14104,1,0,0:0:0:0:
36,192,14185,1,0,0:0:0:0:
182,192,14266,128,0,14590:0:0:0:0:
109,192,14266,1,0,0:0:0:0:
475,192,14266,1,0,0:0:0:0:
256,192,14428,1,0,0:0:0:0:
109,192,14590,128,0,14915:0:0:0:0:
475,192,14590,1,0,0:0:0:0:
329,192,14590,1,8,0:0:0:0:
402,192,14753,1,0,0:0:0:0:
475,192,14915,128,0,15239:0:0:0:0:
182,192,14915,1,0,0:0:0:0:
36,192,14915,1,0,0:0:0:0:
329,192,14915,1,0,0:0:0:0:
402,192,15077,1,0,0:0:0:0:
256,192,15239,128,0,15563:0:0:0:0:
329,192,15239,1,0,0:0:0:0:
109,192,15239,1,0,0:0:0:0:
36,192,15239,1,8,0:0:0:0:
182,192,15401,1,0,0:0:0:0:
329,192,15482,1,0,0:0:0:0:
109,192,15563,128,0,15888:0:0:0:0:
402,192,15563,1,0,0:0:0:0:
475,192,15563,1,0,0:0:0:0:
36,192,15563,1,0,0:0:0:0:
329,192,15726,1,0,0:0:0:0:
402,192,15888,128,0,16212:0:0:0:0:
182,192,15888,1,0,0:0:0:0:
475,192,15888,1,0,0:0:0:0:
256,192,15888,1,8,0:0:0:0:
329,192,15969,1,0,0:0:0:0:
182,192,16050,128,0,16212:0:0:0:0:
109,192,16212,1,0,0:0:0:0:
36,192,16212,1,0,0:0:0:0:
256,192,16212,1,8,0:0:0:0:
475,192,16212,1,0,0:0:0:0:
182,192,16374,1,0,0:0:0:0:
329,192,16374,1,0,0:0:0:0:
475,192,16536,1,0,0:0:0:0:
402,192,16536,1,0,0:0:0:0:
109,192,16536,1,0,0:0:0:0:
256,192,16536,1,0,0:0:0:0:
329,192,16699,1,0,0:0:0:0:
36,192,16699,1,0,0:0:0:0:
109,192,16861,1,0,0:0:0:0:
182,192,16861,1,0,0:0:0:0:
329,192,16861,1,8,0:0:0:0:
402,192,16861,1,0,0:0:0:0:
36,192,17023,1,0,0:0:0:0:
402,192,17023,1,0,0:0:0:0:
109,192,17185,1,0,0:0:0:0:
329,192,17185,1,0,0:0:0:0:
256,192,17185,1,0,0:0:0:0:
475,192,17185,1,0,0:0:0:0:
402,192,17347,1,0,0:0:0:0:
36,192,17347,1,0,0:0:0:0:
182,192,17509,1,0,0:0:0:0:
475,192,17509,1,0,0:0:0:0:
402,192,17509,1,0,0:0:0:0:
329,192,17509,1,8,0:0:0:0:
182,192,17672,1,0,0:0:0:0:
36,192,17672,1,0,0:0:0:0:
109,192,17834,1,0,0:0:0:0:
182,192,17834,1,0,0:0:0:0:
256,192,17834,1,0,0:0:0:0:
402,192,17834,1,0,0:0:0:0:
329,192,17996,1,0,0:0:0:0:
109,192,17996,1,0,0:0:0:0:
36,192,18158,1,0,0:0:0:0:
402,192,18158,1,0,0:0:0:0:
256,192,18158,1,8,0:0:0:0:
182,192,18158,1,0,0:0:0:0:
182,192,18320,1,0,0:0:0:0:
329,192,18320,1,0,0:0:0:0:
475,192,18482,1,0,0:0:0:0:
402,192,18482,1,0,0:0:0:0:
109,192,18482,1,0,0:0:0:0:
36,192,18482,1,0,0:0:0:0:
182,192,18644,1,0,0:0:0:0:
402,192,18644,1,0,0:0:0:0:
109,192,18807,1,0,0:0:0:0:
36,192,18807,1,0,0:0:0:0:
475,192,18807,1,0,0:0:0:0:
402,192,18807,1,0,0:0:0:0:
329,192,18807,1,8,0:0:0:0:
256,192,18888,1,0,0:0:0:0:
182,192,18969,1,0,0:0:0:0:
109,192,19050,1,0,0:0:0:0:
182,192,19131,1,0,0:0:0:0:
402,192,19131,1,8,0:0:0:0:
329,192,19212,1,0,0:0:0:0:
402,192,19293,1,0,0:0:0:0:
329,192,19374,1,0,0:0:0:0:
256,192,19455,1,8,0:0:0:0:
36,192,19455,1,0,0:0:0:0:
182,192,19496,1,0,0:0:0:0:
109,192,19536,1,0,0:0:0:0:
182,192,19577,1,0,0:0:0:0:
256,192,19617,1,0,0:0:0:0:
329,192,19658,1,0,0:0:0:0:
402,192,19699,1,0,0:0:0:0:
475,192,19780,1,0,0:0:0:0:
109,192,19780,1,8,0:0:0:0:
329,192,19861,1,0,0:0:0:0:
182,192,19942,1,0,0:0:0:0:
109,192,20023,1,0,0:0:0:0:
36,192,20104,128,0,21239:0:0:0:0:
475,192,20104,128,0,21239:0:0:0:0:
256,192,20104,1,0,0:0:0:0:
402,192,20104,1,0,0:0:0:0:
329,192,20104,1,0,0:0:0:0:
109,192,20428,128,0,21239:0:0:0:0:
182,192,20753,128,0,21239:0:0:0:0:
256,192,21077,128,0,21239:0:0:0:0:
182,192,21401,1,0,0:0:0:0:
109,192,21401,1,0,0:0:0:0:
36,192,21401,1,0,0:0:0:0:
256,192,21401,1,0,0:0:0:0:
402,192,21401,1,0,0:0:0:0:
475,192,21401,1,0,0:0:0:0:
329,192,21563,1,0,0:0:0:0:
109,192,21726,1,0,0:0:0:0:
182,192,21726,1,8,0:0:0:0:
402,192,21726,1,0,0:0:0:0:
109,192,21888,1,0,0:0:0:0:
182,192,21969,1,0,0:0:0:0:
329,192,22050,1,0,0:0:0:0:
475,192,22050,1,0,0:0:0:0:
36,192,22050,1,0,0:0:0:0:
109,192,22212,1,0,0:0:0:0:
182,192,22374,1,0,0:0:0:0:
475,192,22374,1,8,0:0:0:0:
329,192,22455,1,0,0:0:0:0:
109,192,22536,1,0,0:0:0:0:
256,192,22617,1,0,0:0:0:0:
402,192,22699,1,0,0:0:0:0:
182,192,22699,1,0,0:0:0:0:
109,192,22861,1,0,0:0:0:0:
36,192,22942,1,0,0:0:0:0:
109,192,23023,1,0,0:0:0:0:
402,192,23023,1,8,0:0:0:0:
329,192,23104,1,0,0:0:0:0:
402,192,23185,1,0,0:0:0:0:
475,192,23266,1,0,0:0:0:0:
182,192,23347,128,0,23672:0:0:0:0:
36,192,23347,1,0,0:0:0:0:
329,192,23347,1,0,0:0:0:0:
109,192,23347,1,0,0:0:0:0:
109,192,23672,1,8,0:0:0:0:
402,192,23672,1,8,0:0:0:0:
475,192,23672,1,8,0:0:0:0:
36,192,23996,1,0,0:0:0:0:
256,192,23996,1,0,0:0:0:0:
329,192,23996,1,0,0:0:0:0:
402,192,23996,1,0,0:0:0:0:
475,192,23996,1,0,0:0:0:0:
109,192,24158,1,0,0:0:0:0:
329,192,24320,1,0,0:0:0:0:
182,192,24320,1,8,0:0:0:0:
402,192,24401,1,0,0:0:0:0:
475,192,24482,1,0,0:0:0:0:
402,192,24536,1,0,0:0:0:0:
329,192,24590,1,0,0:0:0:0:
182,192,24644,1,0,0:0:0:0:
109,192,24644,1,0,0:0:0:0:
36,192,24807,1,0,0:0:0:0:
182,192,24888,1,0,0:0:0:0:
402,192,24969,1,8,0:0:0:0:
109,192,24969,1,0,0:0:0:0:
329,192,25050,1,0,0:0:0:0:
182,192,25131,1,0,0:0:0:0:
329,192,25293,1,0,0:0:0:0:
475,192,25293,1,0,0:0:0:0:
402,192,25374,1,0,0:0:0:0:
182,192,25455,1,0,0:0:0:0:
36,192,25536,1,0,0:0:0:0:
402,192,25617,1,0,0:0:0:0:
329,192,25617,1,8,0:0:0:0:
109,192,25699,1,0,0:0:0:0:
182,192,25780,1,0,0:0:0:0:
256,192,25861,1,0,0:0:0:0:
329,192,25942,1,0,0:0:0:0:
402,192,26023,1,0,0:0:0:0:
329,192,26104,128,8,26590:0:0:0:0:
182,192,26104,1,0,0:0:0:0:
475,192,26104,1,0,0:0:0:0:
36,192,26266,128,8,26590:0:0:0:0:
109,192,26590,1,0,0:0:0:0:
402,192,26590,1,0,0:0:0:0:
182,192,26590,1,0,0:0:0:0:
182,192,26753,1,0,0:0:0:0:
36,192,26915,1,0,0:0:0:0:
475,192,26915,1,8,0:0:0:0:
182,192,27077,1,0,0:0:0:0:
329,192,27158,1,0,0:0:0:0:
402,192,27239,1,0,0:0:0:0:
475,192,27239,1,0,0:0:0:0:
329,192,27320,1,0,0:0:0:0:
109,192,27401,1,0,0:0:0:0:
182,192,27563,1,0,0:0:0:0:
36,192,27563,1,8,0:0:0:0:
256,192,27644,1,0,0:0:0:0:
329,192,27726,1,0,0:0:0:0:
402,192,27807,1,0,0:0:0:0:
329,192,27888,1,0,0:0:0:0:
182,192,27888,1,0,0:0:0:0:
109,192,28050,1,0,0:0:0:0:
36,192,28131,1,0,0:0:0:0:
109,192,28212,1,0,0:0:0:0:
402,192,28212,1,8,0:0:0:0:
182,192,28293,1,0,0:0:0:0:
329,192,28374,1,0,0:0:0:0:
402,192,28455,1,0,0:0:0:0:
182,192,28536,128,0,28861:0:0:0:0:
475,192,28536,1,0,0:0:0:0:
109,192,28536,1,0,0:0:0:0:
256,192,28536,1,0,0:0:0:0:
36,192,28861,1,8,0:0:0:0:
109,192,28861,1,8,0:0:0:0:
329,192,28861,1,8,0:0:0:0:
109,192,29185,1,0,0:0:0:0:
475,192,29185,1,0,0:0:0:0:
256,192,29185,1,0,0:0:0:0:
402,192,29185,1,0,0:0:0:0:
36,192,29185,1,0,0:0:0:0:
182,192,29347,1,0,0:0:0:0:
109,192,29509,1,0,0:0:0:0:
256,192,29509,1,8,0:0:0:0:
329,192,29590,1,0,0:0:0:0:
402,192,29672,1,0,0:0:0:0:
256,192,29753,1,0,0:0:0:0:
182,192,29834,1,0,0:0:0:0:
36,192,29834,1,0,0:0:0:0:
329,192,29996,1,0,0:0:0:0:
402,192,30077,1,0,0:0:0:0:
182,192,30158,1,8,0:0:0:0:
329,192,30158,1,0,0:0:0:0:
109,192,30212,1,0,0:0:0:0:
36,192,30266,1,0,0:0:0:0:
109,192,30320,1,0,0:0:0:0:
182,192,30401,1,0,0:0:0:0:
329,192,30482,128,8,30807:0:0:0:0:
475,192,30482,1,8,0:0:0:0:
109,192,30482,1,8,0:0:0:0:
36,192,30482,1,8,0:0:0:0:
109,192,30807,128,8,31131:0:0:0:0:
182,192,30807,1,8,0:0:0:0:
402,192,30807,1,8,0:0:0:0:
475,192,30807,1,8,0:0:0:0:
402,192,31131,1,8,0:0:0:0:
182,192,31131,1,8,0:0:0:0:
36,192,31131,1,8,0:0:0:0:
256,192,31293,1,8,0:0:0:0:
475,192,31293,1,8,0:0:0:0:
109,192,31455,1,8,0:0:0:0:
329,192,31455,1,8,0:0:0:0:
36,192,31617,1,8,0:0:0:0:
256,192,31617,1,8,0:0:0:0:
36,192,31780,1,0,0:0:0:0:
109,192,31780,1,0,0:0:0:0:
182,192,31780,1,0,0:0:0:0:
329,192,31780,1,0,0:0:0:0:
475,192,31780,1,0,0:0:0:0:
182,192,31942,1,0,0:0:0:0:
36,192,32104,1,0,0:0:0:0:
402,192,32104,1,8,0:0:0:0:
109,192,32266,1,0,0:0:0:0:
182,192,32347,1,0,0:0:0:0:
329,192,32428,1,0,0:0:0:0:
109,192,32428,1,0,0:0:0:0:
182,192,32590,1,0,0:0:0:0:
109,192,32753,1,8,0:0:0:0:
256,192,32753,1,0,0:0:0:0:
36,192,32834,1,0,0:0:0:0:
109,192,32915,1,0,0:0:0:0:
182,192,32996,1,0,0:0:0:0:
329,192,33077,1,0,0:0:0:0:
36,192,33077,1,0,0:0:0:0:
475,192,33239,1,0,0:0:0:0:
402,192,33320,1,0,0:0:0:0:
329,192,33401,1,8,0:0:0:0:
182,192,33401,1,0,0:0:0:0:
36,192,33482,1,0,0:0:0:0:
109,192,33563,1,0,0:0:0:0:
182,192,33644,1,0,0:0:0:0:
109,192,33726,128,0,34050:0:0:0:0:
36,192,33726,1,0,0:0:0:0:
329,192,33726,1,0,0:0:0:0:
475,192,33726,1,0,0:0:0:0:
182,192,34050,1,8,0:0:0:0:
402,192,34050,1,8,0:0:0:0:
329,192,34050,1,8,0:0:0:0:
182,192,34374,1,0,0:0:0:0:
256,192,34374,1,0,0:0:0:0:
475,192,34374,1,0,0:0:0:0:
109,192,34374,1,0,0:0:0:0:
402,192,34374,1,0,0:0:0:0:
329,192,34536,1,0,0:0:0:0:
36,192,34699,1,0,0:0:0:0:
402,192,34699,1,8,0:0:0:0:
109,192,34780,1,0,0:0:0:0:
182,192,34861,1,0,0:0:0:0:
256,192,34942,1,0,0:0:0:0:
329,192,35023,1,0,0:0:0:0:
109,192,35023,1,0,0:0:0:0:
182,192,35185,1,0,0:0:0:0:
109,192,35266,1,0,0:0:0:0:
182,192,35347,1,8,0:0:0:0:
475,192,35347,1,0,0:0:0:0:
329,192,35509,1,0,0:0:0:0:
182,192,35672,1,0,0:0:0:0:
109,192,35672,1,0,0:0:0:0:
329,192,35753,1,0,0:0:0:0:
402,192,35834,1,0,0:0:0:0:
329,192,35996,1,8,0:0:0:0:
36,192,35996,1,0,0:0:0:0:
182,192,36158,1,0,0:0:0:0:
109,192,36239,1,0,0:0:0:0:
36,192,36320,1,0,0:0:0:0:
329,192,36320,1,0,0:0:0:0:
109,192,36401,1,0,0:0:0:0:
329,192,36482,128,8,36969:0:0:0:0:
402,192,36482,1,8,0:0:0:0:
475,192,36482,1,8,0:0:0:0:
109,192,36644,128,8,36969:0:0:0:0:
36,192,36969,1,0,0:0:0:0:
182,192,36969,1,0,0:0:0:0:
402,192,36969,1,0,0:0:0:0:
256,192,37131,1,0,0:0:0:0:
182,192,37293,1,8,0:0:0:0:
402,192,37293,1,0,0:0:0:0:
109,192,37374,1,0,0:0:0:0:
182,192,37455,1,0,0:0:0:0:
256,192,37536,1,0,0:0:0:0:
329,192,37617,1,0,0:0:0:0:
36,192,37617,1,0,0:0:0:0:
402,192,37780,1,0,0:0:0:0:
182,192,37942,1,8,0:0:0:0:
475,192,37942,1,0,0:0:0:0:
109,192,38023,1,0,0:0:0:0:
36,192,38104,1,0,0:0:0:0:
109,192,38185,1,0,0:0:0:0:
329,192,38266,1,0,0:0:0:0:
182,192,38266,1,0,0:0:0:0:
475,192,38428,1,0,0:0:0:0:
329,192,38509,1,0,0:0:0:0:
182,192,38590,1,8,0:0:0:0:
36,192,38590,1,0,0:0:0:0:
109,192,38672,1,0,0:0:0:0:
182,192,38753,1,0,0:0:0:0:
256,192,38834,1,0,0:0:0:0:
329,192,38915,128,0,39239:0:0:0:0:
109,192,38915,1,0,0:0:0:0:
475,192,38915,1,0,0:0:0:0:
36,192,38915,1,0,0:0:0:0:
256,192,39239,1,8,0:0:0:0:
109,192,39239,1,8,0:0:0:0:
402,192,39239,1,8,0:0:0:0:
36,192,39563,1,0,0:0:0:0:
109,192,39563,1,0,0:0:0:0:
256,192,39563,1,0,0:0:0:0:
475,192,39563,1,0,0:0:0:0:
329,192,39563,1,0,0:0:0:0:
182,192,39726,1,0,0:0:0:0:
329,192,39888,1,8,0:0:0:0:
109,192,39888,1,0,0:0:0:0:
402,192,39942,1,0,0:0:0:0:
475,192,39996,1,0,0:0:0:0:
402,192,40050,1,0,0:0:0:0:
329,192,40104,1,0,0:0:0:0:
256,192,40158,1,0,0:0:0:0:
182,192,40212,1,0,0:0:0:0:
36,192,40212,1,0,0:0:0:0:
109,192,40374,1,0,0:0:0:0:
36,192,40455,1,0,0:0:0:0:
109,192,40536,1,0,0:0:0:0:
402,192,40536,1,8,0:0:0:0:
182,192,40617,1,0,0:0:0:0:
329,192,40699,1,0,0:0:0:0:
402,192,40780,1,0,0:0:0:0:
182,192,40861,1,8,0:0:0:0:
36,192,40861,1,8,0:0:0:0:
256,192,40861,1,8,0:0:0:0:
182,192,41185,1,8,0:0:0:0:
402,192,41185,1,8,0:0:0:0:
36,192,41185,1,8,0:0:0:0:
182,192,41509,1,0,0:0:0:0:
329,192,41509,1,0,0:0:0:0:
402,192,41509,1,0,0:0:0:0:
109,192,41509,128,0,41834:0:0:0:0:
329,192,41834,128,8,42158:0:0:0:0:
256,192,41834,1,0,0:0:0:0:
36,192,42158,5,0,0:0:0:0:
182,192,42158,1,0,0:0:0:0:
402,192,42158,1,0,0:0:0:0:
475,192,42158,1,0,0:0:0:0:
109,192,42320,1,0,0:0:0:0:
329,192,42320,1,2,0:0:0:0:
402,192,42482,1,0,0:0:0:0:
182,192,42644,1,2,0:0:0:0:
329,192,42644,1,0,0:0:0:0:
475,192,42807,1,0,0:0:0:0:
36,192,42969,1,2,0:0:0:0:
402,192,42969,1,0,0:0:0:0:
256,192,43131,1,0,0:0:0:0:
402,192,43293,1,2,0:0:0:0:
182,192,43293,1,0,0:0:0:0:
475,192,43455,1,0,0:0:0:0:
182,192,43617,1,2,0:0:0:0:
329,192,43617,1,0,0:0:0:0:
109,192,43780,1,0,0:0:0:0:
329,192,43942,1,2,0:0:0:0:
36,192,43942,1,0,0:0:0:0:
182,192,44104,128,0,44266:0:0:0:0:
256,192,44266,1,2,0:0:0:0:
475,192,44266,128,0,44428:0:0:0:0:
402,192,44428,128,0,44590:0:0:0:0:
329,192,44590,1,2,0:0:0:0:
36,192,44590,128,0,44753:0:0:0:0:
109,192,44753,128,0,44915:0:0:0:0:
329,192,44915,1,2,0:0:0:0:
475,192,44915,128,0,45239:0:0:0:0:
402,192,45077,128,0,45239:0:0:0:0:
36,192,45239,128,0,45401:0:0:0:0:
256,192,45239,1,2,0:0:0:0:
109,192,45401,128,0,45726:0:0:0:0:
402,192,45563,1,2,0:0:0:0:
182,192,45563,1,0,0:0:0:0:
329,192,45726,128,0,46050:0:0:0:0:
182,192,45888,1,0,0:0:0:0:
36,192,45888,1,2,0:0:0:0:
402,192,46050,128,0,46699:0:0:0:0:
182,192,46212,1,2,0:0:0:0:
109,192,46212,1,0,0:0:0:0:
256,192,46374,1,0,0:0:0:0:
475,192,46536,1,2,0:0:0:0:
36,192,46536,1,0,0:0:0:0:
182,192,46699,128,0,46861:0:0:0:0:
109,192,46861,1,2,0:0:0:0:
475,192,46861,128,0,47023:0:0:0:0:
36,192,47023,128,0,47185:0:0:0:0:
329,192,47185,128,0,47347:0:0:0:0:
402,192,47185,1,2,0:0:0:0:
182,192,47347,1,0,0:0:0:0:
475,192,47509,1,2,0:0:0:0:
402,192,47509,1,0,0:0:0:0:
109,192,47672,1,0,0:0:0:0:
36,192,47834,1,2,0:0:0:0:
402,192,47834,1,0,0:0:0:0:
182,192,47996,1,0,0:0:0:0:
329,192,48158,128,0,48482:0:0:0:0:
109,192,48158,1,2,0:0:0:0:
256,192,48320,1,0,0:0:0:0:
402,192,48482,1,2,0:0:0:0:
182,192,48482,128,0,48969:0:0:0:0:
109,192,48644,1,0,0:0:0:0:
402,192,48807,1,0,0:0:0:0:
329,192,48807,1,2,0:0:0:0:
475,192,48969,1,0,0:0:0:0:
109,192,48969,128,0,49131:0:0:0:0:
402,192,49131,1,2,0:0:0:0:
475,192,49131,128,0,49293:0:0:0:0:
256,192,49293,1,0,0:0:0:0:
329,192,49293,128,0,49455:0:0:0:0:
36,192,49455,1,2,0:0:0:0:
109,192,49455,128,0,49617:0:0:0:0:
182,192,49617,1,0,0:0:0:0:
402,192,49617,128,0,49780:0:0:0:0:
36,192,49780,128,0,49942:0:0:0:0:
256,192,49780,1,2,0:0:0:0:
109,192,49780,1,0,0:0:0:0:
475,192,49942,128,0,50266:0:0:0:0:
329,192,49942,1,2,0:0:0:0:
109,192,50104,1,0,0:0:0:0:
402,192,50266,128,0,50428:0:0:0:0:
256,192,50266,1,0,0:0:0:0:
182,192,50428,1,2,0:0:0:0:
109,192,50428,128,0,50590:0:0:0:0:
329,192,50590,128,0,50753:0:0:0:0:
109,192,50753,1,2,0:0:0:0:
402,192,50753,128,0,50915:0:0:0:0:
182,192,50915,128,0,51077:0:0:0:0:
36,192,50915,1,2,0:0:0:0:
329,192,51077,128,0,51239:0:0:0:0:
109,192,51239,1,0,0:0:0:0:
36,192,51401,1,2,0:0:0:0:
256,192,51401,1,0,0:0:0:0:
182,192,51563,1,0,0:0:0:0:
109,192,51726,1,2,0:0:0:0:
329,192,51726,1,0,0:0:0:0:
256,192,51888,1,0,0:0:0:0:
182,192,52050,1,2,0:0:0:0:
402,192,52050,1,0,0:0:0:0:
109,192,52212,1,0,0:0:0:0:
182,192,52374,1,2,0:0:0:0:
329,192,52374,1,0,0:0:0:0:
402,192,52536,1,2,0:0:0:0:
36,192,52536,1,2,0:0:0:0:
109,192,52536,1,2,0:0:0:0:
256,192,52536,1,4,0:0:0:0:
475,192,52536,1,0,0:0:0:0:
182,192,52699,1,0,0:0:0:0:
329,192,52861,1,2,0:0:0:0:
36,192,52861,1,0,0:0:0:0:
402,192,52942,1,0,0:0:0:0:
475,192,53023,1,0,0:0:0:0:
402,192,53104,1,0,0:0:0:0:
329,192,53185,1,0,0:0:0:0:
109,192,53185,1,0,0:0:0:0:
182,192,53347,1,0,0:0:0:0:
36,192,53509,1,2,0:0:0:0:
402,192,53509,1,0,0:0:0:0:
109,192,53672,1,0,0:0:0:0:
182,192,53753,1,0,0:0:0:0:
475,192,53834,1,0,0:0:0:0:
329,192,53834,1,0,0:0:0:0:
402,192,53996,1,0,0:0:0:0:
182,192,54158,1,0,0:0:0:0:
36,192,54158,1,2,0:0:0:0:
109,192,54320,1,0,0:0:0:0:
182,192,54482,1,0,0:0:0:0:
402,192,54482,1,0,0:0:0:0:
256,192,54644,1,0,0:0:0:0:
109,192,54807,1,2,0:0:0:0:
475,192,54807,1,0,0:0:0:0:
402,192,54969,1,0,0:0:0:0:
329,192,55050,1,0,0:0:0:0:
36,192,55131,1,0,0:0:0:0:
182,192,55131,1,0,0:0:0:0:
402,192,55293,1,0,0:0:0:0:
109,192,55455,1,0,0:0:0:0:
329,192,55455,1,2,0:0:0:0:
182,192,55617,1,0,0:0:0:0:
109,192,55780,1,0,0:0:0:0:
475,192,55780,1,0,0:0:0:0:
182,192,55942,1,0,0:0:0:0:
329,192,56104,1,2,0:0:0:0:
109,192,56104,1,0,0:0:0:0:
36,192,56266,1,0,0:0:0:0:
109,192,56347,1,0,0:0:0:0:
182,192,56428,1,0,0:0:0:0:
402,192,56428,1,0,0:0:0:0:
329,192,56590,1,0,0:0:0:0:
182,192,56753,1,0,0:0:0:0:
402,192,56753,1,2,0:0:0:0:
256,192,56915,1,0,0:0:0:0:
36,192,57077,1,0,0:0:0:0:
475,192,57077,1,0,0:0:0:0:
402,192,57239,1,0,0:0:0:0:
329,192,57320,1,0,0:0:0:0:
256,192,57401,1,2,0:0:0:0:
475,192,57401,1,0,0:0:0:0:
109,192,57563,1,0,0:0:0:0:
36,192,57726,1,0,0:0:0:0:
329,192,57726,1,0,0:0:0:0:
256,192,57726,1,8,0:0:0:0:
475,192,57726,1,0,0:0:0:0:
182,192,57888,1,0,0:0:0:0:
402,192,57888,1,0,0:0:0:0:
256,192,58050,1,0,0:0:0:0:
475,192,58050,1,0,0:0:0:0:
109,192,58050,1,8,0:0:0:0:
36,192,58050,1,0,0:0:0:0:
182,192,58212,1,0,0:0:0:0:
329,192,58212,1,0,0:0:0:0:
36,192,58374,1,0,0:0:0:0:
109,192,58374,1,0,0:0:0:0:
475,192,58374,1,0,0:0:0:0:
402,192,58374,1,8,0:0:0:0:
329,192,58536,1,0,0:0:0:0:
36,192,58536,1,0,0:0:0:0:
109,192,58699,1,0,0:0:0:0:
329,192,58699,1,8,0:0:0:0:
402,192,58699,1,0,0:0:0:0:
475,192,58699,1,0,0:0:0:0:
36,192,58861,1,0,0:0:0:0:
182,192,58861,1,0,0:0:0:0:
109,192,59023,1,8,0:0:0:0:
475,192,59023,1,0,0:0:0:0:
256,192,59023,1,0,0:0:0:0:
182,192,59023,1,0,0:0:0:0:
182,192,59185,1,0,0:0:0:0:
402,192,59185,1,0,0:0:0:0:
329,192,59347,1,8,0:0:0:0:
182,192,59347,1,0,0:0:0:0:
36,192,59347,1,0,0:0:0:0:
109,192,59347,1,0,0:0:0:0:
475,192,59509,1,0,0:0:0:0:
109,192,59509,1,0,0:0:0:0:
256,192,59672,1,8,0:0:0:0:
402,192,59672,1,0,0:0:0:0:
475,192,59672,1,0,0:0:0:0:
36,192,59672,1,0,0:0:0:0:
182,192,59834,1,0,0:0:0:0:
329,192,59834,1,0,0:0:0:0:
109,192,59996,1,0,0:0:0:0:
36,192,59996,1,0,0:0:0:0:
402,192,59996,1,8,0:0:0:0:
475,192,59996,1,0,0:0:0:0:
329,192,60158,1,0,0:0:0:0:
182,192,60158,1,0,0:0:0:0:
475,192,60320,1,0,0:0:0:0:
402,192,60320,1,0,0:0:0:0:
329,192,60320,1,8,0:0:0:0:
109,192,60320,1,0,0:0:0:0:
256,192,60401,1,0,0:0:0:0:
182,192,60482,1,0,0:0:0:0:
109,192,60563,1,0,0:0:0:0:
182,192,60644,1,0,0:0:0:0:
402,192,60644,1,8,0:0:0:0:
329,192,60726,1,0,0:0:0:0:
402,192,60807,1,0,0:0:0:0:
329,192,60888,1,0,0:0:0:0:
256,192,60969,1,8,0:0:0:0:
36,192,60969,1,0,0:0:0:0:
182,192,61009,1,0,0:0:0:0:
109,192,61050,1,0,0:0:0:0:
182,192,61090,1,0,0:0:0:0:
256,192,61131,1,0,0:0:0:0:
329,192,61172,1,0,0:0:0:0:
402,192,61212,1,0,0:0:0:0:
475,192,61293,1,0,0:0:0:0:
109,192,61293,1,8,0:0:0:0:
329,192,61374,1,0,0:0:0:0:
256,192,61455,1,0,0:0:0:0:
182,192,61536,1,0,0:0:0:0:
36,192,61617,128,0,61780:0:0:0:0:
109,192,61780,128,0,61942:0:0:0:0:
182,192,61942,128,0,62104:0:0:0:0:
256,192,62104,128,0,62266:0:0:0:0:
475,192,62266,128,0,62428:0:0:0:0:
402,192,62428,128,0,62590:0:0:0:0:
329,192,62590,128,0,62915:0:0:0:0:
182,192,62915,5,0,0:0:0:0:
36,192,62915,1,0,0:0:0:0:
256,192,62915,1,0,0:0:0:0:
475,192,62915,1,0,0:0:0:0:
402,192,62915,1,0,0:0:0:0:
109,192,62915,1,0,0:0:0:0:
329,192,63077,1,0,0:0:0:0:
109,192,63239,1,0,0:0:0:0:
402,192,63239,1,8,0:0:0:0:
182,192,63239,1,8,0:0:0:0:
109,192,63401,1,0,0:0:0:0:
182,192,63482,1,0,0:0:0:0:
329,192,63563,1,0,0:0:0:0:
475,192,63563,1,0,0:0:0:0:
36,192,63563,1,0,0:0:0:0:
109,192,63726,1,0,0:0:0:0:
182,192,63888,1,8,0:0:0:0:
475,192,63888,1,8,0:0:0:0:
329,192,63969,1,0,0:0:0:0:
109,192,64050,1,0,0:0:0:0:
256,192,64131,1,0,0:0:0:0:
402,192,64212,1,0,0:0:0:0:
182,192,64212,1,0,0:0:0:0:
109,192,64374,1,0,0:0:0:0:
36,192,64455,1,0,0:0:0:0:
109,192,64536,1,8,0:0:0:0:
402,192,64536,1,8,0:0:0:0:
329,192,64617,1,0,0:0:0:0:
402,192,64699,1,0,0:0:0:0:
475,192,64780,1,0,0:0:0:0:
36,192,64861,1,0,0:0:0:0:
109,192,64861,1,0,0:0:0:0:
182,192,64861,128,0,65185:0:0:0:0:
329,192,64861,1,0,0:0:0:0:
475,192,65185,1,8,0:0:0:0:
402,192,65185,1,8,0:0:0:0:
109,192,65185,1,8,0:0:0:0:
256,192,65509,1,0,0:0:0:0:
402,192,65509,1,0,0:0:0:0:
36,192,65509,1,0,0:0:0:0:
329,192,65509,1,0,0:0:0:0:
475,192,65509,1,0,0:0:0:0:
109,192,65672,1,0,0:0:0:0:
182,192,65834,1,8,0:0:0:0:
329,192,65834,1,8,0:0:0:0:
402,192,65915,1,0,0:0:0:0:
475,192,65996,1,0,0:0:0:0:
402,192,66050,1,0,0:0:0:0:
329,192,66104,1,0,0:0:0:0:
402,192,66158,1,0,0:0:0:0:
182,192,66158,1,0,0:0:0:0:
36,192,66320,1,0,0:0:0:0:
182,192,66401,1,0,0:0:0:0:
402,192,66482,1,8,0:0:0:0:
109,192,66482,1,0,0:0:0:0:
329,192,66563,1,0,0:0:0:0:
182,192,66644,1,0,0:0:0:0:
329,192,66807,1,0,0:0:0:0:
475,192,66807,1,0,0:0:0:0:
402,192,66888,1,0,0:0:0:0:
182,192,66969,1,0,0:0:0:0:
36,192,67050,1,0,0:0:0:0:
402,192,67131,1,0,0:0:0:0:
329,192,67131,1,8,0:0:0:0:
109,192,67212,1,0,0:0:0:0:
182,192,67293,1,0,0:0:0:0:
256,192,67374,1,0,0:0:0:0:
329,192,67455,1,0,0:0:0:0:
402,192,67536,1,0,0:0:0:0:
182,192,67617,1,0,0:0:0:0:
329,192,67617,128,8,68104:0:0:0:0:
475,192,67617,1,0,0:0:0:0:
36,192,67780,128,8,68104:0:0:0:0:
402,192,68104,1,0,0:0:0:0:
109,192,68104,1,0,0:0:0:0:
182,192,68104,1,0,0:0:0:0:
182,192,68266,1,0,0:0:0:0:
36,192,68428,1,0,0:0:0:0:
475,192,68428,1,8,0:0:0:0:
182,192,68590,1,0,0:0:0:0:
329,192,68672,1,0,0:0:0:0:
402,192,68753,1,0,0:0:0:0:
475,192,68753,1,0,0:0:0:0:
329,192,68834,1,0,0:0:0:0:
109,192,68915,1,0,0:0:0:0:
182,192,69077,1,0,0:0:0:0:
36,192,69077,1,8,0:0:0:0:
256,192,69158,1,0,0:0:0:0:
329,192,69239,1,0,0:0:0:0:
402,192,69320,1,0,0:0:0:0:
329,192,69401,1,0,0:0:0:0:
182,192,69401,1,0,0:0:0:0:
109,192,69563,1,0,0:0:0:0:
36,192,69644,1,0,0:0:0:0:
402,192,69726,1,8,0:0:0:0:
109,192,69726,1,0,0:0:0:0:
182,192,69807,1,0,0:0:0:0:
329,192,69888,1,0,0:0:0:0:
402,192,69969,1,0,0:0:0:0:
182,192,70050,128,0,70374:0:0:0:0:
256,192,70050,1,0,0:0:0:0:
109,192,70050,1,0,0:0:0:0:
475,192,70050,1,0,0:0:0:0:
109,192,70374,1,8,0:0:0:0:
329,192,70374,1,8,0:0:0:0:
36,192,70374,1,8,0:0:0:0:
475,192,70699,1,0,0:0:0:0:
256,192,70699,1,0,0:0:0:0:
36,192,70699,1,0,0:0:0:0:
402,192,70699,1,0,0:0:0:0:
109,192,70699,1,0,0:0:0:0:
182,192,70861,1,0,0:0:0:0:
256,192,71023,1,8,0:0:0:0:
109,192,71023,1,0,0:0:0:0:
329,192,71104,1,0,0:0:0:0:
402,192,71185,1,0,0:0:0:0:
256,192,71266,1,0,0:0:0:0:
36,192,71347,1,0,0:0:0:0:
182,192,71347,1,0,0:0:0:0:
329,192,71509,1,0,0:0:0:0:
402,192,71590,1,0,0:0:0:0:
182,192,71672,1,0,0:0:0:0:
329,192,71672,1,0,0:0:0:0:
109,192,71726,1,0,0:0:0:0:
36,192,71780,1,0,0:0:0:0:
109,192,71834,1,0,0:0:0:0:
182,192,71915,1,0,0:0:0:0:
109,192,71996,1,8,0:0:0:0:
475,192,71996,1,8,0:0:0:0:
36,192,71996,1,8,0:0:0:0:
329,192,71996,128,8,72320:0:0:0:0:
475,192,72320,1,8,0:0:0:0:
109,192,72320,128,8,72644:0:0:0:0:
402,192,72320,1,8,0:0:0:0:
182,192,72320,1,8,0:0:0:0:
36,192,72644,1,8,0:0:0:0:
182,192,72644,1,8,0:0:0:0:
402,192,72644,1,8,0:0:0:0:
256,192,72807,1,8,0:0:0:0:
475,192,72807,1,8,0:0:0:0:
109,192,72969,1,8,0:0:0:0:
329,192,72969,1,8,0:0:0:0:
36,192,73131,1,8,0:0:0:0:
256,192,73131,1,8,0:0:0:0:
109,192,73293,1,0,0:0:0:0:
182,192,73293,1,0,0:0:0:0:
36,192,73293,1,0,0:0:0:0:
329,192,73293,1,0,0:0:0:0:
475,192,73293,1,0,0:0:0:0:
182,192,73455,1,0,0:0:0:0:
36,192,73617,1,0,0:0:0:0:
402,192,73617,1,8,0:0:0:0:
109,192,73780,1,0,0:0:0:0:
182,192,73861,1,0,0:0:0:0:
109,192,73942,1,0,0:0:0:0:
329,192,73942,1,0,0:0:0:0:
182,192,74104,1,0,0:0:0:0:
109,192,74266,1,8,0:0:0:0:
256,192,74266,1,0,0:0:0:0:
36,192,74347,1,0,0:0:0:0:
109,192,74428,1,0,0:0:0:0:
182,192,74509,1,0,0:0:0:0:
329,192,74590,1,0,0:0:0:0:
36,192,74590,1,0,0:0:0:0:
475,192,74753,1,0,0:0:0:0:
402,192,74834,1,0,0:0:0:0:
329,192,74915,1,8,0:0:0:0:
182,192,74915,1,0,0:0:0:0:
36,192,74996,1,0,0:0:0:0:
109,192,75077,1,0,0:0:0:0:
182,192,75158,1,0,0:0:0:0:
329,192,75239,1,0,0:0:0:0:
36,192,75239,1,0,0:0:0:0:
109,192,75239,128,0,75563:0:0:0:0:
475,192,75239,1,0,0:0:0:0:
182,192,75563,1,8,0:0:0:0:
329,192,75563,1,8,0:0:0:0:
402,192,75563,1,8,0:0:0:0:
109,192,75888,1,0,0:0:0:0:
182,192,75888,1,0,0:0:0:0:
402,192,75888,1,0,0:0:0:0:
256,192,75888,1,0,0:0:0:0:
475,192,75888,1,0,0:0:0:0:
329,192,76050,1,0,0:0:0:0:
36,192,76212,1,0,0:0:0:0:
402,192,76212,1,8,0:0:0:0:
109,192,76293,1,0,0:0:0:0:
182,192,76374,1,0,0:0:0:0:
256,192,76455,1,0,0:0:0:0:
329,192,76536,1,0,0:0:0:0:
109,192,76536,1,0,0:0:0:0:
182,192,76699,1,0,0:0:0:0:
109,192,76780,1,0,0:0:0:0:
182,192,76861,1,8,0:0:0:0:
475,192,76861,1,0,0:0:0:0:
329,192,77023,1,0,0:0:0:0:
109,192,77185,1,0,0:0:0:0:
182,192,77185,1,0,0:0:0:0:
329,192,77266,1,0,0:0:0:0:
402,192,77347,1,0,0:0:0:0:
36,192,77509,1,0,0:0:0:0:
329,192,77509,1,8,0:0:0:0:
182,192,77672,1,0,0:0:0:0:
109,192,77753,1,0,0:0:0:0:
36,192,77834,1,0,0:0:0:0:
329,192,77834,1,0,0:0:0:0:
109,192,77915,1,0,0:0:0:0:
475,192,77996,1,8,0:0:0:0:
329,192,77996,128,8,78482:0:0:0:0:
402,192,77996,1,8,0:0:0:0:
109,192,78158,128,8,78482:0:0:0:0:
182,192,78482,1,0,0:0:0:0:
402,192,78482,1,0,0:0:0:0:
36,192,78482,1,0,0:0:0:0:
256,192,78644,1,0,0:0:0:0:
182,192,78807,1,8,0:0:0:0:
402,192,78807,1,0,0:0:0:0:
109,192,78888,1,0,0:0:0:0:
182,192,78969,1,0,0:0:0:0:
256,192,79050,1,0,0:0:0:0:
36,192,79131,1,0,0:0:0:0:
329,192,79131,1,0,0:0:0:0:
402,192,79293,1,0,0:0:0:0:
475,192,79455,1,0,0:0:0:0:
182,192,79455,1,8,0:0:0:0:
109,192,79536,1,0,0:0:0:0:
36,192,79617,1,0,0:0:0:0:
109,192,79699,1,0,0:0:0:0:
329,192,79780,1,0,0:0:0:0:
182,192,79780,1,0,0:0:0:0:
475,192,79942,1,0,0:0:0:0:
329,192,80023,1,0,0:0:0:0:
182,192,80104,1,8,0:0:0:0:
36,192,80104,1,0,0:0:0:0:
109,192,80185,1,0,0:0:0:0:
182,192,80266,1,0,0:0:0:0:
256,192,80347,1,0,0:0:0:0:
475,192,80428,1,0,0:0:0:0:
109,192,80428,1,0,0:0:0:0:
329,192,80428,128,0,80753:0:0:0:0:
36,192,80428,1,0,0:0:0:0:
256,192,80753,1,0,0:0:0:0:
109,192,80753,1,0,0:0:0:0:
402,192,80753,1,0,0:0:0:0:
182,192,80753,128,0,81077:0:0:0:0:
36,192,81077,1,0,0:0:0:0:
109,192,81077,1,0,0:0:0:0:
256,192,81077,1,0,0:0:0:0:
475,192,81077,1,0,0:0:0:0:
329,192,81077,1,0,0:0:0:0:
182,192,81239,1,0,0:0:0:0:
329,192,81401,1,8,0:0:0:0:
109,192,81401,1,0,0:0:0:0:
402,192,81455,1,0,0:0:0:0:
475,192,81509,1,0,0:0:0:0:
402,192,81563,1,0,0:0:0:0:
329,192,81617,1,0,0:0:0:0:
256,192,81672,1,0,0:0:0:0:
182,192,81726,1,0,0:0:0:0:
36,192,81726,1,0,0:0:0:0:
109,192,81888,1,0,0:0:0:0:
36,192,81969,1,0,0:0:0:0:
109,192,82050,1,0,0:0:0:0:
182,192,82131,1,0,0:0:0:0:
256,192,82212,1,0,0:0:0:0:
329,192,82293,1,0,0:0:0:0:
182,192,82374,128,8,82699:0:0:0:0:
402,192,82374,1,0,0:0:0:0:
109,192,82374,1,8,0:0:0:0:
36,192,82374,1,8,0:0:0:0:
402,192,82699,128,8,83023:0:0:0:0:
329,192,82699,1,8,0:0:0:0:
475,192,82699,1,8,0:0:0:0:
109,192,82699,1,8,0:0:0:0:
36,192,83023,128,0,83185:0:0:0:0:
329,192,83023,1,0,0:0:0:0:
109,192,83185,128,0,83347:0:0:0:0:
182,192,83347,128,0,83509:0:0:0:0:
256,192,83509,128,0,83672:0:0:0:0:
36,192,83672,1,0,0:0:0:0:
109,192,83672,1,0,0:0:0:0:
402,192,83672,1,0,0:0:0:0:
475,192,83672,1,0,0:0:0:0:
329,192,83672,1,0,0:0:0:0:
182,192,83753,1,0,0:0:0:0:
109,192,83834,1,0,0:0:0:0:
182,192,83915,1,0,0:0:0:0:
256,192,83996,1,8,0:0:0:0:
36,192,83996,1,0,0:0:0:0:
329,192,84077,1,0,0:0:0:0:
475,192,84158,1,0,0:0:0:0:
402,192,84239,1,0,0:0:0:0:
329,192,84320,1,0,0:0:0:0:
109,192,84320,1,0,0:0:0:0:
182,192,84401,1,0,0:0:0:0:
109,192,84482,1,0,0:0:0:0:
36,192,84563,1,0,0:0:0:0:
109,192,84644,1,0,0:0:0:0:
475,192,84644,1,8,0:0:0:0:
182,192,84726,1,0,0:0:0:0:
329,192,84807,1,0,0:0:0:0:
402,192,84888,1,0,0:0:0:0:
329,192,84969,1,0,0:0:0:0:
36,192,84969,1,0,0:0:0:0:
256,192,85050,1,0,0:0:0:0:
182,192,85131,1,0,0:0:0:0:
109,192,85212,1,0,0:0:0:0:
182,192,85293,1,8,0:0:0:0:
402,192,85293,1,0,0:0:0:0:
329,192,85374,1,0,0:0:0:0:
402,192,85401,1,0,0:0:0:0:
475,192,85455,1,0,0:0:0:0:
402,192,85509,1,0,0:0:0:0:
329,192,85536,1,0,0:0:0:0:
256,192,85617,1,0,0:0:0:0:
36,192,85617,1,0,0:0:0:0:
182,192,85699,1,0,0:0:0:0:
109,192,85780,1,0,0:0:0:0:
182,192,85861,1,0,0:0:0:0:
329,192,85942,128,0,86266:0:0:0:0:
109,192,86266,1,0,0:0:0:0:
402,192,86266,1,0,0:0:0:0:
475,192,86266,1,0,0:0:0:0:
109,192,86428,1,0,0:0:0:0:
329,192,86509,1,0,0:0:0:0:
36,192,86590,1,0,0:0:0:0:
109,192,86590,1,8,0:0:0:0:
256,192,86672,1,0,0:0:0:0:
402,192,86753,1,0,0:0:0:0:
182,192,86834,1,0,0:0:0:0:
329,192,86915,1,0,0:0:0:0:
475,192,86915,1,0,0:0:0:0:
109,192,86996,1,0,0:0:0:0:
475,192,87077,1,0,0:0:0:0:
182,192,87158,1,0,0:0:0:0:
402,192,87239,1,0,0:0:0:0:
329,192,87239,1,8,0:0:0:0:
109,192,87320,1,0,0:0:0:0:
256,192,87401,1,0,0:0:0:0:
329,192,87482,1,0,0:0:0:0:
182,192,87563,1,0,0:0:0:0:
109,192,87563,1,0,0:0:0:0:
475,192,87644,1,0,0:0:0:0:
36,192,87726,1,0,0:0:0:0:
329,192,87807,1,0,0:0:0:0:
182,192,87888,1,8,0:0:0:0:
402,192,87888,1,0,0:0:0:0:
109,192,87969,1,0,0:0:0:0:
256,192,88050,1,0,0:0:0:0:
402,192,88131,1,0,0:0:0:0:
109,192,88212,1,0,0:0:0:0:
475,192,88212,1,0,0:0:0:0:
182,192,88293,1,0,0:0:0:0:
256,192,88374,1,0,0:0:0:0:
329,192,88455,1,0,0:0:0:0:
402,192,88536,128,0,88699:0:0:0:0:
109,192,88699,128,0,88861:0:0:0:0:
36,192,88861,1,0,0:0:0:0:
182,192,88861,1,0,0:0:0:0:
475,192,88861,1,0,0:0:0:0:
329,192,88861,128,0,88942:0:0:0:0:
182,192,89023,128,0,89104:0:0:0:0:
109,192,89023,1,0,0:0:0:0:
402,192,89185,128,0,89266:0:0:0:0:
475,192,89185,1,8,0:0:0:0:
109,192,89347,128,0,89428:0:0:0:0:
36,192,89347,1,0,0:0:0:0:
475,192,89509,128,0,89590:0:0:0:0:
329,192,89509,1,0,0:0:0:0:
256,192,89672,128,0,89753:0:0:0:0:
182,192,89672,1,0,0:0:0:0:
402,192,89834,1,8,0:0:0:0:
36,192,89834,128,0,89915:0:0:0:0:
182,192,89996,128,0,90077:0:0:0:0:
109,192,89996,1,0,0:0:0:0:
402,192,90158,128,0,90239:0:0:0:0:
329,192,90158,1,0,0:0:0:0:
182,192,90320,128,0,90401:0:0:0:0:
109,192,90320,1,0,0:0:0:0:
329,192,90482,128,0,90563:0:0:0:0:
475,192,90482,1,8,0:0:0:0:
109,192,90644,128,0,90726:0:0:0:0:
182,192,90644,1,0,0:0:0:0:
402,192,90807,128,0,90888:0:0:0:0:
256,192,90807,1,0,0:0:0:0:
182,192,90969,128,0,91131:0:0:0:0:
475,192,90969,1,0,0:0:0:0:
36,192,91131,128,0,91455:0:0:0:0:
109,192,91455,1,0,0:0:0:0:
475,192,91455,1,0,0:0:0:0:
329,192,91455,1,0,0:0:0:0:
182,192,91617,1,0,0:0:0:0:
256,192,91780,1,8,0:0:0:0:
36,192,91780,1,0,0:0:0:0:
329,192,91861,1,0,0:0:0:0:
402,192,91942,1,0,0:0:0:0:
329,192,92023,1,0,0:0:0:0:
182,192,92104,1,0,0:0:0:0:
475,192,92104,1,0,0:0:0:0:
109,192,92185,1,0,0:0:0:0:
182,192,92266,1,0,0:0:0:0:
256,192,92347,1,0,0:0:0:0:
329,192,92428,1,8,0:0:0:0:
36,192,92428,1,0,0:0:0:0:
402,192,92509,1,0,0:0:0:0:
475,192,92590,1,0,0:0:0:0:
402,192,92672,1,0,0:0:0:0:
329,192,92753,1,8,0:0:0:0:
182,192,92753,1,0,0:0:0:0:
256,192,92834,1,0,0:0:0:0:
182,192,92915,1,0,0:0:0:0:
109,192,92996,1,0,0:0:0:0:
36,192,93077,1,8,0:0:0:0:
402,192,93077,1,0,0:0:0:0:
109,192,93158,1,0,0:0:0:0:
182,192,93239,1,0,0:0:0:0:
109,192,93320,1,0,0:0:0:0:
36,192,93401,1,8,0:0:0:0:
329,192,93401,1,0,0:0:0:0:
109,192,93482,1,0,0:0:0:0:
182,192,93563,1,0,0:0:0:0:
256,192,93644,1,0,0:0:0:0:
329,192,93726,128,0,95347:0:0:0:0:
402,192,93726,1,0,0:0:0:0:
109,192,93726,1,0,0:0:0:0:
475,192,93726,1,0,0:0:0:0:
