osu file format v14

[General]
AudioFilename: audio.mp3
AudioLeadIn: 0
PreviewTime: 61617
Countdown: 0
SampleSet: Soft
StackLeniency: 0.2
Mode: 2
LetterboxInBreaks: 0
WidescreenStoryboard: 1

[Editor]
Bookmarks: 11023,22455,70861
DistanceSpacing: 1
BeatDivisor: 4
GridSize: 8
TimelineZoom: 2.400005

[Metadata]
Title:TSLove
TitleUnicode:TSLove
Artist:O2i3
ArtistUnicode:O2i3
Creator:[_Chichinya_]
Version:HelloLOVErdose
Source:
Tags:Melanie Friggy-chan kqrth DDM Hi_Hello FlamingRok Dargin Cyoris210 BlackWolf159 Yuno Taikocracy Prancer agu gamerock Nifty Lno Nepuri Raphalge frukoyurdakul Cyssel Unmei Muma Q____X Vulkin JessiChan iContol Chocola_2287 AezLack _yu68 zigizigiefe Grimbow
BeatmapID:1278870
BeatmapSetID:549370

[Difficulty]
HPDrainRate:7
CircleSize:3.8
OverallDifficulty:9.7
ApproachRate:9.7
SliderMultiplier:2.19630096761494
SliderTickRate:2

[Events]
//Background and Video events
0,0,"wallpaper02.png",0,0
//Break Periods
2,52736,57231
//Storyboard Layer 0 (Background)
//Storyboard Layer 1 (Fail)
//Storyboard Layer 2 (Pass)
//Storyboard Layer 3 (Foreground)
//Storyboard Sound Samples

[TimingPoints]
645,324.324324324324,4,2,0,100,1,0
21401,-83.3333333333333,4,2,0,100,0,1
31780,-83.3333333333333,4,2,0,100,0,1
42158,-100,4,2,0,100,0,0
62915,-83.3333333333333,4,2,0,100,0,1
73293,-83.3333333333333,4,2,0,100,0,1
83672,-100,4,2,0,100,0,0
91455,-83.3333333333333,4,2,0,100,0,0
93726,-133.333333333333,4,2,0,100,0,0

[Colours]
Combo1 : 64,0,64
Combo2 : 255,0,0
Combo3 : 255,128,64
Combo4 : 255,255,0
Combo5 : 128,255,0
Combo6 : 0,128,0
Combo7 : 0,128,255
Combo8 : 0,64,128

[HitObjects]
96,320,645,5,4,0:0:0:0:
152,224,807,1,0,0:0:0:0:
272,208,969,1,8,0:0:0:0:
384,264,1131,1,0,0:0:0:0:
248,256,1293,1,0,0:0:0:0:
120,216,1455,1,0,0:0:0:0:
80,120,1617,1,8,0:0:0:0:
176,48,1780,1,0,0:0:0:0:
304,64,1942,5,0,0:0:0:0:
224,128,2104,1,0,0:0:0:0:
264,240,2266,1,8,0:0:0:0:
384,272,2428,1,0,0:0:0:0:
256,328,2590,1,0,0:0:0:0:
176,256,2753,1,0,0:0:0:0:
200,144,2915,1,8,0:0:0:0:
312,120,3077,1,8,0:0:0:0:
488,336,3239,6,0,L|488:208,1,109.815048380747
352,224,3563,2,0,L|472:224,1,109.815048380747,8|0,0:0|0:0,0:0:0:0:
312,224,3888,2,0,L|304:80,1,109.815048380747
456,112,4212,2,0,L|336:112,1,109.815048380747,8|0,0:0|0:0,0:0:0:0:
64,208,4536,6,0,L|56:80,1,109.815048380747
176,192,4861,2,0,L|176:72,1,109.815048380747,8|0,0:0|0:0,0:0:0:0:
304,200,5185,2,0,L|320:72,1,109.815048380747
480,200,5509,2,0,L|464:120,1,54.9075241903735,8|0,0:0|0:0,0:0:0:0:
184,160,5672,2,0,L|168:80,1,54.9075241903735,8|0,0:0|0:0,0:0:0:0:
416,64,5834,5,4,0:0:0:0:
360,160,5996,1,0,0:0:0:0:
240,176,6158,1,8,0:0:0:0:
168,120,6320,1,0,0:0:0:0:
288,136,6482,1,0,0:0:0:0:
392,168,6644,1,0,0:0:0:0:
432,264,6806,1,8,0:0:0:0:
336,336,6969,1,0,0:0:0:0:
208,320,7131,5,0,0:0:0:0:
288,256,7293,1,0,0:0:0:0:
248,144,7455,1,8,0:0:0:0:
152,128,7617,1,0,0:0:0:0:
256,56,7779,1,0,0:0:0:0:
336,128,7942,1,0,0:0:0:0:
312,240,8104,1,8,0:0:0:0:
200,264,8266,1,8,0:0:0:0:
24,48,8428,6,0,L|24:176,1,109.815048380747
160,160,8752,2,0,L|40:160,1,109.815048380747,8|0,0:0|0:0,0:0:0:0:
200,160,9077,2,0,L|208:304,1,109.815048380747
56,272,9401,2,0,L|176:272,1,109.815048380747,8|0,0:0|0:0,0:0:0:0:
448,176,9725,6,0,L|456:304,1,109.815048380747
336,192,10050,2,0,L|336:312,1,109.815048380747,8|0,0:0|0:0,0:0:0:0:
208,184,10374,2,0,L|192:312,1,109.815048380747
248,312,10617,1,0,0:0:0:0:
424,200,10699,2,0,L|448:320,1,109.815048380747,8|8,0:0|0:0,0:0:0:0:
392,328,10942,1,0,0:0:0:0:
80,320,11023,5,4,0:0:0:0:
152,256,11185,1,0,0:0:0:0:
72,208,11347,1,2,0:0:0:0:
384,152,11509,2,0,L|408:96,4,54.9075241903735
264,112,11996,1,2,0:0:0:0:
384,224,12158,1,0,0:0:0:0:
64,112,12320,5,0,0:0:0:0:
128,184,12482,1,0,0:0:0:0:
64,256,12644,1,2,0:0:0:0:
400,336,12807,2,0,L|424:264,4,54.9075241903735
288,336,13293,1,2,0:0:0:0:
416,352,13455,1,0,0:0:0:0:
88,336,13617,6,0,L|64:216,1,109.815048380747
192,240,13942,2,0,L|80:240,1,109.815048380747,2|0,0:0|0:0,0:0:0:0:
408,240,14266,1,0,0:0:0:0:
464,224,14347,1,0,0:0:0:0:
488,176,14428,1,0,0:0:0:0:
472,128,14509,1,0,0:0:0:0:
424,104,14590,1,2,0:0:0:0:
56,112,14753,1,0,0:0:0:0:
424,336,14915,6,0,L|448:216,1,109.815048380747
320,240,15240,2,0,L|432:240,1,109.815048380747,2|0,0:0|0:0,0:0:0:0:
104,240,15564,1,0,0:0:0:0:
48,224,15645,1,0,0:0:0:0:
16,176,15726,1,0,0:0:0:0:
32,128,15807,1,0,0:0:0:0:
80,104,15888,1,2,0:0:0:0:
432,96,16051,1,2,0:0:0:0:
88,328,16212,5,8,0:0:0:0:
168,272,16374,1,0,0:0:0:0:
80,224,16536,1,0,0:0:0:0:
160,160,16699,1,8,0:0:0:0:
424,56,16861,1,0,0:0:0:0:
344,112,17023,1,0,0:0:0:0:
432,160,17185,1,8,0:0:0:0:
352,224,17348,1,0,0:0:0:0:
72,152,17509,5,0,0:0:0:0:
168,112,17672,1,8,0:0:0:0:
64,64,17834,1,0,0:0:0:0:
168,216,17996,1,0,0:0:0:0:
280,248,18158,1,8,0:0:0:0:
176,296,18320,1,0,0:0:0:0:
280,344,18482,1,8,0:0:0:0:
168,216,18644,1,0,0:0:0:0:
464,336,18807,6,0,L|496:272,1,54.9075241903735,4|0,0:0|0:0,0:0:0:0:
272,288,18969,2,0,L|240:224,1,54.9075241903735
480,208,19131,2,0,L|432:176,1,54.9075241903735,4|0,0:0|0:0,0:0:0:0:
192,192,19293,2,0,L|112:160,1,54.9075241903735
400,96,19455,5,4,0:0:0:0:
416,96,19496,1,0,0:0:0:0:
432,96,19536,1,0,0:0:0:0:
416,96,19577,1,0,0:0:0:0:
400,96,19617,1,0,0:0:0:0:
352,96,19699,1,0,0:0:0:0:
112,272,19780,2,4,L|192:240,1,54.9075241903735
416,224,19942,2,0,L|480:192,1,54.9075241903735
128,352,20104,5,0,0:0:0:0:
100,352,20144,1,0,0:0:0:0:
76,340,20185,1,0,0:0:0:0:
56,320,20226,1,0,0:0:0:0:
44,296,20266,1,0,0:0:0:0:
44,268,20307,1,0,0:0:0:0:
56,244,20347,1,0,0:0:0:0:
80,228,20388,1,0,0:0:0:0:
104,220,20428,5,0,0:0:0:0:
132,220,20469,1,0,0:0:0:0:
160,224,20509,1,0,0:0:0:0:
188,224,20550,1,0,0:0:0:0:
216,220,20590,1,0,0:0:0:0:
240,208,20631,1,0,0:0:0:0:
264,196,20672,1,0,0:0:0:0:
276,172,20712,1,0,0:0:0:0:
272,144,20753,5,0,0:0:0:0:
264,120,20793,1,0,0:0:0:0:
244,100,20834,1,0,0:0:0:0:
220,88,20874,1,0,0:0:0:0:
196,76,20915,1,0,0:0:0:0:
168,72,20955,1,0,0:0:0:0:
140,68,20996,1,0,0:0:0:0:
416,224,21077,6,0,L|456:224,6,27.4537620951868
192,280,21401,6,0,P|72:248|128:152,1,263.556108070699,4|8,0:0|0:0,0:0:0:0:
24,120,21888,2,0,L|88:88,1,65.8890270176747
480,200,22050,1,0,0:0:0:0:
336,216,22212,1,0,0:0:0:0:
104,312,22374,2,0,L|40:296,1,65.8890270176747,8|0,0:0|0:0,0:0:0:0:
296,296,22536,2,0,L|360:280,1,65.8890270176747
136,224,22699,6,0,P|8:200|-8:176,1,131.778054035349
64,168,22942,1,0,0:0:0:0:
328,144,23023,1,8,0:0:0:0:
224,120,23185,1,0,0:0:0:0:
480,112,23347,2,0,L|504:88,6,32.9445135088373
96,80,23672,1,2,0:0:0:0:
40,80,23996,6,0,P|80:160|248:136,1,263.556108070699,4|8,0:0|0:0,0:0:0:0:
424,168,24482,2,0,L|352:192,1,65.8890270176747
136,264,24644,1,0,0:0:0:0:
272,272,24807,1,0,0:0:0:0:
120,344,24969,1,8,0:0:0:0:
416,344,25131,1,0,0:0:0:0:
56,184,25293,5,0,0:0:0:0:
352,176,25455,2,0,L|440:160,1,65.8890270176747
120,176,25617,2,0,P|40:152|32:80,1,131.778054035349,8|0,0:0|0:0,0:0:0:0:
280,88,25942,2,0,L|192:80,1,65.8890270176747
24,80,26104,2,0,L|112:64,1,65.8890270176747
448,64,26266,1,2,0:0:0:0:
408,64,26590,6,0,P|440:160|328:256,1,263.556108070699,4|8,0:0|0:0,0:0:0:0:
64,224,27077,2,0,L|152:200,1,65.8890270176747
480,200,27239,1,0,0:0:0:0:
344,176,27401,1,0,0:0:0:0:
40,160,27563,2,0,L|56:64,1,65.8890270176747,8|0,0:0|0:0,0:0:0:0:
288,72,27726,2,0,L|384:56,1,65.8890270176747
104,304,27888,5,0,0:0:0:0:
248,280,28050,2,0,L|160:256,1,65.8890270176747
120,240,28212,1,8,0:0:0:0:
336,200,28374,1,0,0:0:0:0:
56,152,28536,2,0,L|16:152,6,32.9445135088373
472,160,28861,1,2,0:0:0:0:
424,160,29185,6,0,P|344:208|400:368,1,263.556108070699,4|8,0:0|0:0,0:0:0:0:
184,312,29672,2,0,L|296:352,1,65.8890270176747
480,328,29834,1,0,0:0:0:0:
176,224,29996,1,0,0:0:0:0:
488,208,30158,2,0,L|400:192,1,65.8890270176747,8|0,0:0|0:0,0:0:0:0:
128,152,30320,2,0,L|40:136,1,65.8890270176747
376,312,30482,6,0,P|480:248|464:152,1,197.667081053024,2|0,0:0|0:0,0:0:0:0:
120,232,30807,2,0,P|24:152|24:56,1,197.667081053024,10|0,0:0|0:0,0:0:0:0:
304,64,31131,1,2,0:0:0:0:
192,72,31293,1,2,0:0:0:0:
480,168,31455,1,2,0:0:0:0:
104,152,31617,1,2,0:0:0:0:
320,280,31780,6,0,P|440:248|384:152,1,263.556108070699,4|8,0:0|0:0,0:0:0:0:
488,120,32267,2,0,L|424:88,1,65.8890270176747
32,200,32429,1,0,0:0:0:0:
176,216,32591,1,0,0:0:0:0:
408,312,32753,2,0,L|472:296,1,65.8890270176747,8|0,0:0|0:0,0:0:0:0:
160,304,32915,2,0,L|96:288,1,65.8890270176747
376,224,33078,6,0,P|504:200|520:176,1,131.778054035349
448,168,33321,1,0,0:0:0:0:
160,152,33402,1,8,0:0:0:0:
272,128,33564,1,0,0:0:0:0:
40,112,33726,2,0,L|16:88,6,32.9445135088373
416,80,34051,1,2,0:0:0:0:
472,80,34375,6,0,P|432:160|264:136,1,263.556108070699,4|8,0:0|0:0,0:0:0:0:
88,168,34861,2,0,L|160:192,1,65.8890270176747
344,272,35023,1,0,0:0:0:0:
248,272,35186,1,0,0:0:0:0:
352,344,35348,1,8,0:0:0:0:
64,344,35510,1,0,0:0:0:0:
456,184,35672,5,0,0:0:0:0:
168,176,35834,2,0,L|80:160,1,65.8890270176747
392,176,35996,2,0,P|472:152|480:80,1,131.778054035349,8|0,0:0|0:0,0:0:0:0:
208,80,36321,2,0,L|296:72,1,65.8890270176747
488,80,36483,2,0,L|400:64,1,65.8890270176747
64,64,36645,1,2,0:0:0:0:
104,64,36969,6,0,P|72:160|184:256,1,263.556108070699,4|8,0:0|0:0,0:0:0:0:
448,224,37456,2,0,L|360:200,1,65.8890270176747
32,200,37618,1,0,0:0:0:0:
168,176,37780,1,0,0:0:0:0:
472,160,37942,2,0,L|456:64,1,65.8890270176747,8|0,0:0|0:0,0:0:0:0:
224,72,38105,2,0,L|128:56,1,65.8890270176747
408,304,38266,5,0,0:0:0:0:
264,280,38428,2,0,L|352:256,1,65.8890270176747
400,248,38591,1,8,0:0:0:0:
208,184,38753,1,0,0:0:0:0:
456,152,38915,2,0,L|496:152,6,32.9445135088373
40,160,39240,1,2,0:0:0:0:
88,160,39564,6,0,P|168:208|112:368,1,263.556108070699,4|8,0:0|0:0,0:0:0:0:
80,360,39969,1,0,0:0:0:0:
368,304,40051,2,0,L|480:344,1,65.8890270176747
176,280,40212,2,0,L|88:296,1,65.8890270176747
344,216,40374,2,0,L|320:144,1,65.8890270176747
112,188,40537,2,0,L|48:200,1,65.8890270176747,8|0,0:0|0:0,0:0:0:0:
296,144,40699,2,0,L|384:128,1,65.8890270176747
136,312,40861,6,0,P|32:248|40:200,1,131.778054035349,2|0,0:0|0:0,0:0:0:0:
128,248,41104,1,0,0:0:0:0:
400,232,41186,2,0,P|496:152|496:56,1,197.667081053024,2|0,0:0|0:0,0:0:0:0:
32,80,41510,1,2,0:0:0:0:
496,72,41834,1,0,0:0:0:0:
256,144,42158,5,4,0:0:0:0:
176,200,42320,1,0,0:0:0:0:
256,256,42482,1,2,0:0:0:0:
176,320,42644,1,0,0:0:0:0:
256,256,42807,1,2,0:0:0:0:
176,200,42969,1,0,0:0:0:0:
256,144,43131,1,2,0:0:0:0:
184,64,43293,1,0,0:0:0:0:
256,144,43455,5,2,0:0:0:0:
176,200,43617,1,0,0:0:0:0:
256,256,43780,1,2,0:0:0:0:
176,320,43942,1,0,0:0:0:0:
256,256,44104,1,2,0:0:0:0:
176,200,44266,1,0,0:0:0:0:
256,144,44428,1,2,0:0:0:0:
344,96,44590,1,0,0:0:0:0:
216,344,44753,6,0,P|128:312|56:192,1,219.630096761494,2|0,0:0|0:0,0:0:0:0:
112,192,45158,1,0,0:0:0:0:
328,200,45239,2,0,L|456:176,1,109.815048380747,2|0,0:0|0:0,0:0:0:0:
312,120,45563,2,0,L|184:104,1,109.815048380747,2|0,0:0|0:0,0:0:0:0:
384,192,45888,2,2,P|352:264|200:304,1,219.630096761494
128,304,46374,2,0,L|104:184,1,109.815048380747
248,232,46699,2,0,L|288:112,1,109.815048380747
48,184,47023,2,2,L|16:56,1,109.815048380747
256,144,47347,5,4,0:0:0:0:
336,200,47509,1,0,0:0:0:0:
256,256,47671,1,2,0:0:0:0:
336,320,47833,1,0,0:0:0:0:
256,256,47996,1,2,0:0:0:0:
336,200,48158,1,0,0:0:0:0:
256,144,48320,1,2,0:0:0:0:
328,64,48482,1,0,0:0:0:0:
256,144,48644,5,2,0:0:0:0:
336,200,48806,1,0,0:0:0:0:
256,256,48969,1,2,0:0:0:0:
336,320,49131,1,0,0:0:0:0:
256,256,49293,1,2,0:0:0:0:
336,200,49455,1,0,0:0:0:0:
256,144,49617,1,2,0:0:0:0:
168,96,49779,1,0,0:0:0:0:
296,344,49942,6,0,P|384:312|456:192,1,219.630096761494,2|0,0:0|0:0,0:0:0:0:
400,192,50347,1,0,0:0:0:0:
184,200,50428,2,0,L|56:176,1,109.815048380747,2|0,0:0|0:0,0:0:0:0:
200,120,50752,2,0,L|328:104,1,109.815048380747,2|0,0:0|0:0,0:0:0:0:
120,200,51077,2,2,P|152:272|304:312,1,219.630096761494
384,336,51563,2,0,L|408:216,1,109.815048380747
304,256,51888,2,0,L|264:136,1,109.815048380747
408,192,52212,2,2,L|440:64,1,109.815048380747
112,144,52536,5,4,0:0:0:0:
56,344,57726,5,0,0:0:0:0:
104,280,57888,1,0,0:0:0:0:
168,232,58050,1,0,0:0:0:0:
248,200,58212,1,0,0:0:0:0:
472,200,58374,5,0,0:0:0:0:
376,136,58536,1,0,0:0:0:0:
264,112,58699,1,0,0:0:0:0:
144,120,58861,1,0,0:0:0:0:
448,336,59023,5,0,0:0:0:0:
464,256,59185,1,0,0:0:0:0:
480,176,59347,1,0,0:0:0:0:
488,88,59509,1,0,0:0:0:0:
64,336,59672,5,0,0:0:0:0:
48,256,59834,1,0,0:0:0:0:
32,176,59996,1,0,0:0:0:0:
24,88,60158,1,0,0:0:0:0:
344,280,60320,6,2,L|392:232,3,54.9075241903735
288,256,60644,2,2,L|200:256,3,54.9075241903735
64,280,60969,5,0,0:0:0:0:
40,272,61009,1,0,0:0:0:0:
64,256,61050,1,0,0:0:0:0:
40,248,61090,1,0,0:0:0:0:
64,232,61131,1,0,0:0:0:0:
40,216,61172,1,0,0:0:0:0:
72,200,61212,1,0,0:0:0:0:
32,176,61253,1,0,0:0:0:0:
56,168,61293,1,0,0:0:0:0:
256,152,61374,1,0,0:0:0:0:
408,112,61455,1,2,0:0:0:0:
256,72,61536,1,2,0:0:0:0:
80,32,61617,6,0,B|32:80|32:80|88:120|88:120|32:152|32:152|88:176|88:176|32:216|32:216|96:248|96:248|48:296|48:296|88:336|88:336|32:368|32:368|104:376,1,658.890290284482
320,104,62915,6,0,P|440:136|384:232,1,263.556108070699,4|8,0:0|0:0,0:0:0:0:
488,264,63402,2,0,L|424:296,1,65.8890270176747
32,184,63564,1,0,0:0:0:0:
176,168,63726,1,0,0:0:0:0:
408,72,63888,2,0,L|472:88,1,65.8890270176747,8|0,0:0|0:0,0:0:0:0:
160,88,64050,2,0,L|96:104,1,65.8890270176747
376,160,64213,6,0,P|504:184|520:208,1,131.778054035349
448,216,64456,1,0,0:0:0:0:
160,232,64537,1,8,0:0:0:0:
272,256,64699,1,0,0:0:0:0:
24,280,64861,2,0,L|0:304,6,32.9445135088373
416,304,65186,1,2,0:0:0:0:
472,304,65510,6,0,P|432:224|264:248,1,263.556108070699,4|8,0:0|0:0,0:0:0:0:
88,216,65996,2,0,L|160:192,1,65.8890270176747
376,120,66158,1,0,0:0:0:0:
240,112,66321,1,0,0:0:0:0:
392,40,66483,1,8,0:0:0:0:
96,40,66645,1,0,0:0:0:0:
456,200,66807,5,0,0:0:0:0:
120,192,66969,2,0,L|32:208,1,65.8890270176747
392,208,67131,2,0,P|472:232|480:304,1,131.778054035349,8|0,0:0|0:0,0:0:0:0:
232,296,67456,2,0,L|320:304,1,65.8890270176747
488,304,67618,2,0,L|400:320,1,65.8890270176747
64,320,67780,1,2,0:0:0:0:
104,320,68104,6,0,P|72:224|184:128,1,263.556108070699,4|8,0:0|0:0,0:0:0:0:
448,160,68591,2,0,L|360:184,1,65.8890270176747
32,184,68753,1,0,0:0:0:0:
168,208,68915,1,0,0:0:0:0:
472,224,69077,2,0,L|456:320,1,65.8890270176747,8|0,0:0|0:0,0:0:0:0:
224,312,69240,2,0,L|128:328,1,65.8890270176747
408,304,69401,5,0,0:0:0:0:
264,280,69563,2,0,L|352:256,1,65.8890270176747
400,248,69726,1,8,0:0:0:0:
152,192,69888,1,0,0:0:0:0:
456,232,70050,2,0,L|496:232,6,32.9445135088373
40,224,70375,1,2,0:0:0:0:
88,224,70699,6,0,P|168:176|112:16,1,263.556108070699,4|8,0:0|0:0,0:0:0:0:
328,72,71186,2,0,L|216:32,1,65.8890270176747
32,56,71348,1,0,0:0:0:0:
336,160,71510,1,0,0:0:0:0:
24,176,71672,2,0,L|112:192,1,65.8890270176747,8|0,0:0|0:0,0:0:0:0:
384,248,71834,2,0,L|472:264,1,65.8890270176747
136,72,71996,6,0,P|32:136|48:232,1,197.667081053024,2|0,0:0|0:0,0:0:0:0:
392,152,72321,2,0,P|488:232|488:328,1,197.667081053024,10|0,0:0|0:0,0:0:0:0:
208,320,72645,1,2,0:0:0:0:
320,312,72807,1,2,0:0:0:0:
32,216,72969,1,2,0:0:0:0:
464,224,73131,1,2,0:0:0:0:
192,104,73294,6,0,P|72:136|128:232,1,263.556108070699,4|8,0:0|0:0,0:0:0:0:
24,264,73781,2,0,L|88:296,1,65.8890270176747
480,184,73943,1,0,0:0:0:0:
336,168,74105,1,0,0:0:0:0:
104,72,74267,2,0,L|40:88,1,65.8890270176747,8|0,0:0|0:0,0:0:0:0:
344,96,74429,2,0,L|408:112,1,65.8890270176747
136,160,74592,6,0,P|8:184|-8:208,1,131.778054035349
64,216,74835,1,0,0:0:0:0:
352,232,74916,1,8,0:0:0:0:
240,256,75078,1,0,0:0:0:0:
488,264,75240,2,0,L|512:288,6,32.9445135088373
96,304,75565,1,2,0:0:0:0:
40,304,75889,6,0,P|80:224|248:248,1,263.556108070699,4|8,0:0|0:0,0:0:0:0:
424,216,76375,2,0,L|352:192,1,65.8890270176747
168,112,76537,1,0,0:0:0:0:
264,112,76700,1,0,0:0:0:0:
160,40,76862,1,8,0:0:0:0:
448,40,77024,1,0,0:0:0:0:
56,200,77186,5,0,0:0:0:0:
424,208,77348,2,0,L|512:224,1,65.8890270176747
120,208,77510,2,0,P|40:232|32:304,1,131.778054035349,8|0,0:0|0:0,0:0:0:0:
304,304,77835,2,0,L|216:312,1,65.8890270176747
24,304,77997,2,0,L|112:320,1,65.8890270176747
448,320,78159,1,2,0:0:0:0:
408,320,78483,6,0,P|440:224|328:128,1,263.556108070699,4|8,0:0|0:0,0:0:0:0:
64,160,78970,2,0,L|152:184,1,65.8890270176747
480,184,79132,1,0,0:0:0:0:
344,208,79294,1,0,0:0:0:0:
40,224,79456,2,0,L|56:320,1,65.8890270176747,8|0,0:0|0:0,0:0:0:0:
288,312,79619,2,0,L|384:328,1,65.8890270176747
104,304,79780,5,0,0:0:0:0:
248,280,79942,2,0,L|160:256,1,65.8890270176747
104,256,80105,1,8,0:0:0:0:
320,184,80267,1,0,0:0:0:0:
56,232,80429,2,0,L|32:232,12,16.4722567544187
448,224,80753,2,0,L|488:232,4,32.9445135088373
424,224,81078,6,0,P|344:176|400:16,1,263.556108070699,4|8,0:0|0:0,0:0:0:0:
432,24,81483,1,0,0:0:0:0:
144,80,81565,2,0,L|32:40,1,65.8890270176747
336,104,81726,2,0,L|424:88,1,65.8890270176747
168,168,81888,2,0,L|192:240,1,65.8890270176747
400,196,82051,2,0,L|464:184,1,65.8890270176747,8|0,0:0|0:0,0:0:0:0:
128,240,82213,2,0,L|40:256,1,65.8890270176747
376,72,82375,6,0,P|480:136|472:184,1,131.778054035349,2|0,0:0|0:0,0:0:0:0:
296,144,82618,1,0,0:0:0:0:
120,152,82700,2,0,P|24:232|24:328,1,197.667081053024,2|0,0:0|0:0,0:0:0:0:
504,304,83024,1,2,0:0:0:0:
216,304,83185,1,0,0:0:0:0:
320,304,83348,1,0,0:0:0:0:
32,296,83509,1,0,0:0:0:0:
416,296,83672,5,4,0:0:0:0:
472,264,83753,1,0,0:0:0:0:
416,232,83834,1,0,0:0:0:0:
208,208,83915,1,0,0:0:0:0:
136,208,83996,2,0,P|56:192|-8:80,1,164.722572571121
184,120,84320,1,0,0:0:0:0:
232,96,84401,1,0,0:0:0:0:
176,72,84482,1,0,0:0:0:0:
424,120,84644,1,0,0:0:0:0:
480,88,84726,1,0,0:0:0:0:
424,64,84807,1,0,0:0:0:0:
112,304,84969,6,0,P|152:272|224:248,1,109.815048380747
416,248,85212,2,0,P|488:216|496:168,1,109.815048380747
416,184,85455,1,0,0:0:0:0:
136,192,85617,1,0,0:0:0:0:
72,184,85699,1,0,0:0:0:0:
32,144,85780,1,0,0:0:0:0:
96,128,85861,1,0,0:0:0:0:
400,320,85942,6,0,L|400:352,1,27.4537620951868
432,304,86023,2,0,L|456:336,1,27.4537620951868
456,264,86104,2,0,L|496:288,1,27.4537620951868
464,224,86185,1,0,0:0:0:0:
200,296,86266,5,0,0:0:0:0:
328,264,86428,1,0,0:0:0:0:
384,232,86509,1,0,0:0:0:0:
320,216,86590,1,0,0:0:0:0:
256,200,86672,1,0,0:0:0:0:
432,160,86753,2,0,L|496:136,1,54.9075241903735
152,256,86915,6,0,P|48:224|24:192,1,109.815048380747
120,192,87158,1,0,0:0:0:0:
320,120,87239,2,0,L|400:112,1,54.9075241903735
432,104,87401,2,0,L|512:96,1,54.9075241903735
32,336,87563,6,0,P|96:288|152:272,1,109.815048380747
400,240,87807,2,0,P|512:208|536:176,1,109.815048380747
216,168,88050,2,0,L|128:152,1,54.9075241903735
376,144,88212,1,0,0:0:0:0:
56,88,88374,1,0,0:0:0:0:
432,328,88536,6,0,L|464:328,2,27.4537620951868
224,288,88699,2,0,L|176:288,2,36.6050161269157
424,264,88861,5,0,0:0:0:0:
464,224,88942,1,0,0:0:0:0:
432,176,89023,1,0,0:0:0:0:
368,160,89104,1,0,0:0:0:0:
224,176,89185,1,0,0:0:0:0:
168,144,89266,1,0,0:0:0:0:
128,104,89347,1,0,0:0:0:0:
112,56,89428,1,0,0:0:0:0:
448,120,89509,6,0,P|384:192|352:208,1,109.815048380747
320,216,89753,1,0,0:0:0:0:
40,248,89834,1,0,0:0:0:0:
384,304,89996,1,0,0:0:0:0:
88,336,90158,6,0,P|120:280|176:248,1,109.815048380747
416,264,90482,2,0,L|320:216,1,73.2100322538313
80,152,90699,1,0,0:0:0:0:
360,144,90807,2,0,L|480:128,1,109.815048380747
144,320,91131,5,0,0:0:0:0:
120,312,91172,1,0,0:0:0:0:
96,296,91212,1,0,0:0:0:0:
80,272,91253,1,0,0:0:0:0:
72,248,91293,1,0,0:0:0:0:
88,224,91334,1,0,0:0:0:0:
112,208,91374,1,0,0:0:0:0:
456,200,91455,5,0,0:0:0:0:
192,160,91617,1,0,0:0:0:0:
160,128,91699,1,0,0:0:0:0:
192,104,91780,1,0,0:0:0:0:
384,104,91861,1,0,0:0:0:0:
440,88,91942,1,0,0:0:0:0:
384,56,92023,1,0,0:0:0:0:
48,120,92104,5,0,0:0:0:0:
8,80,92185,1,0,0:0:0:0:
48,32,92266,1,0,0:0:0:0:
232,200,92347,1,0,0:0:0:0:
416,208,92428,1,0,0:0:0:0:
464,184,92482,1,0,0:0:0:0:
488,144,92536,1,0,0:0:0:0:
472,96,92590,1,0,0:0:0:0:
432,72,92644,1,0,0:0:0:0:
384,64,92699,1,0,0:0:0:0:
200,88,92753,5,0,0:0:0:0:
24,176,92834,1,0,0:0:0:0:
48,208,92915,1,0,0:0:0:0:
80,240,92996,1,0,0:0:0:0:
328,336,93077,1,0,0:0:0:0:
400,312,93158,1,0,0:0:0:0:
328,296,93239,1,0,0:0:0:0:
144,240,93320,1,0,0:0:0:0:
216,224,93401,5,0,0:0:0:0:
416,192,93482,1,0,0:0:0:0:
264,152,93563,1,0,0:0:0:0:
104,128,93644,1,0,0:0:0:0:
416,104,93726,1,0,0:0:0:0:
256,192,93807,8,0,95347,0:0:0:0:
