osu file format v14

[General]
AudioFilename: audio.mp3
AudioLeadIn: 0
PreviewTime: 61597
Countdown: 0
SampleSet: Soft
StackLeniency: 0.7
Mode: 1
LetterboxInBreaks: 0
WidescreenStoryboard: 1

[Editor]
Bookmarks: 1273,5489,11003,16192,21381,31760,42138,52516,70516,86084
DistanceSpacing: 1
BeatDivisor: 4
GridSize: 32
TimelineZoom: 3.600004

[Metadata]
Title:TSLove
TitleUnicode:TSLove
Artist:O2i3
ArtistUnicode:O2i3
Creator:[_Chichinya_]
Version:FrukoLove <3
Source:
Tags:Melanie Friggy-chan kqrth DDM Hi_Hello 404 AccNotFound FlamingRok Dargin Cyoris210 BlackWolf159 Yuno Taikocracy Prancer agu gamerock Nifty Lno Nepuri Raphalge frukoyurdakul Cyssel Unmei Muma Q____X Vulkin JessiChan iContol Chocola_2287 AezLack _yu68 zigizigiefe Grimbow
BeatmapID:1191294
BeatmapSetID:549370

[Difficulty]
HPDrainRate:6
CircleSize:2
OverallDifficulty:7
ApproachRate:9
SliderMultiplier:1.5
SliderTickRate:1

[Events]
//Background and Video events
0,0,"BG5.png",0,0
//Break Periods
//Storyboard Layer 0 (Background)
//Storyboard Layer 1 (Fail)
//Storyboard Layer 2 (Pass)
//Storyboard Layer 3 (Foreground)
//Storyboard Sound Samples

[TimingPoints]
645,324.324324324324,4,2,0,60,1,0
968,324.324324324324,4,2,0,60,1,0
969,324.324324324324,4,2,0,60,1,8
969,-1,4,2,0,60,0,0
970,-100,4,2,0,60,0,0
1292,324.324324324324,4,2,0,60,1,0
1293,324.324324324324,4,2,0,60,1,8
1293,-1,4,2,0,60,0,0
1294,-100,4,2,0,60,0,0
1454,324.324324324324,4,2,0,60,1,0
1455,324.324324324324,4,2,0,60,1,8
1455,-1,4,2,0,60,0,0
1456,-100,4,2,0,60,0,0
1778,324.324324324324,4,2,0,60,1,0
1779,324.324324324324,4,2,0,60,1,8
1779,-1,4,2,0,60,0,0
1780,-100,4,2,0,60,0,0
1940,324.324324324324,4,2,0,60,1,0
1941,324.324324324324,4,2,0,60,1,8
1941,-1,4,2,0,60,0,0
1942,-100,4,2,0,60,0,0
2102,324.324324324324,4,2,0,60,1,0
2103,324.324324324324,4,2,0,60,1,8
2103,-1,4,2,0,60,0,0
2104,-100,4,2,0,60,0,0
2264,324.324324324324,4,2,0,60,1,0
2265,324.324324324324,4,2,0,60,1,8
2265,-1,4,2,0,60,0,0
2266,-100,4,2,0,60,0,0
2588,324.324324324324,4,2,0,60,1,0
2589,324.324324324324,4,2,0,60,1,8
2589,-1,4,2,0,60,0,0
2590,-100,4,2,0,60,0,0
2912,324.324324324324,4,2,0,60,1,0
2913,324.324324324324,4,2,0,60,1,8
2913,-1,4,2,0,60,0,0
2914,-100,4,2,0,60,0,0
3074,324.324324324324,4,2,0,60,1,0
3075,324.324324324324,4,2,0,60,1,8
3075,-1,4,2,0,60,0,0
3076,-100,4,2,0,60,0,0
3237,324.324324324324,4,2,0,60,1,0
4046,324.324324324324,4,2,0,60,1,0
4047,324.324324324324,4,2,0,60,1,8
4047,-1,4,2,0,60,0,0
4048,-100,4,2,0,60,0,0
4370,324.324324324324,4,2,0,60,1,0
4371,324.324324324324,4,2,0,60,1,8
4371,-1,4,2,0,60,0,0
4372,-100,4,2,0,60,0,0
4532,324.324324324324,4,2,0,60,1,0
4533,324.324324324324,4,2,0,60,1,8
4533,-1,4,2,0,60,0,0
4534,-100,4,2,0,60,0,0
4694,324.324324324324,4,2,0,60,1,0
4695,324.324324324324,4,2,0,60,1,8
4695,-1,4,2,0,60,0,0
4696,-100,4,2,0,60,0,0
4856,324.324324324324,4,2,0,60,1,0
4857,324.324324324324,4,2,0,60,1,8
4857,-1,4,2,0,60,0,0
4858,-100,4,2,0,60,0,0
5018,324.324324324324,4,2,0,60,1,0
5019,324.324324324324,4,2,0,60,1,8
5019,-1,4,2,0,60,0,0
5020,-100,4,2,0,60,0,0
5504,324.324324324324,4,2,0,60,1,0
5505,324.324324324324,4,2,0,60,1,8
5505,-1,4,2,0,60,0,0
5506,-100,4,2,0,60,0,0
5747,324.324324324324,4,2,0,60,1,0
5748,324.324324324324,4,2,0,60,1,8
5748,-1,4,2,0,60,0,0
5749,-100,4,2,0,60,0,0
5829,324.324324324324,4,2,0,60,1,8
6152,324.324324324324,4,2,0,60,1,0
6153,324.324324324324,4,2,0,60,1,8
6153,-1,4,2,0,60,0,0
6154,-100,4,2,0,60,0,0
6476,324.324324324324,4,2,0,60,1,0
6477,324.324324324324,4,2,0,60,1,8
6477,-1,4,2,0,60,0,0
6478,-100,4,2,0,60,0,0
6638,324.324324324324,4,2,0,60,1,0
6639,324.324324324324,4,2,0,60,1,8
6639,-1,4,2,0,60,0,0
6640,-100,4,2,0,60,0,0
6962,324.324324324324,4,2,0,60,1,0
6963,324.324324324324,4,2,0,60,1,8
6963,-1,4,2,0,60,0,0
6964,-100,4,2,0,60,0,0
7124,324.324324324324,4,2,0,60,1,0
7125,324.324324324324,4,2,0,60,1,8
7125,-1,4,2,0,60,0,0
7126,-100,4,2,0,60,0,0
7286,324.324324324324,4,2,0,60,1,0
7287,324.324324324324,4,2,0,60,1,8
7287,-1,4,2,0,60,0,0
7288,-100,4,2,0,60,0,0
7448,324.324324324324,4,2,0,60,1,0
7449,324.324324324324,4,2,0,60,1,8
7449,-1,4,2,0,60,0,0
7450,-100,4,2,0,60,0,0
7772,324.324324324324,4,2,0,60,1,0
7773,324.324324324324,4,2,0,60,1,8
7773,-1,4,2,0,60,0,0
7774,-100,4,2,0,60,0,0
8096,324.324324324324,4,2,0,60,1,0
8097,324.324324324324,4,2,0,60,1,8
8097,-1,4,2,0,60,0,0
8098,-100,4,2,0,60,0,0
8258,324.324324324324,4,2,0,60,1,0
8259,324.324324324324,4,2,0,60,1,8
8259,-1,4,2,0,60,0,0
8260,-100,4,2,0,60,0,0
8339,324.324324324324,4,2,0,60,1,0
8340,324.324324324324,4,2,0,60,1,8
8340,-1,4,2,0,60,0,0
8341,-100,4,2,0,60,0,0
8421,324.324324324324,4,2,0,60,1,0
9068,324.324324324324,4,2,0,60,1,0
9069,324.324324324324,4,2,0,60,1,8
9069,-1,4,2,0,60,0,0
9070,-100,4,2,0,60,0,0
9230,324.324324324324,4,2,0,60,1,0
9231,324.324324324324,4,2,0,60,1,8
9231,-1,4,2,0,60,0,0
9232,-100,4,2,0,60,0,0
9554,324.324324324324,4,2,0,60,1,0
9555,324.324324324324,4,2,0,60,1,8
9555,-1,4,2,0,60,0,0
9556,-100,4,2,0,60,0,0
9716,324.324324324324,4,2,0,60,1,0
9717,324.324324324324,4,2,0,60,1,8
9717,-1,4,2,0,60,0,0
9718,-100,4,2,0,60,0,0
9878,324.324324324324,4,2,0,60,1,0
9879,324.324324324324,4,2,0,60,1,8
9879,-1,4,2,0,60,0,0
9880,-100,4,2,0,60,0,0
10040,324.324324324324,4,2,0,60,1,0
10041,324.324324324324,4,2,0,60,1,8
10041,-1,4,2,0,60,0,0
10042,-100,4,2,0,60,0,0
10202,324.324324324324,4,2,0,60,1,0
10203,324.324324324324,4,2,0,60,1,8
10203,-1,4,2,0,60,0,0
10204,-100,4,2,0,60,0,0
11013,324.324324324324,4,2,0,60,1,0
11336,324.324324324324,4,2,0,60,1,0
11337,324.324324324324,4,2,0,60,1,8
11337,-1,4,2,0,60,0,0
11338,-100,4,2,0,60,0,0
11984,324.324324324324,4,2,0,60,1,0
11985,324.324324324324,4,2,0,60,1,8
11985,-1,4,2,0,60,0,0
11986,-100,4,2,0,60,0,0
12632,324.324324324324,4,2,0,60,1,0
12633,324.324324324324,4,2,0,60,1,8
12633,-1,4,2,0,60,0,0
12634,-100,4,2,0,60,0,0
13280,324.324324324324,4,2,0,60,1,0
13281,324.324324324324,4,2,0,60,1,8
13281,-1,4,2,0,60,0,0
13282,-100,4,2,0,60,0,0
13523,324.324324324324,4,2,0,60,1,0
13524,324.324324324324,4,2,0,60,1,8
13524,-1,4,2,0,60,0,0
13525,-100,4,2,0,60,0,0
13605,324.324324324324,4,2,0,60,1,0
13928,324.324324324324,4,2,0,60,1,0
13929,324.324324324324,4,2,0,60,1,8
13929,-1,4,2,0,60,0,0
13930,-100,4,2,0,60,0,0
14576,324.324324324324,4,2,0,60,1,0
14577,324.324324324324,4,2,0,60,1,8
14577,-1,4,2,0,60,0,0
14578,-100,4,2,0,60,0,0
15224,324.324324324324,4,2,0,60,1,0
15225,324.324324324324,4,2,0,60,1,8
15225,-1,4,2,0,60,0,0
15226,-100,4,2,0,60,0,0
15872,324.324324324324,4,2,0,60,1,0
15873,324.324324324324,4,2,0,60,1,8
15873,-1,4,2,0,60,0,0
15874,-100,4,2,0,60,0,0
16197,324.324324324324,4,2,0,60,1,0
16520,324.324324324324,4,2,0,70,1,0
16521,324.324324324324,4,2,0,70,1,8
16521,-1,4,2,0,70,0,0
16522,-100,4,2,0,70,0,0
17168,324.324324324324,4,2,0,80,1,0
17169,324.324324324324,4,2,0,80,1,8
17169,-1,4,2,0,80,0,0
17170,-100,4,2,0,80,0,0
17816,324.324324324324,4,2,0,90,1,0
17817,324.324324324324,4,2,0,90,1,8
17817,-1,4,2,0,90,0,0
17818,-100,4,2,0,90,0,0
18302,324.324324324324,4,2,0,100,1,0
18303,324.324324324324,4,2,0,100,1,0
18303,-1,4,2,0,100,0,0
18304,-100,4,2,0,100,0,0
18464,324.324324324324,4,2,0,100,1,0
18465,324.324324324324,4,2,0,100,1,0
18465,-1,4,2,0,100,0,0
18466,-100,4,2,0,100,0,0
18626,324.324324324324,4,2,0,100,1,0
18627,324.324324324324,4,2,0,100,1,0
18627,-1,4,2,0,100,0,0
18628,-100,4,2,0,100,0,0
18789,324.324324324324,4,2,0,100,1,0
20072,-100,4,1,0,100,0,0
21383,324.324324324324,4,1,0,100,1,8
21401,324.324324324324,4,1,0,100,1,0
23670,324.324324324324,4,2,0,100,1,0
23671,324.324324324324,4,2,0,100,1,8
23671,-1,4,2,0,100,0,0
23672,-100,4,2,0,100,0,1
23995,324.324324324324,4,1,0,100,1,0
26103,324.324324324324,4,1,0,100,1,1
26264,324.324324324324,4,2,0,100,1,0
26265,324.324324324324,4,2,0,100,1,0
26265,-1,4,2,0,100,0,0
26266,-100,4,2,0,100,0,1
26589,324.324324324324,4,1,0,100,1,0
28858,324.324324324324,4,2,0,100,1,0
28859,324.324324324324,4,2,0,100,1,0
28859,-1,4,2,0,100,0,0
28860,-100,4,2,0,100,0,1
29183,324.324324324324,4,1,0,100,1,0
30479,324.324324324324,4,2,0,100,1,0
30480,324.324324324324,4,2,0,100,1,0
30480,-1,4,2,0,100,0,0
30481,-100,4,2,0,100,0,1
30803,324.324324324324,4,2,0,100,1,0
30804,324.324324324324,4,2,0,100,1,0
30804,-1,4,2,0,100,0,0
30805,-100,4,2,0,100,0,1
31127,324.324324324324,4,2,0,100,1,0
31128,324.324324324324,4,2,0,100,1,0
31128,-1,4,2,0,100,0,0
31129,-100,4,2,0,100,0,1
31289,324.324324324324,4,2,0,100,1,0
31290,324.324324324324,4,2,0,100,1,0
31290,-1,4,2,0,100,0,0
31291,-100,4,2,0,100,0,1
31451,324.324324324324,4,2,0,100,1,0
31452,324.324324324324,4,2,0,100,1,0
31452,-1,4,2,0,100,0,0
31453,-100,4,2,0,100,0,1
31613,324.324324324324,4,2,0,100,1,0
31614,324.324324324324,4,2,0,100,1,0
31614,-1,4,2,0,100,0,0
31615,-100,4,2,0,100,0,1
31776,324.324324324324,4,1,0,100,1,0
32262,-100,4,1,0,100,0,0
32316,-93.4579439252336,4,1,0,100,0,0
32370,-87.719298245614,4,1,0,100,0,0
32424,-83.3333333333333,4,1,0,100,0,0
32830,-86.9565217391304,4,1,0,100,0,0
32911,-90.9090909090909,4,1,0,100,0,0
32992,-95.2380952380952,4,1,0,100,0,0
33073,-100,4,1,0,100,0,0
33235,-93.4579439252336,4,1,0,100,0,0
33316,-87.719298245614,4,1,0,100,0,0
33397,-83.3333333333333,4,1,0,100,0,0
33559,-83.3333333333333,4,1,0,100,0,0
33640,-87.719298245614,4,1,0,100,0,0
33721,-93.4579439252336,4,1,0,100,0,0
33884,-100,4,1,0,100,0,0
34045,324.324324324324,4,2,0,100,1,0
34046,324.324324324324,4,2,0,100,1,0
34046,-1,4,2,0,100,0,0
34047,-100,4,2,0,100,0,1
34370,324.324324324324,4,1,0,100,1,0
35018,-95.2380952380952,4,1,0,100,0,0
35072,-90.9090909090909,4,1,0,100,0,0
35126,-86.9565217391304,4,1,0,100,0,0
35180,-83.3333333333333,4,1,0,100,0,0
35424,-86.9565217391304,4,1,0,100,0,0
35505,-90.9090909090909,4,1,0,100,0,0
35586,-95.2380952380952,4,1,0,100,0,0
35667,-100,4,1,0,100,0,0
36478,324.324324324324,4,1,0,100,1,9
36639,324.324324324324,4,2,0,100,1,0
36640,324.324324324324,4,2,0,100,1,0
36640,-1,4,2,0,100,0,0
36641,-100,4,2,0,100,0,1
36964,324.324324324324,4,1,0,100,1,0
37126,-95.2380952380952,4,1,0,100,0,0
37180,-90.9090909090909,4,1,0,100,0,0
37234,-86.9565217391304,4,1,0,100,0,0
37288,-83.3333333333333,4,1,0,100,0,0
38018,-86.9565217391304,4,1,0,100,0,0
38099,-90.9090909090909,4,1,0,100,0,0
38180,-95.2380952380952,4,1,0,100,0,0
38261,-100,4,1,0,100,0,0
39233,324.324324324324,4,2,0,100,1,0
39234,324.324324324324,4,2,0,100,1,0
39234,-1,4,2,0,100,0,0
39235,-100,4,2,0,100,0,1
39558,324.324324324324,4,1,0,100,1,0
40854,324.324324324324,4,1,0,100,1,0
40855,324.324324324324,4,1,0,100,1,0
40855,-1,4,2,0,100,0,0
40856,-100,4,1,0,100,0,1
41178,324.324324324324,4,1,0,100,1,0
41179,324.324324324324,4,1,0,100,1,0
41179,-1,4,2,0,100,0,0
41180,-100,4,1,0,100,0,1
41989,-100,4,2,0,70,0,0
42158,324.324324324324,4,2,0,70,1,0
42481,324.324324324324,4,2,0,70,1,0
42482,324.324324324324,4,2,0,70,1,8
42482,-1,4,2,0,70,0,0
42483,-100,4,2,0,70,0,0
42805,324.324324324324,4,2,0,70,1,0
42806,324.324324324324,4,2,0,70,1,8
42806,-1,4,2,0,70,0,0
42807,-100,4,2,0,70,0,0
42967,324.324324324324,4,2,0,70,1,0
42968,324.324324324324,4,2,0,70,1,8
42968,-1,4,2,0,70,0,0
42969,-100,4,2,0,70,0,0
43291,324.324324324324,4,2,0,70,1,0
43292,324.324324324324,4,2,0,70,1,8
43292,-1,4,2,0,70,0,0
43293,-100,4,2,0,70,0,0
43453,324.324324324324,4,2,0,70,1,0
43454,324.324324324324,4,2,0,70,1,8
43454,-1,4,2,0,70,0,0
43455,-100,4,2,0,70,0,0
43615,324.324324324324,4,2,0,70,1,0
43616,324.324324324324,4,2,0,70,1,8
43616,-1,4,2,0,70,0,0
43617,-100,4,2,0,70,0,0
43777,324.324324324324,4,2,0,70,1,0
43778,324.324324324324,4,2,0,70,1,8
43778,-1,4,2,0,70,0,0
43779,-100,4,2,0,70,0,0
43939,324.324324324324,4,2,0,70,1,0
43940,324.324324324324,4,2,0,70,1,8
43940,-1,4,2,0,70,0,0
43941,-100,4,2,0,70,0,0
44425,324.324324324324,4,2,0,70,1,0
44426,324.324324324324,4,2,0,70,1,8
44426,-1,4,2,0,70,0,0
44427,-100,4,2,0,70,0,0
44749,324.324324324324,4,2,0,70,1,0
44750,324.324324324324,4,2,0,70,1,8
44750,-1,4,2,0,70,0,0
44751,-100,4,2,0,70,0,0
44911,324.324324324324,4,2,0,70,1,0
44912,324.324324324324,4,2,0,70,1,8
44912,-1,4,2,0,70,0,0
44913,-100,4,2,0,70,0,0
45073,324.324324324324,4,2,0,70,1,0
45074,324.324324324324,4,2,0,70,1,8
45074,-1,4,2,0,70,0,0
45075,-100,4,2,0,70,0,0
45154,324.324324324324,4,2,0,70,1,0
45155,324.324324324324,4,2,0,70,1,8
45155,-1,4,2,0,70,0,0
45156,-100,4,2,0,70,0,0
45236,324.324324324324,4,2,0,70,1,8
45559,324.324324324324,4,2,0,70,1,0
45560,324.324324324324,4,2,0,70,1,8
45560,-1,4,2,0,70,0,0
45561,-100,4,2,0,70,0,0
45883,324.324324324324,4,2,0,70,1,0
45884,324.324324324324,4,2,0,70,1,8
45884,-1,4,2,0,70,0,0
45885,-100,4,2,0,70,0,0
46046,324.324324324324,4,2,0,70,1,8
46369,324.324324324324,4,2,0,70,1,0
46370,324.324324324324,4,2,0,70,1,8
46370,-1,4,2,0,70,0,0
46371,-100,4,2,0,70,0,0
46531,324.324324324324,4,2,0,70,1,0
46532,324.324324324324,4,2,0,70,1,8
46532,-1,4,2,0,70,0,0
46533,-100,4,2,0,70,0,0
47342,324.324324324324,4,2,0,70,1,0
47665,324.324324324324,4,2,0,70,1,0
47666,324.324324324324,4,2,0,70,1,8
47666,-1,4,2,0,70,0,0
47667,-100,4,2,0,70,0,0
48151,324.324324324324,4,2,0,70,1,0
48152,324.324324324324,4,2,0,70,1,8
48152,-1,4,2,0,70,0,0
48153,-100,4,2,0,70,0,0
48475,324.324324324324,4,2,0,70,1,0
48476,324.324324324324,4,2,0,70,1,8
48476,-1,4,2,0,70,0,0
48477,-100,4,2,0,70,0,0
48637,324.324324324324,4,2,0,70,1,0
48638,324.324324324324,4,2,0,70,1,8
48638,-1,4,2,0,70,0,0
48639,-100,4,2,0,70,0,0
48799,324.324324324324,4,2,0,70,1,0
48800,324.324324324324,4,2,0,70,1,8
48800,-1,4,2,0,70,0,0
48801,-100,4,2,0,70,0,0
49123,324.324324324324,4,2,0,70,1,0
49124,324.324324324324,4,2,0,70,1,8
49124,-1,4,2,0,70,0,0
49125,-100,4,2,0,70,0,0
49447,324.324324324324,4,2,0,70,1,0
49448,324.324324324324,4,2,0,70,1,8
49448,-1,4,2,0,70,0,0
49449,-100,4,2,0,70,0,0
49609,324.324324324324,4,2,0,70,1,0
49610,324.324324324324,4,2,0,70,1,8
49610,-1,4,2,0,70,0,0
49611,-100,4,2,0,70,0,0
49940,324.324324324324,4,2,0,70,1,0
49941,324.324324324324,4,2,0,70,1,8
49941,-1,4,2,0,70,0,0
49942,-100,4,2,0,70,0,0
50426,324.324324324324,4,2,0,70,1,0
50427,324.324324324324,4,2,0,70,1,8
50427,-1,4,2,0,70,0,0
50428,-100,4,2,0,70,0,0
50831,324.324324324324,4,2,0,70,1,0
50832,324.324324324324,4,2,0,70,1,8
50832,-1,4,2,0,70,0,0
50833,-100,4,2,0,70,0,0
50912,324.324324324324,4,2,0,70,1,0
50913,324.324324324324,4,2,0,70,1,8
50913,-1,4,2,0,70,0,0
50914,-100,4,2,0,70,0,0
51074,324.324324324324,4,2,0,70,1,0
51075,324.324324324324,4,2,0,70,1,8
51075,-1,4,2,0,70,0,0
51076,-100,4,2,0,70,0,0
51236,324.324324324324,4,2,0,70,1,0
51237,324.324324324324,4,2,0,70,1,8
51237,-1,4,2,0,70,0,0
51238,-100,4,2,0,70,0,0
51398,324.324324324324,4,2,0,70,1,0
51399,324.324324324324,4,2,0,70,1,8
51399,-1,4,2,0,70,0,0
51400,-100,4,2,0,70,0,0
51560,324.324324324324,4,2,0,70,1,0
51561,324.324324324324,4,2,0,70,1,8
51561,-1,4,2,0,70,0,0
51562,-100,4,2,0,70,0,0
51722,324.324324324324,4,2,0,70,1,0
51723,324.324324324324,4,2,0,70,1,8
51723,-1,4,2,0,70,0,0
51724,-100,4,2,0,70,0,0
52533,324.324324324324,4,2,0,70,1,0
60316,-99.009900990099,4,2,0,70,0,0
60478,-98.0392156862745,4,2,0,70,0,0
60641,-97.0873786407767,4,2,0,70,0,0
60803,-96.1538461538461,4,2,0,70,0,0
60965,-95.2380952380952,4,2,0,70,0,0
61005,-94.3396226415094,4,2,0,70,0,0
61046,-93.4579439252336,4,2,0,70,0,0
61087,-92.5925925925926,4,2,0,70,0,0
61127,-91.743119266055,4,2,0,70,0,0
61208,-90.9090909090909,4,2,0,70,0,0
61289,-90.0900900900901,4,2,0,70,0,0
61370,-88.4955752212389,4,2,0,70,0,0
61451,-86.9565217391304,4,2,0,70,0,0
61532,-85.4700854700855,4,2,0,70,0,0
61614,-83.3333333333333,4,2,0,70,0,0
61776,-86.2068965517241,4,2,0,70,0,0
61938,-89.2857142857143,4,2,0,70,0,0
62019,-90.9090909090909,4,2,0,70,0,0
62100,-92.5925925925926,4,2,0,70,0,0
62181,-94.3396226415094,4,2,0,70,0,0
62262,-96.1538461538461,4,2,0,70,0,0
62424,-100,4,2,0,70,0,0
62587,-125,4,2,0,70,0,0
62911,-100,4,1,0,100,0,0
65180,324.324324324324,4,2,0,100,1,0
65181,324.324324324324,4,2,0,100,1,0
65181,-1,4,2,0,100,0,0
65182,-100,4,2,0,100,0,1
65505,324.324324324324,4,1,0,100,1,0
70368,324.324324324324,4,2,0,100,1,0
70369,324.324324324324,4,2,0,100,1,0
70369,-1,4,2,0,100,0,0
70370,-100,4,2,0,100,0,1
70693,324.324324324324,4,1,0,100,1,0
72637,324.324324324324,4,2,0,100,1,0
72638,324.324324324324,4,2,0,100,1,0
72638,-1,4,2,0,100,0,0
72639,-100,4,2,0,100,0,1
72799,324.324324324324,4,2,0,100,1,0
72800,324.324324324324,4,2,0,100,1,0
72800,-1,4,2,0,100,0,0
72801,-100,4,2,0,100,0,1
72961,324.324324324324,4,2,0,100,1,0
72962,324.324324324324,4,2,0,100,1,0
72962,-1,4,2,0,100,0,0
72963,-100,4,2,0,100,0,1
73123,324.324324324324,4,2,0,100,1,0
73124,324.324324324324,4,2,0,100,1,0
73124,-1,4,2,0,100,0,0
73125,-100,4,2,0,100,0,1
73291,324.324324324324,4,1,0,100,1,0
75560,324.324324324324,4,2,0,100,1,0
75561,324.324324324324,4,2,0,100,1,0
75561,-1,4,2,0,100,0,0
75562,-100,4,2,0,100,0,1
75885,324.324324324324,4,1,0,100,1,0
80749,-1,4,1,0,100,0,0
81074,-100,4,1,0,100,0,0
82371,-66.6666666666667,4,1,0,100,0,0
82533,-50,4,1,0,100,0,0
82695,-40,4,1,0,100,0,0
83020,-100,4,1,0,50,0,0
83668,-100,4,1,0,100,0,0
84317,-98.0392156862745,4,1,0,100,0,0
84966,-95.2380952380952,4,1,0,100,0,0
86263,-93.4579439252336,4,1,0,100,0,0
87560,-90.9090909090909,4,1,0,100,0,0
88857,-89.2857142857143,4,1,0,100,0,0
91452,-86.9565217391304,4,1,0,100,0,0

[Colours]
Combo1 : 133,24,82
Combo2 : 96,61,99
Combo3 : 252,143,143
Combo4 : 234,69,21

[HitObjects]
256,192,645,5,0,0:0:0:0:
256,192,807,1,0,0:0:0:0:
256,192,969,1,8,0:0:0:0:
256,192,1131,1,0,0:0:0:0:
256,192,1293,1,8,0:0:0:0:
256,192,1455,1,8,0:0:0:0:
256,192,1617,1,0,0:0:0:0:
256,192,1779,1,8,0:0:0:0:
256,192,1941,1,8,0:0:0:0:
256,192,2103,1,8,0:0:0:0:
256,192,2265,1,8,0:0:0:0:
256,192,2427,1,0,0:0:0:0:
256,192,2589,1,8,0:0:0:0:
256,192,2751,1,0,0:0:0:0:
256,192,2913,1,8,0:0:0:0:
256,192,3075,1,8,0:0:0:0:
256,192,3237,1,0,0:0:0:0:
256,192,3399,1,0,0:0:0:0:
256,192,3561,1,0,0:0:0:0:
256,192,3723,1,0,0:0:0:0:
256,192,3885,1,0,0:0:0:0:
256,192,4047,1,8,0:0:0:0:
256,192,4209,1,0,0:0:0:0:
256,192,4371,1,8,0:0:0:0:
256,192,4533,1,8,0:0:0:0:
256,192,4695,1,8,0:0:0:0:
256,192,4857,1,8,0:0:0:0:
256,192,5019,1,8,0:0:0:0:
256,192,5181,1,0,0:0:0:0:
256,192,5343,1,0,0:0:0:0:
256,192,5505,1,8,0:0:0:0:
256,192,5586,1,0,0:0:0:0:
256,192,5667,1,0,0:0:0:0:
256,192,5748,1,8,0:0:0:0:
256,192,5829,1,0,0:0:0:0:
256,192,5991,1,0,0:0:0:0:
256,192,6153,1,8,0:0:0:0:
256,192,6315,1,0,0:0:0:0:
256,192,6477,1,8,0:0:0:0:
256,192,6639,1,8,0:0:0:0:
256,192,6801,1,0,0:0:0:0:
256,192,6963,1,8,0:0:0:0:
256,192,7125,1,8,0:0:0:0:
256,192,7287,1,8,0:0:0:0:
256,192,7449,1,8,0:0:0:0:
256,192,7611,1,0,0:0:0:0:
256,192,7773,1,8,0:0:0:0:
256,192,7935,1,0,0:0:0:0:
256,192,8097,1,8,0:0:0:0:
256,192,8259,1,8,0:0:0:0:
256,192,8340,1,8,0:0:0:0:
256,192,8421,1,0,0:0:0:0:
256,192,8583,1,0,0:0:0:0:
256,192,8745,1,0,0:0:0:0:
256,192,8907,1,0,0:0:0:0:
256,192,9069,1,8,0:0:0:0:
256,192,9231,1,8,0:0:0:0:
256,192,9393,1,0,0:0:0:0:
256,192,9555,1,8,0:0:0:0:
256,192,9717,1,8,0:0:0:0:
256,192,9879,1,8,0:0:0:0:
256,192,10041,1,8,0:0:0:0:
256,192,10203,1,8,0:0:0:0:
256,192,10366,1,0,0:0:0:0:
256,192,10527,1,0,0:0:0:0:
256,192,10689,1,0,0:0:0:0:
256,192,10851,1,0,0:0:0:0:
256,192,11013,1,12,0:0:0:0:
256,192,11175,1,0,0:0:0:0:
256,192,11337,1,8,0:0:0:0:
256,192,11499,1,0,0:0:0:0:
256,192,11580,1,0,0:0:0:0:
256,192,11661,1,0,0:0:0:0:
256,192,11823,1,0,0:0:0:0:
256,192,11985,1,8,0:0:0:0:
256,192,12147,1,0,0:0:0:0:
256,192,12228,1,0,0:0:0:0:
256,192,12309,1,0,0:0:0:0:
256,192,12471,1,0,0:0:0:0:
256,192,12633,1,8,0:0:0:0:
256,192,12795,1,0,0:0:0:0:
256,192,12876,1,0,0:0:0:0:
256,192,12957,1,0,0:0:0:0:
256,192,13119,1,0,0:0:0:0:
256,192,13281,1,8,0:0:0:0:
256,192,13443,1,0,0:0:0:0:
256,192,13524,1,8,0:0:0:0:
256,192,13605,1,0,0:0:0:0:
256,192,13767,1,0,0:0:0:0:
256,192,13929,1,8,0:0:0:0:
256,192,14091,1,0,0:0:0:0:
256,192,14172,1,0,0:0:0:0:
256,192,14253,1,0,0:0:0:0:
256,192,14415,1,0,0:0:0:0:
256,192,14577,1,8,0:0:0:0:
256,192,14739,1,0,0:0:0:0:
256,192,14820,1,0,0:0:0:0:
256,192,14901,1,0,0:0:0:0:
256,192,15063,1,0,0:0:0:0:
256,192,15225,1,8,0:0:0:0:
256,192,15387,1,0,0:0:0:0:
256,192,15468,1,0,0:0:0:0:
256,192,15549,1,0,0:0:0:0:
256,192,15711,1,0,0:0:0:0:
256,192,15873,1,8,0:0:0:0:
256,192,16035,1,0,0:0:0:0:
256,192,16197,1,4,0:0:0:0:
256,192,16359,1,0,0:0:0:0:
256,192,16521,1,8,0:0:0:0:
256,192,16683,1,0,0:0:0:0:
256,192,16845,1,0,0:0:0:0:
256,192,17007,1,0,0:0:0:0:
256,192,17169,1,8,0:0:0:0:
256,192,17331,1,0,0:0:0:0:
256,192,17493,1,0,0:0:0:0:
256,192,17655,1,0,0:0:0:0:
256,192,17817,1,8,0:0:0:0:
256,192,17979,1,0,0:0:0:0:
256,192,18141,1,0,0:0:0:0:
256,192,18303,1,8,0:0:0:0:
256,192,18465,1,8,0:0:0:0:
256,192,18627,1,8,0:0:0:0:
288,128,18789,1,0,0:0:0:0:
256,192,18870,1,0,0:0:0:0:
256,192,18951,1,0,0:0:0:0:
256,192,19032,1,0,0:0:0:0:
256,192,19113,1,8,0:0:0:0:
256,192,19194,1,8,0:0:0:0:
256,192,19275,1,0,0:0:0:0:
256,192,19356,1,0,0:0:0:0:
256,192,19437,1,8,0:0:0:0:
256,192,19478,1,8,0:0:0:0:
256,192,19518,1,8,0:0:0:0:
256,192,19559,1,8,0:0:0:0:
256,192,19599,1,0,0:0:0:0:
256,192,19680,1,0,0:0:0:0:
256,192,19761,1,8,0:0:0:0:
256,192,19843,1,8,0:0:0:0:
256,192,19924,1,0,0:0:0:0:
256,192,20005,1,0,0:0:0:0:
256,192,20086,1,0,0:0:0:0:
256,192,20106,12,0,21221,0:0:0:0:
256,192,21401,5,4,0:0:0:0:
256,192,21725,1,8,0:0:0:0:
256,192,21887,1,0,0:0:0:0:
256,192,21968,1,0,0:0:0:0:
256,192,22049,1,8,0:0:0:0:
256,192,22130,1,8,0:0:0:0:
256,192,22211,1,0,0:0:0:0:
256,192,22373,1,8,0:0:0:0:
288,192,22455,1,0,0:0:0:0:
256,192,22536,1,8,0:0:0:0:
256,192,22617,1,8,0:0:0:0:
224,192,22698,1,0,0:0:0:0:
256,192,22860,1,0,0:0:0:0:
256,192,23022,1,8,0:0:0:0:
256,192,23184,1,8,0:0:0:0:
256,192,23238,1,8,0:0:0:0:
256,192,23292,1,8,0:0:0:0:
256,192,23346,1,0,0:0:0:0:
256,192,23509,1,0,0:0:0:0:
256,192,23671,1,12,0:0:0:0:
256,192,23995,1,0,0:0:0:0:
256,192,24157,1,0,0:0:0:0:
256,192,24319,1,8,0:0:0:0:
256,192,24481,1,8,0:0:0:0:
256,192,24562,1,8,0:0:0:0:
256,192,24643,1,0,0:0:0:0:
256,192,24805,1,0,0:0:0:0:
256,192,24967,1,8,0:0:0:0:
256,192,25049,1,8,0:0:0:0:
256,192,25130,1,0,0:0:0:0:
256,192,25184,1,0,0:0:0:0:
256,192,25238,1,0,0:0:0:0:
256,192,25292,1,8,0:0:0:0:
256,192,25454,1,0,0:0:0:0:
256,192,25535,1,0,0:0:0:0:
256,192,25616,1,8,0:0:0:0:
256,192,25697,1,0,0:0:0:0:
256,192,25778,1,8,0:0:0:0:
256,192,25832,1,8,0:0:0:0:
256,192,25886,1,8,0:0:0:0:
256,192,25940,1,0,0:0:0:0:
256,192,26103,1,4,0:0:0:0:
256,192,26265,1,12,0:0:0:0:
256,192,26589,1,4,0:0:0:0:
256,192,26751,1,0,0:0:0:0:
256,192,26913,1,8,0:0:0:0:
256,192,26994,1,8,0:0:0:0:
256,192,27075,1,0,0:0:0:0:
256,192,27156,1,0,0:0:0:0:
256,192,27237,1,8,0:0:0:0:
256,192,27399,1,0,0:0:0:0:
256,192,27480,1,0,0:0:0:0:
256,192,27561,1,8,0:0:0:0:
256,192,27616,1,8,0:0:0:0:
256,192,27670,1,8,0:0:0:0:
256,192,27724,1,0,0:0:0:0:
256,192,27886,1,8,0:0:0:0:
256,192,28048,1,0,0:0:0:0:
256,192,28210,1,8,0:0:0:0:
256,192,28291,1,8,0:0:0:0:
256,192,28372,1,0,0:0:0:0:
256,192,28453,1,8,0:0:0:0:
256,192,28534,1,0,0:0:0:0:
256,192,28616,1,0,0:0:0:0:
256,192,28697,1,0,0:0:0:0:
256,192,28859,1,12,0:0:0:0:
256,192,29183,1,4,0:0:0:0:
256,192,29345,1,0,0:0:0:0:
256,192,29507,1,0,0:0:0:0:
256,192,29588,1,8,0:0:0:0:
256,192,29669,1,8,0:0:0:0:
256,192,29750,1,8,0:0:0:0:
256,192,29831,1,0,0:0:0:0:
256,192,29993,1,0,0:0:0:0:
256,192,30047,1,0,0:0:0:0:
256,192,30101,1,0,0:0:0:0:
256,192,30155,1,8,0:0:0:0:
256,192,30237,1,8,0:0:0:0:
256,192,30318,1,0,0:0:0:0:
256,192,30399,1,0,0:0:0:0:
256,192,30480,1,12,0:0:0:0:
256,192,30804,1,12,0:0:0:0:
256,192,31128,1,12,0:0:0:0:
256,192,31290,1,12,0:0:0:0:
256,192,31452,1,12,0:0:0:0:
256,192,31614,1,12,0:0:0:0:
256,192,31777,1,4,0:0:0:0:
256,192,32100,1,8,0:0:0:0:
256,192,32262,1,0,0:0:0:0:
256,192,32316,1,0,0:0:0:0:
256,192,32370,1,0,0:0:0:0:
256,192,32424,1,8,0:0:0:0:
256,192,32505,1,8,0:0:0:0:
256,192,32586,1,0,0:0:0:0:
256,192,32748,1,8,0:0:0:0:
256,192,32830,1,8,0:0:0:0:
256,192,32911,1,8,0:0:0:0:
256,192,32992,1,8,0:0:0:0:
256,192,33073,1,0,0:0:0:0:
256,192,33235,1,0,0:0:0:0:
256,192,33316,1,0,0:0:0:0:
256,192,33397,1,8,0:0:0:0:
256,192,33559,1,8,0:0:0:0:
256,192,33640,1,8,0:0:0:0:
256,192,33721,1,0,0:0:0:0:
256,192,33884,1,0,0:0:0:0:
256,192,34046,1,12,0:0:0:0:
256,192,34370,1,0,0:0:0:0:
256,192,34532,1,0,0:0:0:0:
256,192,34613,1,0,0:0:0:0:
256,192,34694,1,8,0:0:0:0:
256,192,34856,1,8,0:0:0:0:
256,192,34937,1,8,0:0:0:0:
256,192,35018,1,0,0:0:0:0:
256,192,35072,1,0,0:0:0:0:
256,192,35126,1,0,0:0:0:0:
256,192,35180,1,8,0:0:0:0:
256,192,35261,1,8,0:0:0:0:
256,192,35342,1,0,0:0:0:0:
256,192,35424,1,8,0:0:0:0:
256,192,35505,1,0,0:0:0:0:
256,192,35586,1,0,0:0:0:0:
256,192,35667,1,8,0:0:0:0:
256,192,35829,1,8,0:0:0:0:
256,192,35910,1,8,0:0:0:0:
256,192,35991,1,0,0:0:0:0:
256,192,36072,1,0,0:0:0:0:
256,192,36153,1,8,0:0:0:0:
256,192,36234,1,0,0:0:0:0:
256,192,36315,1,0,0:0:0:0:
256,192,36478,1,4,0:0:0:0:
256,192,36640,1,12,0:0:0:0:
256,192,36964,1,4,0:0:0:0:
256,192,37126,1,8,0:0:0:0:
256,192,37180,1,8,0:0:0:0:
256,192,37234,1,8,0:0:0:0:
256,192,37288,1,0,0:0:0:0:
256,192,37369,1,0,0:0:0:0:
256,192,37450,1,8,0:0:0:0:
256,192,37531,1,8,0:0:0:0:
256,192,37612,1,0,0:0:0:0:
256,192,37693,1,0,0:0:0:0:
256,192,37774,1,8,0:0:0:0:
256,192,37855,1,0,0:0:0:0:
256,192,37936,1,8,0:0:0:0:
256,192,38018,1,8,0:0:0:0:
256,192,38099,1,0,0:0:0:0:
256,192,38180,1,8,0:0:0:0:
256,192,38261,1,0,0:0:0:0:
224,192,38423,1,0,0:0:0:0:
224,192,38504,1,0,0:0:0:0:
256,192,38585,1,8,0:0:0:0:
256,192,38666,1,8,0:0:0:0:
256,192,38747,1,8,0:0:0:0:
256,192,38909,1,0,0:0:0:0:
256,192,38991,1,0,0:0:0:0:
256,192,39072,1,0,0:0:0:0:
256,192,39234,1,12,0:0:0:0:
256,192,39558,1,4,0:0:0:0:
256,192,39720,1,0,0:0:0:0:
256,192,39774,1,0,0:0:0:0:
256,192,39828,1,0,0:0:0:0:
256,192,39882,1,8,0:0:0:0:
256,192,40044,1,8,0:0:0:0:
256,192,40098,1,8,0:0:0:0:
256,192,40152,1,8,0:0:0:0:
256,192,40206,1,0,0:0:0:0:
256,192,40368,1,0,0:0:0:0:
256,192,40450,1,0,0:0:0:0:
256,192,40531,1,8,0:0:0:0:
256,192,40612,1,8,0:0:0:0:
256,192,40693,1,0,0:0:0:0:
256,192,40855,1,12,0:0:0:0:
256,192,41179,1,12,0:0:0:0:
256,192,41503,1,4,0:0:0:0:
256,192,41828,1,4,0:0:0:0:
256,192,42158,1,4,0:0:0:0:
256,192,42320,1,0,0:0:0:0:
256,192,42482,1,8,0:0:0:0:
256,192,42644,1,0,0:0:0:0:
256,192,42806,1,8,0:0:0:0:
256,192,42968,1,8,0:0:0:0:
256,192,43130,1,0,0:0:0:0:
256,192,43292,1,8,0:0:0:0:
256,192,43454,1,8,0:0:0:0:
256,192,43616,1,8,0:0:0:0:
256,192,43778,1,8,0:0:0:0:
256,192,43940,1,8,0:0:0:0:
256,192,44102,1,0,0:0:0:0:
256,192,44264,1,0,0:0:0:0:
256,192,44426,1,8,0:0:0:0:
256,192,44588,1,0,0:0:0:0:
256,192,44750,1,8,0:0:0:0:
256,192,44912,1,8,0:0:0:0:
256,192,45074,1,8,0:0:0:0:
256,192,45155,1,8,0:0:0:0:
256,192,45236,1,0,0:0:0:0:
256,192,45398,1,0,0:0:0:0:
256,192,45560,1,8,0:0:0:0:
256,192,45722,1,0,0:0:0:0:
256,192,45884,1,8,0:0:0:0:
256,192,46208,1,0,0:0:0:0:
256,192,46370,1,8,0:0:0:0:
256,192,46532,1,8,0:0:0:0:
256,192,46694,1,0,0:0:0:0:
256,192,46856,1,0,0:0:0:0:
256,192,47018,1,0,0:0:0:0:
256,192,47181,1,0,0:0:0:0:
256,192,47342,1,0,0:0:0:0:
256,192,47504,1,0,0:0:0:0:
256,192,47666,1,8,0:0:0:0:
256,192,47828,1,0,0:0:0:0:
256,192,47990,1,0,0:0:0:0:
256,192,48152,1,8,0:0:0:0:
256,192,48314,1,0,0:0:0:0:
256,192,48476,1,8,0:0:0:0:
256,192,48638,1,8,0:0:0:0:
256,192,48800,1,8,0:0:0:0:
64,256,48962,1,0,0:0:0:0:
256,192,49124,1,8,0:0:0:0:
256,192,49286,1,0,0:0:0:0:
256,192,49448,1,8,0:0:0:0:
256,192,49610,1,8,0:0:0:0:
256,192,49772,1,0,0:0:0:0:
256,192,49941,1,8,0:0:0:0:
256,192,50265,1,0,0:0:0:0:
256,192,50346,1,0,0:0:0:0:
256,192,50427,1,8,0:0:0:0:
256,192,50751,1,0,0:0:0:0:
256,192,50832,1,8,0:0:0:0:
256,192,50913,1,8,0:0:0:0:
256,192,51075,1,8,0:0:0:0:
256,192,51237,1,8,0:0:0:0:
256,192,51399,1,8,0:0:0:0:
256,192,51561,1,8,0:0:0:0:
256,192,51723,1,8,0:0:0:0:
256,192,51885,1,0,0:0:0:0:
256,192,52047,1,0,0:0:0:0:
256,192,52210,1,0,0:0:0:0:
256,192,52371,1,0,0:0:0:0:
256,192,52533,1,0,0:0:0:0:
256,192,52695,1,8,0:0:0:0:
256,192,52857,1,0,0:0:0:0:
256,192,52938,1,0,0:0:0:0:
256,192,53019,1,0,0:0:0:0:
256,192,53100,1,8,0:0:0:0:
256,192,53262,1,8,0:0:0:0:
256,192,53343,1,0,0:0:0:0:
256,192,53424,1,0,0:0:0:0:
256,192,53505,1,8,0:0:0:0:
256,192,53668,1,8,0:0:0:0:
256,192,53749,1,8,0:0:0:0:
256,192,53830,1,0,0:0:0:0:
256,192,53992,1,8,0:0:0:0:
256,224,54073,1,8,0:0:0:0:
256,192,54154,1,0,0:0:0:0:
256,192,54235,1,8,0:0:0:0:
256,192,54397,1,8,0:0:0:0:
256,192,54478,1,0,0:0:0:0:
256,192,54560,1,0,0:0:0:0:
256,192,54641,1,8,0:0:0:0:
256,192,54803,1,0,0:0:0:0:
288,192,54965,1,8,0:0:0:0:
288,192,55046,1,8,0:0:0:0:
288,192,55127,1,0,0:0:0:0:
256,192,55289,1,8,0:0:0:0:
256,192,55451,1,0,0:0:0:0:
256,192,55533,1,0,0:0:0:0:
288,192,55614,1,8,0:0:0:0:
288,192,55695,1,8,0:0:0:0:
256,192,55857,1,8,0:0:0:0:
256,192,55938,1,0,0:0:0:0:
256,192,56019,1,0,0:0:0:0:
256,192,56100,1,8,0:0:0:0:
256,192,56181,1,8,0:0:0:0:
256,192,56262,1,8,0:0:0:0:
256,192,56424,1,0,0:0:0:0:
256,192,56505,1,0,0:0:0:0:
256,192,56587,1,8,0:0:0:0:
256,160,56668,1,0,0:0:0:0:
256,192,56830,1,8,0:0:0:0:
256,192,56911,1,8,0:0:0:0:
256,192,56992,1,0,0:0:0:0:
256,192,57073,1,0,0:0:0:0:
256,192,57235,1,0,0:0:0:0:
256,192,57316,1,0,0:0:0:0:
256,192,57397,1,8,0:0:0:0:
256,192,57478,1,8,0:0:0:0:
256,192,57560,1,8,0:0:0:0:
256,192,57722,1,4,0:0:0:0:
256,192,57884,1,8,0:0:0:0:
256,192,58046,1,0,0:0:0:0:
256,192,58208,1,8,0:0:0:0:
256,192,58289,1,0,0:0:0:0:
256,192,58451,1,8,0:0:0:0:
256,192,58532,1,8,0:0:0:0:
256,192,58695,1,0,0:0:0:0:
256,192,58857,1,8,0:0:0:0:
256,192,58938,1,8,0:0:0:0:
64,256,59019,1,0,0:0:0:0:
256,192,59181,1,8,0:0:0:0:
256,192,59262,1,8,0:0:0:0:
256,192,59424,1,0,0:0:0:0:
256,192,59505,1,8,0:0:0:0:
256,192,59668,1,8,0:0:0:0:
256,192,59749,1,8,0:0:0:0:
256,192,59911,1,8,0:0:0:0:
256,192,59992,1,0,0:0:0:0:
256,192,60154,1,8,0:0:0:0:
256,192,60235,1,8,0:0:0:0:
256,192,60316,1,0,0:0:0:0:
256,192,60397,1,0,0:0:0:0:
256,192,60478,1,0,0:0:0:0:
256,192,60560,1,0,0:0:0:0:
256,192,60641,1,0,0:0:0:0:
256,192,60722,1,0,0:0:0:0:
256,192,60803,1,0,0:0:0:0:
256,192,60884,1,0,0:0:0:0:
256,192,60965,1,8,0:0:0:0:
256,192,61005,1,8,0:0:0:0:
256,192,61046,1,8,0:0:0:0:
256,192,61087,1,8,0:0:0:0:
256,192,61127,1,0,0:0:0:0:
256,192,61208,1,0,0:0:0:0:
256,192,61289,1,0,0:0:0:0:
256,192,61370,1,0,0:0:0:0:
256,192,61451,1,0,0:0:0:0:
256,192,61532,1,0,0:0:0:0:
256,192,61614,1,8,0:0:0:0:
256,192,61776,1,8,0:0:0:0:
288,192,61938,1,0,0:0:0:0:
256,192,62019,1,8,0:0:0:0:
256,192,62100,1,8,0:0:0:0:
256,192,62181,1,0,0:0:0:0:
256,192,62262,1,8,0:0:0:0:
256,192,62424,1,8,0:0:0:0:
256,192,62587,1,4,0:0:0:0:
256,192,62911,1,4,0:0:0:0:
256,192,63073,1,0,0:0:0:0:
256,192,63235,1,8,0:0:0:0:
256,192,63316,1,0,0:0:0:0:
256,192,63397,1,8,0:0:0:0:
256,192,63478,1,8,0:0:0:0:
256,192,63560,1,0,0:0:0:0:
256,192,63641,1,0,0:0:0:0:
256,192,63722,1,0,0:0:0:0:
256,192,63803,1,0,0:0:0:0:
256,192,63884,1,8,0:0:0:0:
256,192,64046,1,0,0:0:0:0:
256,192,64127,1,0,0:0:0:0:
256,192,64208,1,8,0:0:0:0:
256,192,64289,1,0,0:0:0:0:
256,192,64370,1,8,0:0:0:0:
256,192,64451,1,0,0:0:0:0:
256,192,64532,1,8,0:0:0:0:
256,192,64614,1,8,0:0:0:0:
256,192,64695,1,8,0:0:0:0:
256,192,64776,1,8,0:0:0:0:
256,192,64857,1,0,0:0:0:0:
256,192,65181,1,12,0:0:0:0:
256,192,65505,1,4,0:0:0:0:
256,192,65667,1,0,0:0:0:0:
256,192,65748,1,0,0:0:0:0:
256,192,65829,1,8,0:0:0:0:
256,192,65991,1,0,0:0:0:0:
256,192,66153,1,8,0:0:0:0:
256,192,66207,1,8,0:0:0:0:
256,192,66261,1,8,0:0:0:0:
256,192,66315,1,0,0:0:0:0:
256,192,66369,1,0,0:0:0:0:
256,192,66423,1,0,0:0:0:0:
256,192,66477,1,8,0:0:0:0:
256,192,66640,1,0,0:0:0:0:
256,224,66721,1,0,0:0:0:0:
256,192,66802,1,8,0:0:0:0:
256,192,66883,1,8,0:0:0:0:
256,192,66964,1,0,0:0:0:0:
256,192,67045,1,8,0:0:0:0:
256,192,67126,1,0,0:0:0:0:
256,192,67207,1,0,0:0:0:0:
256,192,67288,1,8,0:0:0:0:
256,192,67450,1,8,0:0:0:0:
256,192,67532,1,8,0:0:0:0:
256,192,67613,1,0,0:0:0:0:
256,192,67775,1,8,0:0:0:0:
256,192,68099,1,4,0:0:0:0:
256,192,68261,1,0,0:0:0:0:
256,192,68342,1,0,0:0:0:0:
288,192,68423,1,8,0:0:0:0:
256,192,68586,1,0,0:0:0:0:
256,192,68748,1,8,0:0:0:0:
256,192,68829,1,8,0:0:0:0:
256,192,68910,1,0,0:0:0:0:
256,192,68991,1,0,0:0:0:0:
256,192,69072,1,8,0:0:0:0:
224,192,69234,1,0,0:0:0:0:
256,192,69315,1,8,0:0:0:0:
256,192,69396,1,0,0:0:0:0:
256,192,69477,1,0,0:0:0:0:
256,192,69559,1,8,0:0:0:0:
256,192,69640,1,0,0:0:0:0:
256,192,69721,1,8,0:0:0:0:
256,192,69802,1,8,0:0:0:0:
256,192,69883,1,8,0:0:0:0:
256,192,69964,1,8,0:0:0:0:
256,192,70045,1,0,0:0:0:0:
256,192,70369,1,12,0:0:0:0:
256,192,70693,1,4,0:0:0:0:
288,224,70855,1,0,0:0:0:0:
288,224,70936,1,0,0:0:0:0:
256,192,71017,1,8,0:0:0:0:
288,192,71098,1,0,0:0:0:0:
256,192,71179,1,8,0:0:0:0:
256,192,71260,1,0,0:0:0:0:
256,192,71341,1,8,0:0:0:0:
256,192,71422,1,8,0:0:0:0:
288,192,71503,1,0,0:0:0:0:
256,192,71584,1,0,0:0:0:0:
256,192,71665,1,8,0:0:0:0:
256,192,71747,1,8,0:0:0:0:
256,192,71828,1,0,0:0:0:0:
256,192,71909,1,8,0:0:0:0:
256,192,71990,1,0,0:0:0:0:
256,160,72071,1,0,0:0:0:0:
256,160,72152,1,8,0:0:0:0:
256,192,72314,1,0,0:0:0:0:
256,192,72638,1,12,0:0:0:0:
256,192,72800,1,12,0:0:0:0:
256,192,72962,1,12,0:0:0:0:
256,192,73124,1,12,0:0:0:0:
192,128,73291,1,4,0:0:0:0:
256,192,73453,1,0,0:0:0:0:
256,192,73615,1,8,0:0:0:0:
256,192,73696,1,8,0:0:0:0:
256,192,73777,1,0,0:0:0:0:
256,192,73858,1,0,0:0:0:0:
256,192,73939,1,8,0:0:0:0:
288,192,74101,1,0,0:0:0:0:
256,192,74182,1,0,0:0:0:0:
256,192,74263,1,8,0:0:0:0:
288,192,74345,1,0,0:0:0:0:
256,192,74426,1,8,0:0:0:0:
256,192,74480,1,8,0:0:0:0:
256,192,74534,1,8,0:0:0:0:
256,192,74588,1,0,0:0:0:0:
256,192,74669,1,0,0:0:0:0:
256,192,74750,1,8,0:0:0:0:
256,192,74831,1,0,0:0:0:0:
256,192,74912,1,8,0:0:0:0:
256,192,74993,1,8,0:0:0:0:
256,192,75074,1,8,0:0:0:0:
256,192,75155,1,8,0:0:0:0:
256,192,75236,1,0,0:0:0:0:
256,192,75561,1,12,0:0:0:0:
256,192,75885,1,4,0:0:0:0:
256,192,76047,1,0,0:0:0:0:
256,192,76209,1,8,0:0:0:0:
256,192,76290,1,0,0:0:0:0:
256,192,76371,1,8,0:0:0:0:
256,192,76452,1,8,0:0:0:0:
256,192,76533,1,0,0:0:0:0:
256,192,76587,1,0,0:0:0:0:
256,192,76641,1,0,0:0:0:0:
256,192,76695,1,8,0:0:0:0:
256,192,76776,1,0,0:0:0:0:
256,192,76857,1,8,0:0:0:0:
256,192,76939,1,8,0:0:0:0:
256,192,77020,1,8,0:0:0:0:
256,192,77101,1,0,0:0:0:0:
256,192,77182,1,8,0:0:0:0:
256,192,77263,1,8,0:0:0:0:
256,192,77344,1,0,0:0:0:0:
256,192,77425,1,0,0:0:0:0:
256,192,77506,1,8,0:0:0:0:
256,192,77587,1,0,0:0:0:0:
256,192,77668,1,8,0:0:0:0:
256,192,77749,1,8,0:0:0:0:
256,192,77830,1,0,0:0:0:0:
256,192,77993,1,12,0:0:0:0:
256,192,78155,1,8,0:0:0:0:
256,192,78479,1,4,0:0:0:0:
256,192,78641,1,0,0:0:0:0:
256,192,78695,1,0,0:0:0:0:
256,192,78749,1,0,0:0:0:0:
256,192,78803,1,8,0:0:0:0:
256,192,78885,1,8,0:0:0:0:
256,192,78966,1,0,0:0:0:0:
256,192,79047,1,0,0:0:0:0:
256,192,79128,1,8,0:0:0:0:
256,192,79290,1,0,0:0:0:0:
256,192,79371,1,0,0:0:0:0:
256,192,79452,1,8,0:0:0:0:
256,192,79533,1,8,0:0:0:0:
256,192,79614,1,8,0:0:0:0:
256,192,79695,1,0,0:0:0:0:
256,192,79776,1,8,0:0:0:0:
256,192,79939,1,0,0:0:0:0:
256,192,80020,1,0,0:0:0:0:
256,192,80101,1,8,0:0:0:0:
256,192,80263,1,8,0:0:0:0:
256,192,80425,1,0,0:0:0:0:
32,32,80749,2,4,L|384:192,3,375
256,192,81074,1,4,0:0:0:0:
256,192,81236,1,0,0:0:0:0:
256,192,81398,1,8,0:0:0:0:
256,192,81479,1,8,0:0:0:0:
256,192,81560,1,8,0:0:0:0:
256,192,81641,1,8,0:0:0:0:
256,192,81722,1,8,0:0:0:0:
256,192,81885,1,8,0:0:0:0:
256,192,82047,1,0,0:0:0:0:
256,192,82209,1,0,0:0:0:0:
256,192,82371,1,8,0:0:0:0:
256,192,82533,1,8,0:0:0:0:
256,192,82695,1,0,0:0:0:0:
256,192,83020,1,8,0:0:0:0:
256,192,83101,1,0,0:0:0:0:
256,192,83182,1,8,0:0:0:0:
256,192,83263,1,0,0:0:0:0:
256,192,83344,1,8,0:0:0:0:
256,192,83425,1,0,0:0:0:0:
256,192,83506,1,8,0:0:0:0:
256,192,83587,1,0,0:0:0:0:
256,192,83668,1,8,0:0:0:0:
256,192,83749,1,8,0:0:0:0:
288,192,83830,1,0,0:0:0:0:
256,192,83912,1,0,0:0:0:0:
256,192,83993,1,8,0:0:0:0:
256,192,84155,1,0,0:0:0:0:
256,192,84317,1,8,0:0:0:0:
256,192,84398,1,0,0:0:0:0:
256,192,84479,1,0,0:0:0:0:
256,192,84560,1,0,0:0:0:0:
256,192,84641,1,8,0:0:0:0:
256,192,84722,1,8,0:0:0:0:
256,192,84803,1,0,0:0:0:0:
256,192,84884,1,0,0:0:0:0:
256,192,84966,1,8,0:0:0:0:
256,192,85182,1,8,0:0:0:0:
256,192,85236,1,8,0:0:0:0:
256,192,85290,1,8,0:0:0:0:
224,160,85344,1,0,0:0:0:0:
256,192,85398,1,0,0:0:0:0:
256,192,85452,1,8,0:0:0:0:
256,192,85506,1,8,0:0:0:0:
256,192,85560,1,8,0:0:0:0:
256,192,85614,1,0,0:0:0:0:
256,192,85695,1,0,0:0:0:0:
256,192,85776,1,8,0:0:0:0:
256,192,85939,1,4,0:0:0:0:
256,192,86263,1,4,0:0:0:0:
256,192,86425,1,0,0:0:0:0:
256,192,86506,1,0,0:0:0:0:
256,224,86587,1,8,0:0:0:0:
256,192,86668,1,0,0:0:0:0:
256,192,86749,1,0,0:0:0:0:
256,192,86803,1,0,0:0:0:0:
256,192,86857,1,0,0:0:0:0:
256,192,86912,1,8,0:0:0:0:
256,192,87074,1,8,0:0:0:0:
256,192,87236,1,8,0:0:0:0:
256,192,87290,1,8,0:0:0:0:
256,192,87344,1,0,0:0:0:0:
256,192,87398,1,0,0:0:0:0:
256,192,87452,1,0,0:0:0:0:
256,192,87506,1,0,0:0:0:0:
256,192,87560,1,8,0:0:0:0:
256,192,87601,1,8,0:0:0:0:
256,160,87722,1,8,0:0:0:0:
256,128,87763,1,8,0:0:0:0:
256,192,87844,1,0,0:0:0:0:
256,192,87884,1,0,0:0:0:0:
256,192,87966,1,8,0:0:0:0:
256,192,88006,1,8,0:0:0:0:
256,192,88087,1,8,0:0:0:0:
256,192,88128,1,8,0:0:0:0:
256,160,88209,1,0,0:0:0:0:
256,128,88290,1,0,0:0:0:0:
256,192,88371,1,8,0:0:0:0:
256,192,88452,1,8,0:0:0:0:
256,192,88533,1,0,0:0:0:0:
256,192,88695,1,0,0:0:0:0:
256,192,88857,1,8,0:0:0:0:
256,160,89020,1,0,0:0:0:0:
256,160,89101,1,0,0:0:0:0:
256,192,89182,1,8,0:0:0:0:
256,192,89263,1,0,0:0:0:0:
256,192,89344,1,8,0:0:0:0:
256,192,89425,1,8,0:0:0:0:
256,192,89506,1,0,0:0:0:0:
256,192,89587,1,0,0:0:0:0:
256,192,89668,1,8,0:0:0:0:
256,192,89749,1,0,0:0:0:0:
256,192,89830,1,8,0:0:0:0:
256,192,89912,1,0,0:0:0:0:
256,192,89993,1,8,0:0:0:0:
256,192,90074,1,8,0:0:0:0:
256,192,90155,1,0,0:0:0:0:
256,192,90236,1,8,0:0:0:0:
256,192,90317,1,0,0:0:0:0:
256,192,90398,1,8,0:0:0:0:
256,192,90479,1,0,0:0:0:0:
256,192,90560,1,8,0:0:0:0:
256,192,90641,1,0,0:0:0:0:
256,192,90722,1,8,0:0:0:0:
256,192,90803,1,0,0:0:0:0:
256,192,90884,1,0,0:0:0:0:
256,192,90966,1,8,0:0:0:0:
256,192,91128,1,0,0:0:0:0:
256,192,91290,1,0,0:0:0:0:
256,192,91330,1,0,0:0:0:0:
256,192,91371,1,0,0:0:0:0:
256,192,91412,1,0,0:0:0:0:
256,192,91452,1,8,0:0:0:0:
256,192,91533,1,8,0:0:0:0:
256,192,91614,1,8,0:0:0:0:
256,192,91695,1,0,0:0:0:0:
256,192,91776,1,8,0:0:0:0:
256,192,91857,1,0,0:0:0:0:
256,192,91939,1,8,0:0:0:0:
256,192,92020,1,0,0:0:0:0:
256,192,92101,1,8,0:0:0:0:
256,192,92182,1,8,0:0:0:0:
256,192,92263,1,0,0:0:0:0:
256,192,92344,1,0,0:0:0:0:
256,192,92425,1,8,0:0:0:0:
256,192,92479,1,8,0:0:0:0:
256,192,92533,1,8,0:0:0:0:
256,192,92587,1,0,0:0:0:0:
256,192,92668,1,0,0:0:0:0:
256,192,92749,1,8,0:0:0:0:
256,192,92803,1,0,0:0:0:0:
256,192,92857,1,0,0:0:0:0:
256,192,92912,1,8,0:0:0:0:
256,192,92966,1,0,0:0:0:0:
256,192,93020,1,0,0:0:0:0:
256,192,93074,1,8,0:0:0:0:
256,192,93128,1,8,0:0:0:0:
256,192,93182,1,8,0:0:0:0:
256,192,93236,1,0,0:0:0:0:
256,192,93290,1,0,0:0:0:0:
256,192,93344,1,0,0:0:0:0:
384,256,93398,1,8,0:0:0:0:
384,256,93479,1,8,0:0:0:0:
384,256,93560,1,8,0:0:0:0:
384,256,93641,1,8,0:0:0:0:
256,192,93722,1,0,0:0:0:0:
