osu file format v14

[General]
AudioFilename: audio.mp3
AudioLeadIn: 0
PreviewTime: 61635
Countdown: 0
SampleSet: Normal
StackLeniency: 0.7
Mode: 1
LetterboxInBreaks: 0
WidescreenStoryboard: 1

[Editor]
Bookmarks: 1273,5489,11003,16192,21381,31760,42138,52516,61780,62590,70516,86084
DistanceSpacing: 0.6
BeatDivisor: 16
GridSize: 32
TimelineZoom: 4.699998

[Metadata]
Title:TSLove
TitleUnicode:TSLove
Artist:O2i3
ArtistUnicode:O2i3
Creator:[_Chichinya_]
Version:DarSLove
Source:
Tags:Melanie Friggy-chan kqrth DDM Hi_Hello 404 AccNotFound FlamingRok Dargin Cyoris210 BlackWolf159 Yuno Taikocracy Prancer agu gamerock Nifty Lno Nepuri Raphalge frukoyurdakul Cyssel Unmei Muma Q____X Vulkin JessiChan iContol Chocola_2287 AezLack _yu68 zigizigiefe Grimbow
BeatmapID:1277504
BeatmapSetID:549370

[Difficulty]
HPDrainRate:6
CircleSize:2
OverallDifficulty:4
ApproachRate:10
SliderMultiplier:1.4042328936501
SliderTickRate:1

[Events]
//Background and Video events
0,0,"BIGGIEBG.jpg",0,0
//Break Periods
//Storyboard Layer 0 (Background)
//Storyboard Layer 1 (Fail)
//Storyboard Layer 2 (Pass)
//Storyboard Layer 3 (Foreground)
//Storyboard Sound Samples

[TimingPoints]
663,324.324324324324,4,1,0,90,1,0
21419,-100,4,1,0,15,0,1
23690,-25,4,1,0,100,0,0
24014,-100,4,1,0,15,0,1
26122,-25,4,1,0,100,0,0
26284,-25,4,1,0,100,0,0
26608,-100,4,1,0,15,0,1
28879,-25,4,1,0,100,0,0
29203,-100,4,1,0,15,0,1
30500,-25,4,1,0,15,0,1
30825,-25,4,1,0,15,0,1
31149,-25,4,1,0,100,0,0
31311,-25,4,1,0,100,0,0
31473,-25,4,1,0,100,0,0
31635,-25,4,1,0,100,0,0
31798,-100,4,1,0,15,0,1
34068,-25,4,1,0,100,0,0
34392,-100,4,1,0,15,0,1
36500,-25,4,1,0,15,0,1
36662,-25,4,1,0,100,0,0
36987,-100,4,1,0,15,0,1
39257,-133.333333333333,4,1,0,100,0,0
39581,-100,4,1,0,15,0,1
41527,-25,4,1,0,100,0,1
42176,-100,4,1,0,90,0,0
43473,-111.111111111111,4,1,0,90,0,0
44771,-125,4,1,0,90,0,0
46068,-133.333333333333,4,1,0,90,0,0
47365,-142.857142857143,4,1,0,90,0,0
48662,-153.846153846154,4,1,0,90,0,0
49960,-172.413793103448,4,1,0,90,0,0
51257,-200,4,1,0,90,0,0
52554,-100,4,1,0,90,0,0
62933,-100,4,1,0,15,0,1
65203,-25,4,1,0,100,0,0
65527,-100,4,1,0,15,0,1
67635,-25,4,1,0,15,0,1
67798,-25,4,1,0,100,0,0
68122,-100,4,1,0,15,0,1
70392,-25,4,1,0,100,0,0
70717,-100,4,1,0,15,0,1
72014,-25,4,1,0,15,0,1
72662,-25,4,1,0,100,0,0
73311,-100,4,1,0,15,0,1
75581,-25,4,1,0,100,0,0
75906,-100,4,1,0,15,0,1
78014,-25,4,1,0,15,0,1
78176,-25,4,1,0,100,0,0
78500,-100,4,1,0,15,0,1
80771,-25,4,1,0,100,0,0
81095,-100,4,1,0,15,0,0
82392,-25,4,1,0,15,0,0
83041,-100,4,1,0,15,0,0
83690,-117.647058823529,4,1,0,5,0,1
85960,-25,4,1,0,50,0,0
86284,-117.647058823529,4,1,0,5,0,1
88554,-25,4,1,0,50,0,0
88879,-117.647058823529,4,1,0,5,0,1
91149,-25,4,1,0,50,0,0
91473,-111.111111111111,4,1,0,5,0,0
93744,-25,4,1,0,100,0,0

[HitObjects]
256,192,645,5,8,0:0:0:0:
256,192,807,1,8,0:0:0:0:
256,192,969,1,8,0:0:0:0:
256,192,1131,1,8,0:0:0:0:
256,192,1293,1,8,0:0:0:0:
256,192,1455,1,8,0:0:0:0:
256,192,1617,1,8,0:0:0:0:
256,192,1780,1,0,0:0:0:0:
256,192,1942,1,0,0:0:0:0:
256,192,2104,1,0,0:0:0:0:
256,192,2266,1,0,0:0:0:0:
256,192,2428,1,0,0:0:0:0:
256,192,2590,1,0,0:0:0:0:
256,192,2753,1,0,0:0:0:0:
256,192,2915,1,0,0:0:0:0:
256,192,3077,1,0,0:0:0:0:
256,192,3239,1,8,0:0:0:0:
256,192,3401,1,8,0:0:0:0:
256,192,3563,1,8,0:0:0:0:
256,192,3726,1,8,0:0:0:0:
256,192,3888,1,8,0:0:0:0:
256,192,4050,1,8,0:0:0:0:
256,192,4212,1,8,0:0:0:0:
256,192,4374,1,0,0:0:0:0:
256,192,4536,1,0,0:0:0:0:
256,192,4699,1,0,0:0:0:0:
256,192,4861,1,0,0:0:0:0:
256,192,5023,1,0,0:0:0:0:
256,192,5185,1,8,0:0:0:0:
256,192,5347,1,8,0:0:0:0:
256,192,5509,1,0,0:0:0:0:
256,192,5672,1,0,0:0:0:0:
256,192,5834,1,8,0:0:0:0:
256,192,5996,1,8,0:0:0:0:
256,192,6158,1,8,0:0:0:0:
256,192,6320,1,8,0:0:0:0:
256,192,6482,1,8,0:0:0:0:
256,192,6644,1,8,0:0:0:0:
256,192,6806,1,8,0:0:0:0:
256,192,6969,1,0,0:0:0:0:
256,192,7131,1,0,0:0:0:0:
256,192,7293,1,0,0:0:0:0:
256,192,7455,1,0,0:0:0:0:
256,192,7617,1,0,0:0:0:0:
256,192,7779,1,0,0:0:0:0:
256,192,7942,1,0,0:0:0:0:
256,192,8104,1,0,0:0:0:0:
256,192,8266,1,0,0:0:0:0:
256,192,8428,1,8,0:0:0:0:
256,192,8590,1,8,0:0:0:0:
256,192,8752,1,8,0:0:0:0:
256,192,8915,1,8,0:0:0:0:
256,192,9077,1,8,0:0:0:0:
256,192,9239,1,8,0:0:0:0:
256,192,9401,1,8,0:0:0:0:
256,192,9563,1,0,0:0:0:0:
256,192,9725,1,0,0:0:0:0:
256,192,9888,1,0,0:0:0:0:
256,192,10050,1,0,0:0:0:0:
256,192,10212,1,0,0:0:0:0:
256,192,10374,1,8,0:0:0:0:
256,192,10536,1,8,0:0:0:0:
256,192,10698,1,0,0:0:0:0:
256,192,10861,1,0,0:0:0:0:
256,192,11023,1,12,0:0:0:0:
256,192,11266,1,0,0:0:0:0:
256,192,11347,1,8,0:0:0:0:
256,192,11590,1,8,0:0:0:0:
256,192,11672,1,0,0:0:0:0:
256,192,11834,1,0,0:0:0:0:
256,192,11915,1,0,0:0:0:0:
256,192,11996,1,8,0:0:0:0:
256,192,12158,1,8,0:0:0:0:
256,192,12320,1,0,0:0:0:0:
256,192,12482,1,8,0:0:0:0:
256,192,12563,1,0,0:0:0:0:
256,192,12644,1,8,0:0:0:0:
256,192,12807,1,0,0:0:0:0:
256,192,12969,1,8,0:0:0:0:
256,192,13131,1,0,0:0:0:0:
256,192,13212,1,8,0:0:0:0:
256,192,13293,1,0,0:0:0:0:
256,192,13455,1,8,0:0:0:0:
256,192,13617,1,0,0:0:0:0:
256,192,13780,1,8,0:0:0:0:
256,192,13861,1,0,0:0:0:0:
256,192,13942,1,8,0:0:0:0:
256,192,14104,1,0,0:0:0:0:
256,192,14266,1,8,0:0:0:0:
256,192,14428,1,0,0:0:0:0:
256,192,14509,1,8,0:0:0:0:
256,192,14590,1,0,0:0:0:0:
256,192,14753,1,8,0:0:0:0:
256,192,14915,1,0,0:0:0:0:
256,192,15077,1,8,0:0:0:0:
256,192,15158,1,0,0:0:0:0:
256,192,15239,1,8,0:0:0:0:
256,192,15401,1,0,0:0:0:0:
256,192,15563,1,8,0:0:0:0:
256,192,15726,1,0,0:0:0:0:
256,192,15807,1,8,0:0:0:0:
256,192,15888,1,0,0:0:0:0:
256,192,16050,1,0,0:0:0:0:
256,192,16213,1,0,0:0:0:0:
256,192,16374,1,0,0:0:0:0:
256,192,16536,1,0,0:0:0:0:
256,192,16699,1,0,0:0:0:0:
256,192,16861,1,0,0:0:0:0:
256,192,17023,1,0,0:0:0:0:
256,192,17185,1,0,0:0:0:0:
256,192,17347,1,0,0:0:0:0:
256,192,17509,1,8,0:0:0:0:
256,192,17672,1,8,0:0:0:0:
256,192,17834,1,8,0:0:0:0:
256,192,17996,1,8,0:0:0:0:
256,192,18158,1,8,0:0:0:0:
256,192,18320,1,8,0:0:0:0:
256,192,18482,1,8,0:0:0:0:
256,192,18644,1,8,0:0:0:0:
256,192,18807,1,8,0:0:0:0:
256,192,18888,1,0,0:0:0:0:
256,192,18969,1,0,0:0:0:0:
256,192,19050,1,0,0:0:0:0:
256,192,19131,1,8,0:0:0:0:
256,192,19212,1,0,0:0:0:0:
256,192,19293,1,0,0:0:0:0:
256,192,19374,1,0,0:0:0:0:
256,192,19455,1,8,0:0:0:0:
256,192,19509,1,8,0:0:0:0:
256,192,19563,1,8,0:0:0:0:
256,192,19617,1,0,0:0:0:0:
256,192,19699,1,0,0:0:0:0:
256,192,19780,1,8,0:0:0:0:
256,192,19861,1,0,0:0:0:0:
256,192,19942,1,8,0:0:0:0:
256,192,20023,1,0,0:0:0:0:
256,192,20104,12,8,20753,0:0:0:0:
256,192,20104,12,8,21401,0:0:0:0:
256,192,21401,5,12,0:0:0:0:
256,192,21726,1,8,0:0:0:0:
256,192,21807,1,0,0:0:0:0:
256,192,21888,1,8,0:0:0:0:
256,192,21942,1,8,0:0:0:0:
256,192,21996,1,8,0:0:0:0:
256,192,22050,1,8,0:0:0:0:
256,192,22131,1,0,0:0:0:0:
256,192,22212,1,8,0:0:0:0:
256,192,22293,1,0,0:0:0:0:
256,192,22374,1,8,0:0:0:0:
256,192,22428,1,8,0:0:0:0:
256,192,22482,1,0,0:0:0:0:
256,192,22536,1,8,0:0:0:0:
256,192,22617,1,8,0:0:0:0:
256,192,22699,1,8,0:0:0:0:
256,192,22780,1,0,0:0:0:0:
256,192,22861,1,8,0:0:0:0:
256,192,22915,1,8,0:0:0:0:
256,192,22969,1,8,0:0:0:0:
256,192,23023,1,8,0:0:0:0:
256,192,23104,1,0,0:0:0:0:
256,192,23185,1,8,0:0:0:0:
256,192,23266,1,0,0:0:0:0:
256,192,23347,1,8,0:0:0:0:
256,192,23509,1,0,0:0:0:0:
256,192,23672,1,12,0:0:0:0:
256,192,23996,1,12,0:0:0:0:
256,192,24077,1,0,0:0:0:0:
256,192,24158,1,0,0:0:0:0:
256,192,24239,1,0,0:0:0:0:
256,192,24320,1,8,0:0:0:0:
256,192,24401,1,0,0:0:0:0:
256,192,24482,1,8,0:0:0:0:
256,192,24536,1,8,0:0:0:0:
256,192,24590,1,8,0:0:0:0:
256,192,24644,1,8,0:0:0:0:
256,192,24726,1,0,0:0:0:0:
256,192,24807,1,8,0:0:0:0:
256,192,24861,1,0,0:0:0:0:
256,192,24915,1,0,0:0:0:0:
256,192,24969,1,8,0:0:0:0:
256,192,25050,1,0,0:0:0:0:
256,192,25131,1,8,0:0:0:0:
256,192,25212,1,0,0:0:0:0:
256,192,25293,1,8,0:0:0:0:
256,192,25374,1,0,0:0:0:0:
256,192,25455,1,8,0:0:0:0:
256,192,25509,1,8,0:0:0:0:
256,192,25563,1,8,0:0:0:0:
256,192,25617,1,8,0:0:0:0:
256,192,25699,1,0,0:0:0:0:
256,192,25780,1,8,0:0:0:0:
256,192,25861,1,0,0:0:0:0:
256,192,25942,1,8,0:0:0:0:
256,192,26104,1,12,0:0:0:0:
256,192,26266,1,12,0:0:0:0:
256,192,26590,1,12,0:0:0:0:
256,192,26672,1,0,0:0:0:0:
256,192,26753,1,0,0:0:0:0:
256,192,26834,1,0,0:0:0:0:
256,192,26915,1,8,0:0:0:0:
256,192,26996,1,0,0:0:0:0:
256,192,27077,1,8,0:0:0:0:
256,192,27131,1,8,0:0:0:0:
256,192,27185,1,8,0:0:0:0:
256,192,27239,1,8,0:0:0:0:
256,192,27320,1,0,0:0:0:0:
256,192,27401,1,8,0:0:0:0:
256,192,27482,1,0,0:0:0:0:
256,192,27563,1,8,0:0:0:0:
256,192,27617,1,8,0:0:0:0:
256,192,27671,1,0,0:0:0:0:
256,192,27725,1,8,0:0:0:0:
256,192,27806,1,8,0:0:0:0:
256,192,27888,1,8,0:0:0:0:
256,192,27969,1,0,0:0:0:0:
256,192,28050,1,8,0:0:0:0:
256,192,28104,1,8,0:0:0:0:
256,192,28158,1,8,0:0:0:0:
256,192,28212,1,8,0:0:0:0:
256,192,28293,1,0,0:0:0:0:
256,192,28374,1,8,0:0:0:0:
256,192,28455,1,0,0:0:0:0:
256,192,28536,1,8,0:0:0:0:
256,192,28698,1,0,0:0:0:0:
256,192,28861,1,12,0:0:0:0:
256,192,29185,1,8,0:0:0:0:
256,192,29266,1,0,0:0:0:0:
256,192,29347,1,0,0:0:0:0:
256,192,29428,1,0,0:0:0:0:
256,192,29509,1,8,0:0:0:0:
256,192,29590,1,0,0:0:0:0:
256,192,29672,1,8,0:0:0:0:
256,192,29726,1,0,0:0:0:0:
256,192,29780,1,8,0:0:0:0:
256,192,29834,1,8,0:0:0:0:
256,192,29888,1,8,0:0:0:0:
256,192,29942,1,0,0:0:0:0:
256,192,29996,1,8,0:0:0:0:
256,192,30077,1,0,0:0:0:0:
256,192,30158,1,8,0:0:0:0:
256,192,30239,1,0,0:0:0:0:
256,192,30320,1,0,0:0:0:0:
256,192,30401,1,0,0:0:0:0:
256,192,30482,1,12,0:0:0:0:
256,192,30807,1,12,0:0:0:0:
256,192,31131,1,12,0:0:0:0:
256,192,31293,1,12,0:0:0:0:
256,192,31455,1,12,0:0:0:0:
256,192,31617,1,12,0:0:0:0:
256,192,31780,1,8,0:0:0:0:
256,192,31861,1,0,0:0:0:0:
256,192,31942,1,0,0:0:0:0:
256,192,32023,1,0,0:0:0:0:
256,192,32104,1,8,0:0:0:0:
256,192,32185,1,0,0:0:0:0:
256,192,32266,1,8,0:0:0:0:
256,192,32320,1,8,0:0:0:0:
256,192,32374,1,8,0:0:0:0:
256,192,32428,1,8,0:0:0:0:
256,192,32509,1,0,0:0:0:0:
256,192,32590,1,8,0:0:0:0:
256,192,32671,1,0,0:0:0:0:
256,192,32752,1,8,0:0:0:0:
256,192,32806,1,8,0:0:0:0:
256,192,32860,1,0,0:0:0:0:
256,192,32914,1,8,0:0:0:0:
256,192,32995,1,8,0:0:0:0:
256,192,33077,1,8,0:0:0:0:
256,192,33158,1,0,0:0:0:0:
256,192,33239,1,8,0:0:0:0:
256,192,33293,1,8,0:0:0:0:
256,192,33347,1,8,0:0:0:0:
256,192,33401,1,8,0:0:0:0:
256,192,33482,1,0,0:0:0:0:
256,192,33563,1,8,0:0:0:0:
256,192,33644,1,0,0:0:0:0:
256,192,33725,1,8,0:0:0:0:
256,192,33887,1,0,0:0:0:0:
256,192,34050,1,12,0:0:0:0:
256,192,34374,1,12,0:0:0:0:
256,192,34455,1,0,0:0:0:0:
256,192,34536,1,0,0:0:0:0:
256,192,34617,1,0,0:0:0:0:
256,192,34698,1,8,0:0:0:0:
256,192,34779,1,0,0:0:0:0:
256,192,34860,1,8,0:0:0:0:
256,192,34914,1,8,0:0:0:0:
256,192,34968,1,8,0:0:0:0:
256,192,35022,1,8,0:0:0:0:
256,192,35104,1,0,0:0:0:0:
256,192,35185,1,8,0:0:0:0:
256,192,35239,1,0,0:0:0:0:
256,192,35293,1,0,0:0:0:0:
256,192,35347,1,8,0:0:0:0:
256,192,35428,1,0,0:0:0:0:
256,192,35509,1,8,0:0:0:0:
256,192,35590,1,0,0:0:0:0:
256,192,35671,1,8,0:0:0:0:
256,192,35752,1,0,0:0:0:0:
256,192,35833,1,8,0:0:0:0:
256,192,35887,1,8,0:0:0:0:
256,192,35941,1,8,0:0:0:0:
256,192,35995,1,8,0:0:0:0:
256,192,36077,1,0,0:0:0:0:
256,192,36158,1,8,0:0:0:0:
256,192,36239,1,0,0:0:0:0:
256,192,36320,1,8,0:0:0:0:
256,192,36482,1,12,0:0:0:0:
256,192,36644,1,12,0:0:0:0:
256,192,36968,1,12,0:0:0:0:
256,192,37293,1,8,0:0:0:0:
256,192,37374,1,0,0:0:0:0:
256,192,37455,1,8,0:0:0:0:
256,192,37509,1,8,0:0:0:0:
256,192,37563,1,8,0:0:0:0:
256,192,37617,1,8,0:0:0:0:
256,192,37698,1,0,0:0:0:0:
256,192,37779,1,8,0:0:0:0:
256,192,37860,1,0,0:0:0:0:
256,192,37941,1,8,0:0:0:0:
256,192,37995,1,8,0:0:0:0:
256,192,38049,1,0,0:0:0:0:
256,192,38103,1,8,0:0:0:0:
256,192,38184,1,8,0:0:0:0:
256,192,38266,1,8,0:0:0:0:
256,192,38347,1,0,0:0:0:0:
256,192,38428,1,8,0:0:0:0:
256,192,38482,1,8,0:0:0:0:
256,192,38536,1,8,0:0:0:0:
256,192,38590,1,8,0:0:0:0:
256,192,38671,1,0,0:0:0:0:
256,192,38752,1,8,0:0:0:0:
256,192,38833,1,0,0:0:0:0:
256,192,38914,1,8,0:0:0:0:
256,192,39076,1,0,0:0:0:0:
256,192,39239,1,12,0:0:0:0:
256,192,39563,1,8,0:0:0:0:
256,192,39644,1,0,0:0:0:0:
256,192,39725,1,0,0:0:0:0:
256,192,39806,1,0,0:0:0:0:
256,192,39887,1,8,0:0:0:0:
256,192,39968,1,0,0:0:0:0:
256,192,40050,1,8,0:0:0:0:
256,192,40104,1,0,0:0:0:0:
256,192,40158,1,8,0:0:0:0:
256,192,40212,1,8,0:0:0:0:
256,192,40266,1,8,0:0:0:0:
256,192,40320,1,0,0:0:0:0:
256,192,40374,1,8,0:0:0:0:
256,192,40455,1,0,0:0:0:0:
256,192,40536,1,8,0:0:0:0:
256,192,40617,1,0,0:0:0:0:
256,192,40698,1,0,0:0:0:0:
256,192,40779,1,0,0:0:0:0:
256,192,40860,1,12,0:0:0:0:
256,192,41185,1,12,0:0:0:0:
256,192,41509,1,0,0:0:0:0:
256,192,41834,1,8,0:0:0:0:
256,192,42158,5,8,0:0:0:0:
256,192,42320,1,8,0:0:0:0:
256,192,42482,1,8,0:0:0:0:
256,192,42644,1,8,0:0:0:0:
256,192,42806,1,8,0:0:0:0:
256,192,42968,1,8,0:0:0:0:
256,192,43130,1,8,0:0:0:0:
256,192,43293,1,0,0:0:0:0:
256,192,43455,1,0,0:0:0:0:
256,192,43617,1,0,0:0:0:0:
256,192,43779,1,0,0:0:0:0:
256,192,43941,1,0,0:0:0:0:
256,192,44103,1,0,0:0:0:0:
256,192,44266,1,0,0:0:0:0:
256,192,44428,1,0,0:0:0:0:
256,192,44590,1,0,0:0:0:0:
256,192,44752,1,8,0:0:0:0:
256,192,44914,1,8,0:0:0:0:
256,192,45076,1,8,0:0:0:0:
256,192,45239,1,8,0:0:0:0:
256,192,45401,1,8,0:0:0:0:
256,192,45563,1,8,0:0:0:0:
256,192,45725,1,8,0:0:0:0:
256,192,45887,1,0,0:0:0:0:
256,192,46049,1,0,0:0:0:0:
256,192,46212,1,0,0:0:0:0:
256,192,46374,1,0,0:0:0:0:
256,192,46536,1,0,0:0:0:0:
256,192,46698,1,8,0:0:0:0:
256,192,46860,1,8,0:0:0:0:
256,192,47022,1,0,0:0:0:0:
256,192,47185,1,0,0:0:0:0:
256,192,47347,1,8,0:0:0:0:
256,192,47509,1,8,0:0:0:0:
256,192,47671,1,8,0:0:0:0:
256,192,47833,1,8,0:0:0:0:
256,192,47995,1,8,0:0:0:0:
256,192,48157,1,8,0:0:0:0:
256,192,48319,1,8,0:0:0:0:
256,192,48482,1,0,0:0:0:0:
256,192,48644,1,0,0:0:0:0:
256,192,48806,1,0,0:0:0:0:
256,192,48968,1,0,0:0:0:0:
256,192,49130,1,0,0:0:0:0:
256,192,49292,1,0,0:0:0:0:
256,192,49455,1,0,0:0:0:0:
256,192,49617,1,0,0:0:0:0:
256,192,49779,1,0,0:0:0:0:
256,192,49941,1,8,0:0:0:0:
256,192,50103,1,8,0:0:0:0:
256,192,50265,1,8,0:0:0:0:
256,192,50428,1,8,0:0:0:0:
256,192,50590,1,8,0:0:0:0:
256,192,50752,1,8,0:0:0:0:
256,192,50914,1,8,0:0:0:0:
256,192,51076,1,0,0:0:0:0:
256,192,51238,1,0,0:0:0:0:
256,192,51401,1,0,0:0:0:0:
256,192,51563,1,0,0:0:0:0:
256,192,51725,1,0,0:0:0:0:
256,192,51887,1,8,0:0:0:0:
256,192,52049,1,8,0:0:0:0:
256,192,52211,1,0,0:0:0:0:
256,192,52374,1,0,0:0:0:0:
256,192,52536,1,12,0:0:0:0:
256,192,52779,1,0,0:0:0:0:
256,192,52860,1,8,0:0:0:0:
256,192,53103,1,8,0:0:0:0:
256,192,53185,1,0,0:0:0:0:
256,192,53347,1,0,0:0:0:0:
256,192,53428,1,0,0:0:0:0:
256,192,53509,1,8,0:0:0:0:
256,192,53671,1,8,0:0:0:0:
256,192,53833,1,0,0:0:0:0:
256,192,53995,1,8,0:0:0:0:
256,192,54076,1,0,0:0:0:0:
256,192,54157,1,8,0:0:0:0:
256,192,54320,1,0,0:0:0:0:
256,192,54482,1,8,0:0:0:0:
256,192,54644,1,0,0:0:0:0:
256,192,54725,1,8,0:0:0:0:
256,192,54806,1,0,0:0:0:0:
256,192,54968,1,8,0:0:0:0:
256,192,55130,1,0,0:0:0:0:
256,192,55293,1,8,0:0:0:0:
256,192,55374,1,0,0:0:0:0:
256,192,55455,1,8,0:0:0:0:
256,192,55617,1,0,0:0:0:0:
256,192,55779,1,8,0:0:0:0:
256,192,55941,1,0,0:0:0:0:
256,192,56022,1,8,0:0:0:0:
256,192,56103,1,0,0:0:0:0:
256,192,56266,1,8,0:0:0:0:
256,192,56428,1,0,0:0:0:0:
256,192,56590,1,8,0:0:0:0:
256,192,56671,1,0,0:0:0:0:
256,192,56752,1,8,0:0:0:0:
256,192,56914,1,0,0:0:0:0:
256,192,57076,1,8,0:0:0:0:
256,192,57239,1,0,0:0:0:0:
256,192,57320,1,8,0:0:0:0:
256,192,57401,1,0,0:0:0:0:
256,192,57563,1,0,0:0:0:0:
256,192,57726,1,0,0:0:0:0:
256,192,57887,1,0,0:0:0:0:
256,192,58049,1,0,0:0:0:0:
256,192,58212,1,0,0:0:0:0:
256,192,58374,1,0,0:0:0:0:
256,192,58536,1,0,0:0:0:0:
256,192,58698,1,0,0:0:0:0:
256,192,58860,1,0,0:0:0:0:
256,192,59022,1,8,0:0:0:0:
256,192,59185,1,8,0:0:0:0:
256,192,59347,1,8,0:0:0:0:
256,192,59509,1,8,0:0:0:0:
256,192,59671,1,8,0:0:0:0:
256,192,59833,1,8,0:0:0:0:
256,192,59995,1,8,0:0:0:0:
256,192,60157,1,8,0:0:0:0:
256,192,60320,1,8,0:0:0:0:
256,192,60401,1,0,0:0:0:0:
256,192,60482,1,0,0:0:0:0:
256,192,60563,1,0,0:0:0:0:
256,192,60644,1,8,0:0:0:0:
256,192,60725,1,0,0:0:0:0:
256,192,60806,1,0,0:0:0:0:
256,192,60887,1,0,0:0:0:0:
256,192,60968,1,8,0:0:0:0:
256,192,61022,1,8,0:0:0:0:
256,192,61076,1,8,0:0:0:0:
256,192,61130,1,0,0:0:0:0:
256,192,61212,1,0,0:0:0:0:
256,192,61293,1,8,0:0:0:0:
256,192,61374,1,0,0:0:0:0:
256,192,61455,1,8,0:0:0:0:
256,192,61536,1,0,0:0:0:0:
256,192,61617,12,8,62266,0:0:0:0:
256,192,61617,12,8,62914,0:0:0:0:
256,192,62914,5,12,0:0:0:0:
256,192,63239,1,8,0:0:0:0:
256,192,63320,1,0,0:0:0:0:
256,192,63401,1,8,0:0:0:0:
256,192,63455,1,8,0:0:0:0:
256,192,63509,1,8,0:0:0:0:
256,192,63563,1,8,0:0:0:0:
256,192,63644,1,0,0:0:0:0:
256,192,63725,1,8,0:0:0:0:
256,192,63806,1,0,0:0:0:0:
256,192,63887,1,8,0:0:0:0:
256,192,63941,1,8,0:0:0:0:
256,192,63995,1,0,0:0:0:0:
256,192,64049,1,8,0:0:0:0:
256,192,64130,1,8,0:0:0:0:
256,192,64212,1,8,0:0:0:0:
256,192,64293,1,0,0:0:0:0:
256,192,64374,1,8,0:0:0:0:
256,192,64428,1,8,0:0:0:0:
256,192,64482,1,8,0:0:0:0:
256,192,64536,1,8,0:0:0:0:
256,192,64617,1,0,0:0:0:0:
256,192,64698,1,8,0:0:0:0:
256,192,64779,1,0,0:0:0:0:
256,192,64860,1,8,0:0:0:0:
256,192,65022,1,0,0:0:0:0:
256,192,65185,1,12,0:0:0:0:
256,192,65509,1,12,0:0:0:0:
256,192,65590,1,0,0:0:0:0:
256,192,65671,1,0,0:0:0:0:
256,192,65752,1,0,0:0:0:0:
256,192,65833,1,8,0:0:0:0:
256,192,65914,1,0,0:0:0:0:
256,192,65995,1,8,0:0:0:0:
256,192,66049,1,8,0:0:0:0:
256,192,66103,1,8,0:0:0:0:
256,192,66157,1,8,0:0:0:0:
256,192,66239,1,0,0:0:0:0:
256,192,66320,1,8,0:0:0:0:
256,192,66374,1,0,0:0:0:0:
256,192,66428,1,0,0:0:0:0:
256,192,66482,1,8,0:0:0:0:
256,192,66563,1,0,0:0:0:0:
256,192,66644,1,8,0:0:0:0:
256,192,66725,1,0,0:0:0:0:
256,192,66806,1,8,0:0:0:0:
256,192,66887,1,0,0:0:0:0:
256,192,66968,1,8,0:0:0:0:
256,192,67022,1,8,0:0:0:0:
256,192,67076,1,8,0:0:0:0:
256,192,67130,1,8,0:0:0:0:
256,192,67212,1,0,0:0:0:0:
256,192,67293,1,8,0:0:0:0:
256,192,67374,1,0,0:0:0:0:
256,192,67455,1,8,0:0:0:0:
256,192,67617,1,12,0:0:0:0:
256,192,67779,1,12,0:0:0:0:
256,192,68103,1,12,0:0:0:0:
256,192,68185,1,0,0:0:0:0:
256,192,68266,1,0,0:0:0:0:
256,192,68347,1,0,0:0:0:0:
256,192,68428,1,8,0:0:0:0:
256,192,68509,1,0,0:0:0:0:
256,192,68590,1,8,0:0:0:0:
256,192,68644,1,8,0:0:0:0:
256,192,68698,1,8,0:0:0:0:
256,192,68752,1,8,0:0:0:0:
256,192,68833,1,0,0:0:0:0:
256,192,68914,1,8,0:0:0:0:
256,192,68995,1,0,0:0:0:0:
256,192,69076,1,8,0:0:0:0:
256,192,69130,1,8,0:0:0:0:
256,192,69184,1,0,0:0:0:0:
256,192,69238,1,8,0:0:0:0:
256,192,69319,1,8,0:0:0:0:
256,192,69401,1,8,0:0:0:0:
256,192,69482,1,0,0:0:0:0:
256,192,69563,1,8,0:0:0:0:
256,192,69617,1,8,0:0:0:0:
256,192,69671,1,8,0:0:0:0:
256,192,69725,1,8,0:0:0:0:
256,192,69806,1,0,0:0:0:0:
256,192,69887,1,8,0:0:0:0:
256,192,69968,1,0,0:0:0:0:
256,192,70049,1,8,0:0:0:0:
256,192,70211,1,0,0:0:0:0:
256,192,70374,1,12,0:0:0:0:
256,192,70698,1,8,0:0:0:0:
256,192,70779,1,0,0:0:0:0:
256,192,70860,1,0,0:0:0:0:
256,192,70941,1,0,0:0:0:0:
256,192,71022,1,8,0:0:0:0:
256,192,71103,1,0,0:0:0:0:
256,192,71185,1,8,0:0:0:0:
256,192,71239,1,0,0:0:0:0:
256,192,71293,1,8,0:0:0:0:
256,192,71347,1,8,0:0:0:0:
256,192,71401,1,8,0:0:0:0:
256,192,71455,1,0,0:0:0:0:
256,192,71509,1,8,0:0:0:0:
256,192,71590,1,0,0:0:0:0:
256,192,71671,1,8,0:0:0:0:
256,192,71752,1,0,0:0:0:0:
256,192,71833,1,0,0:0:0:0:
256,192,71914,1,0,0:0:0:0:
256,192,71995,1,12,0:0:0:0:
256,192,72320,1,12,0:0:0:0:
256,192,72644,1,12,0:0:0:0:
256,192,72806,1,12,0:0:0:0:
256,192,72968,1,12,0:0:0:0:
256,192,73130,1,12,0:0:0:0:
256,192,73293,1,8,0:0:0:0:
256,192,73374,1,0,0:0:0:0:
256,192,73455,1,0,0:0:0:0:
256,192,73536,1,0,0:0:0:0:
256,192,73617,1,8,0:0:0:0:
256,192,73698,1,0,0:0:0:0:
256,192,73779,1,8,0:0:0:0:
256,192,73833,1,8,0:0:0:0:
256,192,73887,1,8,0:0:0:0:
256,192,73941,1,8,0:0:0:0:
256,192,74022,1,0,0:0:0:0:
256,192,74103,1,8,0:0:0:0:
256,192,74184,1,0,0:0:0:0:
256,192,74265,1,8,0:0:0:0:
256,192,74319,1,8,0:0:0:0:
256,192,74373,1,0,0:0:0:0:
256,192,74427,1,8,0:0:0:0:
256,192,74508,1,8,0:0:0:0:
256,192,74590,1,8,0:0:0:0:
256,192,74671,1,0,0:0:0:0:
256,192,74752,1,8,0:0:0:0:
256,192,74806,1,8,0:0:0:0:
256,192,74860,1,8,0:0:0:0:
256,192,74914,1,8,0:0:0:0:
256,192,74995,1,0,0:0:0:0:
256,192,75076,1,8,0:0:0:0:
256,192,75157,1,0,0:0:0:0:
256,192,75238,1,8,0:0:0:0:
256,192,75400,1,0,0:0:0:0:
256,192,75563,1,12,0:0:0:0:
256,192,75887,1,12,0:0:0:0:
256,192,75968,1,0,0:0:0:0:
256,192,76049,1,0,0:0:0:0:
256,192,76130,1,0,0:0:0:0:
256,192,76211,1,8,0:0:0:0:
256,192,76292,1,0,0:0:0:0:
256,192,76373,1,8,0:0:0:0:
256,192,76427,1,8,0:0:0:0:
256,192,76481,1,8,0:0:0:0:
256,192,76535,1,8,0:0:0:0:
256,192,76617,1,0,0:0:0:0:
256,192,76698,1,8,0:0:0:0:
256,192,76752,1,0,0:0:0:0:
256,192,76806,1,0,0:0:0:0:
256,192,76860,1,8,0:0:0:0:
256,192,76941,1,0,0:0:0:0:
256,192,77022,1,8,0:0:0:0:
256,192,77103,1,0,0:0:0:0:
256,192,77184,1,8,0:0:0:0:
256,192,77265,1,0,0:0:0:0:
256,192,77346,1,8,0:0:0:0:
256,192,77400,1,8,0:0:0:0:
256,192,77454,1,8,0:0:0:0:
256,192,77508,1,8,0:0:0:0:
256,192,77590,1,0,0:0:0:0:
256,192,77671,1,8,0:0:0:0:
256,192,77752,1,0,0:0:0:0:
256,192,77833,1,8,0:0:0:0:
256,192,77995,1,12,0:0:0:0:
256,192,78157,1,12,0:0:0:0:
256,192,78481,1,12,0:0:0:0:
256,192,78806,1,8,0:0:0:0:
256,192,78887,1,0,0:0:0:0:
256,192,78968,1,8,0:0:0:0:
256,192,79022,1,8,0:0:0:0:
256,192,79076,1,8,0:0:0:0:
256,192,79130,1,8,0:0:0:0:
256,192,79211,1,0,0:0:0:0:
256,192,79292,1,8,0:0:0:0:
256,192,79373,1,0,0:0:0:0:
256,192,79454,1,8,0:0:0:0:
256,192,79508,1,8,0:0:0:0:
256,192,79562,1,0,0:0:0:0:
256,192,79616,1,8,0:0:0:0:
256,192,79697,1,8,0:0:0:0:
256,192,79779,1,8,0:0:0:0:
256,192,79860,1,0,0:0:0:0:
256,192,79941,1,8,0:0:0:0:
256,192,79995,1,8,0:0:0:0:
256,192,80049,1,8,0:0:0:0:
256,192,80103,1,8,0:0:0:0:
256,192,80184,1,0,0:0:0:0:
256,192,80265,1,8,0:0:0:0:
256,192,80346,1,0,0:0:0:0:
256,192,80427,1,8,0:0:0:0:
256,192,80589,1,0,0:0:0:0:
256,192,80752,1,12,0:0:0:0:
256,192,81076,1,8,0:0:0:0:
256,192,81157,1,0,0:0:0:0:
256,192,81238,1,0,0:0:0:0:
256,192,81319,1,0,0:0:0:0:
256,192,81400,1,8,0:0:0:0:
256,192,81481,1,0,0:0:0:0:
256,192,81563,1,8,0:0:0:0:
256,192,81617,1,0,0:0:0:0:
256,192,81671,1,8,0:0:0:0:
256,192,81725,1,8,0:0:0:0:
256,192,81779,1,8,0:0:0:0:
256,192,81833,1,0,0:0:0:0:
256,192,81887,1,8,0:0:0:0:
256,192,81968,1,0,0:0:0:0:
256,192,82049,1,8,0:0:0:0:
256,192,82130,1,0,0:0:0:0:
256,192,82211,1,0,0:0:0:0:
256,192,82292,1,0,0:0:0:0:
256,192,82373,1,12,0:0:0:0:
256,192,82699,1,12,0:0:0:0:
256,192,83023,12,12,83672,0:0:0:0:
256,192,83023,12,12,83347,0:0:0:0:
256,192,83672,5,8,0:0:0:0:
256,192,83726,1,8,0:0:0:0:
256,192,83780,1,8,0:0:0:0:
256,192,83834,1,0,0:0:0:0:
256,192,83915,1,0,0:0:0:0:
256,192,83996,1,8,0:0:0:0:
256,192,84050,1,8,0:0:0:0:
256,192,84104,1,8,0:0:0:0:
256,192,84158,1,0,0:0:0:0:
256,192,84239,1,0,0:0:0:0:
256,192,84320,1,8,0:0:0:0:
256,192,84374,1,0,0:0:0:0:
256,192,84428,1,0,0:0:0:0:
256,192,84482,1,8,0:0:0:0:
256,192,84563,1,0,0:0:0:0:
256,192,84644,1,8,0:0:0:0:
256,192,84699,1,8,0:0:0:0:
256,192,84753,1,8,0:0:0:0:
256,192,84807,1,0,0:0:0:0:
256,192,84888,1,0,0:0:0:0:
256,192,84969,1,8,0:0:0:0:
256,192,85050,1,0,0:0:0:0:
256,192,85131,1,8,0:0:0:0:
256,192,85185,1,8,0:0:0:0:
256,192,85239,1,8,0:0:0:0:
256,192,85293,1,0,0:0:0:0:
256,192,85374,1,0,0:0:0:0:
256,192,85455,1,8,0:0:0:0:
256,192,85509,1,0,0:0:0:0:
256,192,85563,1,0,0:0:0:0:
256,192,85617,1,8,0:0:0:0:
256,192,85699,1,0,0:0:0:0:
256,192,85780,1,0,0:0:0:0:
256,192,85861,1,0,0:0:0:0:
256,192,85942,1,8,0:0:0:0:
256,192,86266,5,8,0:0:0:0:
256,192,86320,1,8,0:0:0:0:
256,192,86374,1,8,0:0:0:0:
256,192,86428,1,0,0:0:0:0:
256,192,86509,1,8,0:0:0:0:
256,192,86590,1,8,0:0:0:0:
256,192,86644,1,8,0:0:0:0:
256,192,86698,1,8,0:0:0:0:
256,192,86752,1,0,0:0:0:0:
256,192,86833,1,8,0:0:0:0:
256,192,86914,1,8,0:0:0:0:
256,192,86968,1,0,0:0:0:0:
256,192,87022,1,0,0:0:0:0:
256,192,87076,1,8,0:0:0:0:
256,192,87157,1,8,0:0:0:0:
256,192,87238,1,8,0:0:0:0:
256,192,87293,1,8,0:0:0:0:
256,192,87347,1,8,0:0:0:0:
256,192,87401,1,0,0:0:0:0:
256,192,87482,1,8,0:0:0:0:
256,192,87563,1,0,0:0:0:0:
256,192,87644,1,8,0:0:0:0:
256,192,87725,1,8,0:0:0:0:
256,192,87779,1,8,0:0:0:0:
256,192,87833,1,8,0:0:0:0:
256,192,87887,1,0,0:0:0:0:
256,192,87968,1,8,0:0:0:0:
256,192,88049,1,8,0:0:0:0:
256,192,88103,1,0,0:0:0:0:
256,192,88157,1,0,0:0:0:0:
256,192,88211,1,8,0:0:0:0:
256,192,88293,1,0,0:0:0:0:
256,192,88374,1,8,0:0:0:0:
256,192,88455,1,8,0:0:0:0:
256,192,88536,1,8,0:0:0:0:
256,192,88861,1,8,0:0:0:0:
256,192,88915,1,8,0:0:0:0:
256,192,88969,1,0,0:0:0:0:
256,192,89023,1,0,0:0:0:0:
256,192,89077,1,8,0:0:0:0:
256,192,89131,1,8,0:0:0:0:
256,192,89185,1,0,0:0:0:0:
256,192,89239,1,8,0:0:0:0:
256,192,89293,1,8,0:0:0:0:
256,192,89347,1,0,0:0:0:0:
256,192,89401,1,8,0:0:0:0:
256,192,89455,1,8,0:0:0:0:
256,192,89509,1,0,0:0:0:0:
256,192,89563,1,8,0:0:0:0:
256,192,89617,1,8,0:0:0:0:
256,192,89672,1,0,0:0:0:0:
256,192,89726,1,8,0:0:0:0:
256,192,89780,1,8,0:0:0:0:
256,192,89834,1,0,0:0:0:0:
256,192,89888,1,8,0:0:0:0:
256,192,89942,1,8,0:0:0:0:
256,192,89996,1,0,0:0:0:0:
256,192,90050,1,8,0:0:0:0:
256,192,90104,1,8,0:0:0:0:
256,192,90158,1,8,0:0:0:0:
256,192,90212,1,8,0:0:0:0:
256,192,90266,1,0,0:0:0:0:
256,192,90320,1,0,0:0:0:0:
256,192,90374,1,0,0:0:0:0:
256,192,90428,1,0,0:0:0:0:
256,192,90482,1,8,0:0:0:0:
256,192,90536,1,8,0:0:0:0:
256,192,90590,1,8,0:0:0:0:
256,192,90644,1,8,0:0:0:0:
256,192,90699,1,0,0:0:0:0:
256,192,90753,1,0,0:0:0:0:
256,192,90807,1,0,0:0:0:0:
256,192,90861,1,0,0:0:0:0:
256,192,90915,1,8,0:0:0:0:
256,192,90969,1,8,0:0:0:0:
256,192,91023,1,8,0:0:0:0:
256,192,91077,1,8,0:0:0:0:
256,192,91131,1,8,0:0:0:0:
256,192,91455,1,8,0:0:0:0:
256,192,91509,1,8,0:0:0:0:
256,192,91563,1,8,0:0:0:0:
256,192,91617,1,0,0:0:0:0:
256,192,91699,1,8,0:0:0:0:
256,192,91780,1,0,0:0:0:0:
256,192,91861,1,8,0:0:0:0:
256,192,91942,1,0,0:0:0:0:
256,192,92023,1,8,0:0:0:0:
256,192,92104,1,0,0:0:0:0:
256,192,92185,1,8,0:0:0:0:
256,192,92266,1,0,0:0:0:0:
256,192,92347,1,8,0:0:0:0:
256,192,92428,1,8,0:0:0:0:
256,192,92482,1,8,0:0:0:0:
256,192,92536,1,8,0:0:0:0:
256,192,92590,1,0,0:0:0:0:
256,192,92672,1,0,0:0:0:0:
256,192,92753,1,8,0:0:0:0:
256,192,92807,1,8,0:0:0:0:
256,192,92861,1,8,0:0:0:0:
256,192,92915,1,0,0:0:0:0:
256,192,92996,1,0,0:0:0:0:
256,192,93077,1,8,0:0:0:0:
256,192,93131,1,0,0:0:0:0:
256,192,93185,1,0,0:0:0:0:
256,192,93239,1,8,0:0:0:0:
256,192,93293,1,0,0:0:0:0:
256,192,93347,1,0,0:0:0:0:
256,192,93401,1,8,0:0:0:0:
256,192,93482,1,8,0:0:0:0:
256,192,93563,1,0,0:0:0:0:
256,192,93644,1,0,0:0:0:0:
256,192,93726,1,8,0:0:0:0:
256,192,93767,2,0,L|320:192,1,35.1058223412525
256,192,93787,2,0,L|320:192,1,35.1058223412525
256,192,93787,2,0,L|320:192,1,35.1058223412525
256,192,93787,2,0,L|320:192,1,35.1058223412525
256,192,93787,2,0,L|320:192,1,35.1058223412525
256,192,93787,2,0,L|320:192,1,35.1058223412525
256,192,93787,2,0,L|320:192,1,35.1058223412525
256,192,93787,2,0,L|320:192,1,35.1058223412525
256,192,93787,2,0,L|320:192,1,35.1058223412525
256,192,93787,2,0,L|320:192,1,35.1058223412525
256,192,93787,2,0,L|320:192,1,35.1058223412525
256,192,93807,2,0,L|320:192,1,35.1058223412525
256,192,93807,2,0,L|320:192,1,35.1058223412525
256,192,93807,2,0,L|320:192,1,35.1058223412525
256,192,93807,2,0,L|320:192,1,35.1058223412525
256,192,93807,2,0,L|320:192,1,35.1058223412525
256,192,93807,2,0,L|320:192,1,35.1058223412525
256,192,93807,2,0,L|320:192,1,35.1058223412525
256,192,93807,2,0,L|320:192,1,35.1058223412525
256,192,93807,2,0,L|320:192,1,35.1058223412525
256,192,93807,2,0,L|320:192,1,35.1058223412525
256,192,93807,2,0,L|320:192,1,35.1058223412525
256,192,93807,2,0,L|320:192,1,35.1058223412525
256,192,93807,2,0,L|320:192,1,35.1058223412525
256,192,93807,2,0,L|320:192,1,35.1058223412525
256,192,93807,2,0,L|320:192,1,35.1058223412525
256,192,93826,2,0,L|320:192,1,35.1058223412525
256,192,93827,2,0,L|320:192,1,35.1058223412525
256,192,93827,2,0,L|320:192,1,35.1058223412525
256,192,93827,2,0,L|320:192,1,35.1058223412525
256,192,93827,2,0,L|320:192,1,35.1058223412525
256,192,93827,2,0,L|320:192,1,35.1058223412525
256,192,93827,2,0,L|320:192,1,35.1058223412525
256,192,93827,2,0,L|320:192,1,35.1058223412525
256,192,93827,2,0,L|320:192,1,35.1058223412525
256,192,93827,2,0,L|320:192,1,35.1058223412525
256,192,93827,2,0,L|320:192,1,35.1058223412525
256,192,93827,2,0,L|320:192,1,35.1058223412525
256,192,93827,2,0,L|320:192,1,35.1058223412525
256,192,93827,2,0,L|320:192,1,35.1058223412525
256,192,93827,2,0,L|320:192,1,35.1058223412525
256,192,93827,2,0,L|320:192,1,35.1058223412525
256,192,93847,2,0,L|320:192,1,35.1058223412525
256,192,93848,2,0,L|320:192,1,35.1058223412525
256,192,93868,2,0,L|320:192,1,35.1058223412525
256,192,93868,2,0,L|320:192,1,35.1058223412525
256,192,93868,2,0,L|320:192,1,35.1058223412525
256,192,93868,2,0,L|320:192,1,35.1058223412525
256,192,93868,2,0,L|320:192,1,35.1058223412525
256,192,93868,2,0,L|320:192,1,35.1058223412525
256,192,93868,2,0,L|320:192,1,35.1058223412525
256,192,93868,2,0,L|320:192,1,35.1058223412525
256,192,93868,2,0,L|320:192,1,35.1058223412525
256,192,93868,2,0,L|320:192,1,35.1058223412525
256,192,93887,2,0,L|320:192,1,35.1058223412525
256,192,93888,2,0,L|320:192,1,35.1058223412525
256,192,93888,2,0,L|320:192,1,35.1058223412525
256,192,93888,2,0,L|320:192,1,35.1058223412525
256,192,93888,2,0,L|320:192,1,35.1058223412525
256,192,93888,2,0,L|320:192,1,35.1058223412525
256,192,93888,2,0,L|320:192,1,35.1058223412525
256,192,93888,2,0,L|320:192,1,35.1058223412525
256,192,93888,2,0,L|320:192,1,35.1058223412525
256,192,93888,2,0,L|320:192,1,35.1058223412525
256,192,93888,2,0,L|320:192,1,35.1058223412525
256,192,93888,2,0,L|320:192,1,35.1058223412525
256,192,93888,2,0,L|320:192,1,35.1058223412525
256,192,93888,2,0,L|320:192,1,35.1058223412525
256,192,93908,2,0,L|320:192,1,35.1058223412525
256,192,93909,2,0,L|320:192,1,35.1058223412525
256,192,93929,2,0,L|320:192,1,35.1058223412525
256,192,93929,2,0,L|320:192,1,35.1058223412525
256,192,93929,2,0,L|320:192,1,35.1058223412525
256,192,93929,2,0,L|320:192,1,35.1058223412525
256,192,93929,2,0,L|320:192,1,35.1058223412525
256,192,93929,2,0,L|320:192,1,35.1058223412525
256,192,93929,2,0,L|320:192,1,35.1058223412525
256,192,93929,2,0,L|320:192,1,35.1058223412525
256,192,93929,2,0,L|320:192,1,35.1058223412525
256,192,93929,2,0,L|320:192,1,35.1058223412525
256,192,93949,2,0,L|320:192,1,35.1058223412525
256,192,93949,2,0,L|320:192,1,35.1058223412525
256,192,93949,2,0,L|320:192,1,35.1058223412525
256,192,93949,2,0,L|320:192,1,35.1058223412525
256,192,93949,2,0,L|320:192,1,35.1058223412525
256,192,93949,2,0,L|320:192,1,35.1058223412525
256,192,93949,2,0,L|320:192,1,35.1058223412525
256,192,93949,2,0,L|320:192,1,35.1058223412525
256,192,93949,2,0,L|320:192,1,35.1058223412525
256,192,93949,2,0,L|320:192,1,35.1058223412525
256,192,93949,2,0,L|320:192,1,35.1058223412525
256,192,93949,2,0,L|320:192,1,35.1058223412525
256,192,93949,2,0,L|320:192,1,35.1058223412525
256,192,93949,2,0,L|320:192,1,35.1058223412525
256,192,93949,2,0,L|320:192,1,35.1058223412525
256,192,93968,2,0,L|320:192,1,35.1058223412525
256,192,93969,2,0,L|320:192,1,35.1058223412525
256,192,93969,2,0,L|320:192,1,35.1058223412525
256,192,93969,2,0,L|320:192,1,35.1058223412525
256,192,93969,2,0,L|320:192,1,35.1058223412525
256,192,93969,2,0,L|320:192,1,35.1058223412525
256,192,93969,2,0,L|320:192,1,35.1058223412525
256,192,93969,2,0,L|320:192,1,35.1058223412525
256,192,93969,2,0,L|320:192,1,35.1058223412525
256,192,93969,2,0,L|320:192,1,35.1058223412525
256,192,93969,2,0,L|320:192,1,35.1058223412525
256,192,93969,2,0,L|320:192,1,35.1058223412525
256,192,93969,2,0,L|320:192,1,35.1058223412525
256,192,93969,2,0,L|320:192,1,35.1058223412525
256,192,93969,2,0,L|320:192,1,35.1058223412525
256,192,93969,2,0,L|320:192,1,35.1058223412525
256,192,93989,2,0,L|320:192,1,35.1058223412525
256,192,93990,2,0,L|320:192,1,35.1058223412525
256,192,94010,2,0,L|320:192,1,35.1058223412525
256,192,94010,2,0,L|320:192,1,35.1058223412525
256,192,94010,2,0,L|320:192,1,35.1058223412525
256,192,94010,2,0,L|320:192,1,35.1058223412525
256,192,94010,2,0,L|320:192,1,35.1058223412525
256,192,94010,2,0,L|320:192,1,35.1058223412525
256,192,94010,2,0,L|320:192,1,35.1058223412525
256,192,94010,2,0,L|320:192,1,35.1058223412525
256,192,94010,2,0,L|320:192,1,35.1058223412525
256,192,94010,2,0,L|320:192,1,35.1058223412525
256,192,94030,2,0,L|320:192,1,35.1058223412525
256,192,94030,2,0,L|320:192,1,35.1058223412525
256,192,94030,2,0,L|320:192,1,35.1058223412525
256,192,94030,2,0,L|320:192,1,35.1058223412525
256,192,94030,2,0,L|320:192,1,35.1058223412525
256,192,94030,2,0,L|320:192,1,35.1058223412525
256,192,94030,2,0,L|320:192,1,35.1058223412525
256,192,94030,2,0,L|320:192,1,35.1058223412525
256,192,94030,2,0,L|320:192,1,35.1058223412525
256,192,94030,2,0,L|320:192,1,35.1058223412525
256,192,94030,2,0,L|320:192,1,35.1058223412525
256,192,94030,2,0,L|320:192,1,35.1058223412525
256,192,94030,2,0,L|320:192,1,35.1058223412525
256,192,94030,2,0,L|320:192,1,35.1058223412525
256,192,94030,2,0,L|320:192,1,35.1058223412525
256,192,94049,2,0,L|320:192,1,35.1058223412525
256,192,94050,2,0,L|320:192,1,35.1058223412525
256,192,94050,2,0,L|320:192,1,35.1058223412525
256,192,94050,2,0,L|320:192,1,35.1058223412525
256,192,94050,2,0,L|320:192,1,35.1058223412525
256,192,94050,2,0,L|320:192,1,35.1058223412525
256,192,94050,2,0,L|320:192,1,35.1058223412525
256,192,94050,2,0,L|320:192,1,35.1058223412525
256,192,94050,2,0,L|320:192,1,35.1058223412525
256,192,94050,2,0,L|320:192,1,35.1058223412525
256,192,94050,2,0,L|320:192,1,35.1058223412525
256,192,94050,2,0,L|320:192,1,35.1058223412525
256,192,94050,2,0,L|320:192,1,35.1058223412525
256,192,94050,2,0,L|320:192,1,35.1058223412525
256,192,94050,2,0,L|320:192,1,35.1058223412525
256,192,94050,2,0,L|320:192,1,35.1058223412525
256,192,94070,2,0,L|320:192,1,35.1058223412525
256,192,94071,2,0,L|320:192,1,35.1058223412525
256,192,94091,2,0,L|320:192,1,35.1058223412525
256,192,94091,2,0,L|320:192,1,35.1058223412525
256,192,94091,2,0,L|320:192,1,35.1058223412525
256,192,94091,2,0,L|320:192,1,35.1058223412525
256,192,94091,2,0,L|320:192,1,35.1058223412525
256,192,94091,2,0,L|320:192,1,35.1058223412525
256,192,94091,2,0,L|320:192,1,35.1058223412525
256,192,94091,2,0,L|320:192,1,35.1058223412525
256,192,94091,2,0,L|320:192,1,35.1058223412525
256,192,94091,2,0,L|320:192,1,35.1058223412525
256,192,94110,2,0,L|320:192,1,35.1058223412525
256,192,94111,2,0,L|320:192,1,35.1058223412525
256,192,94111,2,0,L|320:192,1,35.1058223412525
256,192,94111,2,0,L|320:192,1,35.1058223412525
256,192,94111,2,0,L|320:192,1,35.1058223412525
256,192,94111,2,0,L|320:192,1,35.1058223412525
256,192,94111,2,0,L|320:192,1,35.1058223412525
256,192,94111,2,0,L|320:192,1,35.1058223412525
256,192,94111,2,0,L|320:192,1,35.1058223412525
256,192,94111,2,0,L|320:192,1,35.1058223412525
256,192,94111,2,0,L|320:192,1,35.1058223412525
256,192,94111,2,0,L|320:192,1,35.1058223412525
256,192,94111,2,0,L|320:192,1,35.1058223412525
256,192,94111,2,0,L|320:192,1,35.1058223412525
256,192,94131,2,0,L|320:192,1,35.1058223412525
256,192,94132,2,0,L|320:192,1,35.1058223412525
256,192,94152,2,0,L|320:192,1,35.1058223412525
256,192,94152,2,0,L|320:192,1,35.1058223412525
256,192,94152,2,0,L|320:192,1,35.1058223412525
256,192,94152,2,0,L|320:192,1,35.1058223412525
256,192,94152,2,0,L|320:192,1,35.1058223412525
256,192,94152,2,0,L|320:192,1,35.1058223412525
256,192,94152,2,0,L|320:192,1,35.1058223412525
256,192,94152,2,0,L|320:192,1,35.1058223412525
256,192,94152,2,0,L|320:192,1,35.1058223412525
256,192,94152,2,0,L|320:192,1,35.1058223412525
256,192,94172,2,0,L|320:192,1,35.1058223412525
256,192,94172,2,0,L|320:192,1,35.1058223412525
256,192,94172,2,0,L|320:192,1,35.1058223412525
256,192,94172,2,0,L|320:192,1,35.1058223412525
256,192,94172,2,0,L|320:192,1,35.1058223412525
256,192,94172,2,0,L|320:192,1,35.1058223412525
256,192,94172,2,0,L|320:192,1,35.1058223412525
256,192,94172,2,0,L|320:192,1,35.1058223412525
256,192,94172,2,0,L|320:192,1,35.1058223412525
256,192,94172,2,0,L|320:192,1,35.1058223412525
256,192,94172,2,0,L|320:192,1,35.1058223412525
256,192,94172,2,0,L|320:192,1,35.1058223412525
256,192,94172,2,0,L|320:192,1,35.1058223412525
256,192,94172,2,0,L|320:192,1,35.1058223412525
256,192,94172,2,0,L|320:192,1,35.1058223412525
256,192,94191,2,0,L|320:192,1,35.1058223412525
256,192,94192,2,0,L|320:192,1,35.1058223412525
256,192,94192,2,0,L|320:192,1,35.1058223412525
256,192,94192,2,0,L|320:192,1,35.1058223412525
256,192,94192,2,0,L|320:192,1,35.1058223412525
256,192,94192,2,0,L|320:192,1,35.1058223412525
256,192,94192,2,0,L|320:192,1,35.1058223412525
256,192,94192,2,0,L|320:192,1,35.1058223412525
256,192,94192,2,0,L|320:192,1,35.1058223412525
256,192,94192,2,0,L|320:192,1,35.1058223412525
256,192,94192,2,0,L|320:192,1,35.1058223412525
256,192,94192,2,0,L|320:192,1,35.1058223412525
256,192,94192,2,0,L|320:192,1,35.1058223412525
256,192,94192,2,0,L|320:192,1,35.1058223412525
256,192,94192,2,0,L|320:192,1,35.1058223412525
256,192,94192,2,0,L|320:192,1,35.1058223412525
256,192,94212,2,0,L|320:192,1,35.1058223412525
256,192,94213,2,0,L|320:192,1,35.1058223412525
256,192,94233,2,0,L|320:192,1,35.1058223412525
256,192,94233,2,0,L|320:192,1,35.1058223412525
256,192,94233,2,0,L|320:192,1,35.1058223412525
256,192,94233,2,0,L|320:192,1,35.1058223412525
256,192,94233,2,0,L|320:192,1,35.1058223412525
256,192,94233,2,0,L|320:192,1,35.1058223412525
256,192,94233,2,0,L|320:192,1,35.1058223412525
256,192,94233,2,0,L|320:192,1,35.1058223412525
256,192,94233,2,0,L|320:192,1,35.1058223412525
256,192,94233,2,0,L|320:192,1,35.1058223412525
256,192,94252,2,0,L|320:192,1,35.1058223412525
256,192,94253,2,0,L|320:192,1,35.1058223412525
256,192,94253,2,0,L|320:192,1,35.1058223412525
256,192,94253,2,0,L|320:192,1,35.1058223412525
256,192,94253,2,0,L|320:192,1,35.1058223412525
256,192,94253,2,0,L|320:192,1,35.1058223412525
256,192,94253,2,0,L|320:192,1,35.1058223412525
256,192,94253,2,0,L|320:192,1,35.1058223412525
256,192,94253,2,0,L|320:192,1,35.1058223412525
256,192,94253,2,0,L|320:192,1,35.1058223412525
256,192,94253,2,0,L|320:192,1,35.1058223412525
256,192,94253,2,0,L|320:192,1,35.1058223412525
256,192,94253,2,0,L|320:192,1,35.1058223412525
256,192,94253,2,0,L|320:192,1,35.1058223412525
256,192,94253,2,0,L|320:192,1,35.1058223412525
256,192,94253,2,0,L|320:192,1,35.1058223412525
256,192,94273,2,0,L|320:192,1,35.1058223412525
256,192,94273,2,0,L|320:192,1,35.1058223412525
256,192,94273,2,0,L|320:192,1,35.1058223412525
256,192,94273,2,0,L|320:192,1,35.1058223412525
256,192,94273,2,0,L|320:192,1,35.1058223412525
256,192,94273,2,0,L|320:192,1,35.1058223412525
256,192,94273,2,0,L|320:192,1,35.1058223412525
256,192,94273,2,0,L|320:192,1,35.1058223412525
256,192,94273,2,0,L|320:192,1,35.1058223412525
256,192,94273,2,0,L|320:192,1,35.1058223412525
256,192,94273,2,0,L|320:192,1,35.1058223412525
256,192,94273,2,0,L|320:192,1,35.1058223412525
256,192,94273,2,0,L|320:192,1,35.1058223412525
256,192,94273,2,0,L|320:192,1,35.1058223412525
256,192,94294,2,0,L|320:192,1,35.1058223412525
256,192,94314,2,0,L|320:192,1,35.1058223412525
256,192,94314,2,0,L|320:192,1,35.1058223412525
256,192,94314,2,0,L|320:192,1,35.1058223412525
256,192,94314,2,0,L|320:192,1,35.1058223412525
256,192,94314,2,0,L|320:192,1,35.1058223412525
256,192,94314,2,0,L|320:192,1,35.1058223412525
256,192,94314,2,0,L|320:192,1,35.1058223412525
256,192,94314,2,0,L|320:192,1,35.1058223412525
256,192,94314,2,0,L|320:192,1,35.1058223412525
256,192,94314,2,0,L|320:192,1,35.1058223412525
256,192,94334,2,0,L|320:192,1,35.1058223412525
256,192,94334,2,0,L|320:192,1,35.1058223412525
256,192,94334,2,0,L|320:192,1,35.1058223412525
256,192,94334,2,0,L|320:192,1,35.1058223412525
256,192,94334,2,0,L|320:192,1,35.1058223412525
256,192,94334,2,0,L|320:192,1,35.1058223412525
256,192,94334,2,0,L|320:192,1,35.1058223412525
256,192,94334,2,0,L|320:192,1,35.1058223412525
256,192,94334,2,0,L|320:192,1,35.1058223412525
256,192,94334,2,0,L|320:192,1,35.1058223412525
256,192,94334,2,0,L|320:192,1,35.1058223412525
256,192,94334,2,0,L|320:192,1,35.1058223412525
256,192,94334,2,0,L|320:192,1,35.1058223412525
256,192,94334,2,0,L|320:192,1,35.1058223412525
256,192,94334,2,0,L|320:192,1,35.1058223412525
256,192,94353,2,0,L|320:192,1,35.1058223412525
256,192,94354,2,0,L|320:192,1,35.1058223412525
256,192,94354,2,0,L|320:192,1,35.1058223412525
256,192,94354,2,0,L|320:192,1,35.1058223412525
256,192,94354,2,0,L|320:192,1,35.1058223412525
256,192,94354,2,0,L|320:192,1,35.1058223412525
256,192,94354,2,0,L|320:192,1,35.1058223412525
256,192,94354,2,0,L|320:192,1,35.1058223412525
256,192,94354,2,0,L|320:192,1,35.1058223412525
256,192,94354,2,0,L|320:192,1,35.1058223412525
256,192,94354,2,0,L|320:192,1,35.1058223412525
256,192,94354,2,0,L|320:192,1,35.1058223412525
256,192,94354,2,0,L|320:192,1,35.1058223412525
256,192,94354,2,0,L|320:192,1,35.1058223412525
256,192,94354,2,0,L|320:192,1,35.1058223412525
256,192,94354,2,0,L|320:192,1,35.1058223412525
256,192,94374,2,0,L|320:192,1,35.1058223412525
256,192,94375,2,0,L|320:192,1,35.1058223412525
256,192,94395,2,0,L|320:192,1,35.1058223412525
256,192,94395,2,0,L|320:192,1,35.1058223412525
256,192,94395,2,0,L|320:192,1,35.1058223412525
256,192,94395,2,0,L|320:192,1,35.1058223412525
256,192,94395,2,0,L|320:192,1,35.1058223412525
256,192,94395,2,0,L|320:192,1,35.1058223412525
256,192,94395,2,0,L|320:192,1,35.1058223412525
256,192,94395,2,0,L|320:192,1,35.1058223412525
256,192,94395,2,0,L|320:192,1,35.1058223412525
256,192,94395,2,0,L|320:192,1,35.1058223412525
256,192,94414,2,0,L|320:192,1,35.1058223412525
256,192,94415,2,0,L|320:192,1,35.1058223412525
256,192,94415,2,0,L|320:192,1,35.1058223412525
256,192,94415,2,0,L|320:192,1,35.1058223412525
256,192,94415,2,0,L|320:192,1,35.1058223412525
256,192,94415,2,0,L|320:192,1,35.1058223412525
256,192,94415,2,0,L|320:192,1,35.1058223412525
256,192,94415,2,0,L|320:192,1,35.1058223412525
256,192,94415,2,0,L|320:192,1,35.1058223412525
256,192,94415,2,0,L|320:192,1,35.1058223412525
256,192,94415,2,0,L|320:192,1,35.1058223412525
256,192,94415,2,0,L|320:192,1,35.1058223412525
256,192,94415,2,0,L|320:192,1,35.1058223412525
256,192,94415,2,0,L|320:192,1,35.1058223412525
256,192,94435,2,0,L|320:192,1,35.1058223412525
256,192,94436,2,0,L|320:192,1,35.1058223412525
256,192,94456,2,0,L|320:192,1,35.1058223412525
256,192,94456,2,0,L|320:192,1,35.1058223412525
256,192,94456,2,0,L|320:192,1,35.1058223412525
256,192,94456,2,0,L|320:192,1,35.1058223412525
256,192,94456,2,0,L|320:192,1,35.1058223412525
256,192,94456,2,0,L|320:192,1,35.1058223412525
256,192,94456,2,0,L|320:192,1,35.1058223412525
256,192,94456,2,0,L|320:192,1,35.1058223412525
256,192,94456,2,0,L|320:192,1,35.1058223412525
256,192,94456,2,0,L|320:192,1,35.1058223412525
256,192,94476,2,0,L|320:192,1,35.1058223412525
256,192,94476,2,0,L|320:192,1,35.1058223412525
256,192,94476,2,0,L|320:192,1,35.1058223412525
256,192,94476,2,0,L|320:192,1,35.1058223412525
256,192,94476,2,0,L|320:192,1,35.1058223412525
256,192,94476,2,0,L|320:192,1,35.1058223412525
256,192,94476,2,0,L|320:192,1,35.1058223412525
256,192,94476,2,0,L|320:192,1,35.1058223412525
256,192,94476,2,0,L|320:192,1,35.1058223412525
256,192,94476,2,0,L|320:192,1,35.1058223412525
256,192,94476,2,0,L|320:192,1,35.1058223412525
256,192,94476,2,0,L|320:192,1,35.1058223412525
256,192,94476,2,0,L|320:192,1,35.1058223412525
256,192,94476,2,0,L|320:192,1,35.1058223412525
256,192,94476,2,0,L|320:192,1,35.1058223412525
256,192,94495,2,0,L|320:192,1,35.1058223412525
256,192,94496,2,0,L|320:192,1,35.1058223412525
256,192,94496,2,0,L|320:192,1,35.1058223412525
256,192,94496,2,0,L|320:192,1,35.1058223412525
256,192,94496,2,0,L|320:192,1,35.1058223412525
256,192,94496,2,0,L|320:192,1,35.1058223412525
256,192,94496,2,0,L|320:192,1,35.1058223412525
256,192,94496,2,0,L|320:192,1,35.1058223412525
256,192,94496,2,0,L|320:192,1,35.1058223412525
256,192,94496,2,0,L|320:192,1,35.1058223412525
256,192,94496,2,0,L|320:192,1,35.1058223412525
256,192,94496,2,0,L|320:192,1,35.1058223412525
256,192,94496,2,0,L|320:192,1,35.1058223412525
256,192,94496,2,0,L|320:192,1,35.1058223412525
256,192,94496,2,0,L|320:192,1,35.1058223412525
256,192,94496,2,0,L|320:192,1,35.1058223412525
256,192,94516,2,0,L|320:192,1,35.1058223412525
256,192,94517,2,0,L|320:192,1,35.1058223412525
256,192,94537,2,0,L|320:192,1,35.1058223412525
256,192,94537,2,0,L|320:192,1,35.1058223412525
256,192,94537,2,0,L|320:192,1,35.1058223412525
256,192,94537,2,0,L|320:192,1,35.1058223412525
256,192,94537,2,0,L|320:192,1,35.1058223412525
256,192,94537,2,0,L|320:192,1,35.1058223412525
256,192,94537,2,0,L|320:192,1,35.1058223412525
256,192,94537,2,0,L|320:192,1,35.1058223412525
256,192,94537,2,0,L|320:192,1,35.1058223412525
256,192,94537,2,0,L|320:192,1,35.1058223412525
256,192,94557,2,0,L|320:192,1,35.1058223412525
256,192,94557,2,0,L|320:192,1,35.1058223412525
256,192,94557,2,0,L|320:192,1,35.1058223412525
256,192,94557,2,0,L|320:192,1,35.1058223412525
256,192,94557,2,0,L|320:192,1,35.1058223412525
256,192,94557,2,0,L|320:192,1,35.1058223412525
256,192,94557,2,0,L|320:192,1,35.1058223412525
256,192,94557,2,0,L|320:192,1,35.1058223412525
256,192,94557,2,0,L|320:192,1,35.1058223412525
256,192,94557,2,0,L|320:192,1,35.1058223412525
256,192,94557,2,0,L|320:192,1,35.1058223412525
256,192,94557,2,0,L|320:192,1,35.1058223412525
256,192,94557,2,0,L|320:192,1,35.1058223412525
256,192,94557,2,0,L|320:192,1,35.1058223412525
256,192,94557,2,0,L|320:192,1,35.1058223412525
256,192,94576,2,0,L|320:192,1,35.1058223412525
256,192,94577,2,0,L|320:192,1,35.1058223412525
256,192,94577,2,0,L|320:192,1,35.1058223412525
256,192,94577,2,0,L|320:192,1,35.1058223412525
256,192,94577,2,0,L|320:192,1,35.1058223412525
256,192,94577,2,0,L|320:192,1,35.1058223412525
256,192,94577,2,0,L|320:192,1,35.1058223412525
256,192,94577,2,0,L|320:192,1,35.1058223412525
256,192,94577,2,0,L|320:192,1,35.1058223412525
256,192,94577,2,0,L|320:192,1,35.1058223412525
256,192,94577,2,0,L|320:192,1,35.1058223412525
256,192,94577,2,0,L|320:192,1,35.1058223412525
256,192,94577,2,0,L|320:192,1,35.1058223412525
256,192,94577,2,0,L|320:192,1,35.1058223412525
256,192,94577,2,0,L|320:192,1,35.1058223412525
256,192,94577,2,0,L|320:192,1,35.1058223412525
256,192,94597,2,0,L|320:192,1,35.1058223412525
256,192,94598,2,0,L|320:192,1,35.1058223412525
256,192,94618,2,0,L|320:192,1,35.1058223412525
256,192,94618,2,0,L|320:192,1,35.1058223412525
256,192,94618,2,0,L|320:192,1,35.1058223412525
256,192,94618,2,0,L|320:192,1,35.1058223412525
256,192,94618,2,0,L|320:192,1,35.1058223412525
256,192,94618,2,0,L|320:192,1,35.1058223412525
256,192,94618,2,0,L|320:192,1,35.1058223412525
256,192,94618,2,0,L|320:192,1,35.1058223412525
256,192,94618,2,0,L|320:192,1,35.1058223412525
256,192,94618,2,0,L|320:192,1,35.1058223412525
256,192,94637,2,0,L|320:192,1,35.1058223412525
256,192,94638,2,0,L|320:192,1,35.1058223412525
256,192,94638,2,0,L|320:192,1,35.1058223412525
256,192,94638,2,0,L|320:192,1,35.1058223412525
256,192,94638,2,0,L|320:192,1,35.1058223412525
256,192,94638,2,0,L|320:192,1,35.1058223412525
256,192,94638,2,0,L|320:192,1,35.1058223412525
256,192,94638,2,0,L|320:192,1,35.1058223412525
256,192,94638,2,0,L|320:192,1,35.1058223412525
256,192,94638,2,0,L|320:192,1,35.1058223412525
256,192,94638,2,0,L|320:192,1,35.1058223412525
256,192,94638,2,0,L|320:192,1,35.1058223412525
256,192,94638,2,0,L|320:192,1,35.1058223412525
256,192,94638,2,0,L|320:192,1,35.1058223412525
256,192,94658,2,0,L|320:192,1,35.1058223412525
256,192,94659,2,0,L|320:192,1,35.1058223412525
256,192,94679,2,0,L|320:192,1,35.1058223412525
256,192,94679,2,0,L|320:192,1,35.1058223412525
256,192,94679,2,0,L|320:192,1,35.1058223412525
256,192,94679,2,0,L|320:192,1,35.1058223412525
256,192,94679,2,0,L|320:192,1,35.1058223412525
256,192,94679,2,0,L|320:192,1,35.1058223412525
256,192,94679,2,0,L|320:192,1,35.1058223412525
256,192,94679,2,0,L|320:192,1,35.1058223412525
256,192,94679,2,0,L|320:192,1,35.1058223412525
256,192,94679,2,0,L|320:192,1,35.1058223412525
256,192,94699,2,0,L|320:192,1,35.1058223412525
256,192,94699,2,0,L|320:192,1,35.1058223412525
256,192,94699,2,0,L|320:192,1,35.1058223412525
256,192,94699,2,0,L|320:192,1,35.1058223412525
256,192,94699,2,0,L|320:192,1,35.1058223412525
256,192,94699,2,0,L|320:192,1,35.1058223412525
256,192,94699,2,0,L|320:192,1,35.1058223412525
256,192,94699,2,0,L|320:192,1,35.1058223412525
256,192,94699,2,0,L|320:192,1,35.1058223412525
256,192,94699,2,0,L|320:192,1,35.1058223412525
256,192,94699,2,0,L|320:192,1,35.1058223412525
256,192,94699,2,0,L|320:192,1,35.1058223412525
256,192,94699,2,0,L|320:192,1,35.1058223412525
256,192,94699,2,0,L|320:192,1,35.1058223412525
256,192,94699,2,0,L|320:192,1,35.1058223412525
256,192,94718,2,0,L|320:192,1,35.1058223412525
256,192,94719,2,0,L|320:192,1,35.1058223412525
256,192,94719,2,0,L|320:192,1,35.1058223412525
256,192,94719,2,0,L|320:192,1,35.1058223412525
256,192,94719,2,0,L|320:192,1,35.1058223412525
256,192,94719,2,0,L|320:192,1,35.1058223412525
256,192,94719,2,0,L|320:192,1,35.1058223412525
256,192,94719,2,0,L|320:192,1,35.1058223412525
256,192,94719,2,0,L|320:192,1,35.1058223412525
256,192,94719,2,0,L|320:192,1,35.1058223412525
256,192,94719,2,0,L|320:192,1,35.1058223412525
256,192,94719,2,0,L|320:192,1,35.1058223412525
256,192,94719,2,0,L|320:192,1,35.1058223412525
256,192,94719,2,0,L|320:192,1,35.1058223412525
256,192,94719,2,0,L|320:192,1,35.1058223412525
256,192,94719,2,0,L|320:192,1,35.1058223412525
256,192,94719,2,0,L|320:192,1,35.1058223412525
256,192,94719,2,0,L|320:192,1,35.1058223412525
256,192,94739,2,0,L|320:192,1,35.1058223412525
256,192,94739,2,0,L|320:192,1,35.1058223412525
256,192,94739,2,0,L|320:192,1,35.1058223412525
256,192,94739,2,0,L|320:192,1,35.1058223412525
256,192,94739,2,0,L|320:192,1,35.1058223412525
256,192,94739,2,0,L|320:192,1,35.1058223412525
256,192,94739,2,0,L|320:192,1,35.1058223412525
256,192,94739,2,0,L|320:192,1,35.1058223412525
256,192,94739,2,0,L|320:192,1,35.1058223412525
256,192,94739,2,0,L|320:192,1,35.1058223412525
256,192,94739,2,0,L|320:192,1,35.1058223412525
256,192,94739,2,0,L|320:192,1,35.1058223412525
256,192,94739,2,0,L|320:192,1,35.1058223412525
256,192,94739,2,0,L|320:192,1,35.1058223412525
256,192,94739,2,0,L|320:192,1,35.1058223412525
256,192,94739,2,0,L|320:192,1,35.1058223412525
256,192,94739,2,0,L|320:192,1,35.1058223412525
256,192,94740,2,0,L|320:192,1,35.1058223412525
256,192,94759,2,0,L|320:192,1,35.1058223412525
256,192,94759,2,0,L|320:192,1,35.1058223412525
256,192,94759,2,0,L|320:192,1,35.1058223412525
256,192,94759,2,0,L|320:192,1,35.1058223412525
256,192,94759,2,0,L|320:192,1,35.1058223412525
256,192,94759,2,0,L|320:192,1,35.1058223412525
256,192,94759,2,0,L|320:192,1,35.1058223412525
256,192,94759,2,0,L|320:192,1,35.1058223412525
256,192,94760,2,0,L|320:192,1,35.1058223412525
256,192,94760,2,0,L|320:192,1,35.1058223412525
256,192,94760,2,0,L|320:192,1,35.1058223412525
256,192,94760,2,0,L|320:192,1,35.1058223412525
256,192,94760,2,0,L|320:192,1,35.1058223412525
256,192,94760,2,0,L|320:192,1,35.1058223412525
256,192,94760,2,0,L|320:192,1,35.1058223412525
256,192,94760,2,0,L|320:192,1,35.1058223412525
256,192,94760,2,0,L|320:192,1,35.1058223412525
256,192,94760,2,0,L|320:192,1,35.1058223412525
256,192,94779,2,0,L|320:192,1,35.1058223412525
256,192,94779,2,0,L|320:192,1,35.1058223412525
256,192,94779,2,0,L|320:192,1,35.1058223412525
256,192,94780,2,0,L|320:192,1,35.1058223412525
256,192,94780,2,0,L|320:192,1,35.1058223412525
256,192,94780,2,0,L|320:192,1,35.1058223412525
256,192,94780,2,0,L|320:192,1,35.1058223412525
256,192,94780,2,0,L|320:192,1,35.1058223412525
256,192,94780,2,0,L|320:192,1,35.1058223412525
256,192,94780,2,0,L|320:192,1,35.1058223412525
256,192,94780,2,0,L|320:192,1,35.1058223412525
256,192,94780,2,0,L|320:192,1,35.1058223412525
256,192,94780,2,0,L|320:192,1,35.1058223412525
256,192,94780,2,0,L|320:192,1,35.1058223412525
256,192,94780,2,0,L|320:192,1,35.1058223412525
256,192,94780,2,0,L|320:192,1,35.1058223412525
256,192,94780,2,0,L|320:192,1,35.1058223412525
256,192,94780,2,0,L|320:192,1,35.1058223412525
256,192,94799,2,0,L|320:192,1,35.1058223412525
256,192,94800,2,0,L|320:192,1,35.1058223412525
256,192,94800,2,0,L|320:192,1,35.1058223412525
256,192,94800,2,0,L|320:192,1,35.1058223412525
256,192,94800,2,0,L|320:192,1,35.1058223412525
256,192,94800,2,0,L|320:192,1,35.1058223412525
256,192,94800,2,0,L|320:192,1,35.1058223412525
256,192,94800,2,0,L|320:192,1,35.1058223412525
256,192,94800,2,0,L|320:192,1,35.1058223412525
256,192,94800,2,0,L|320:192,1,35.1058223412525
256,192,94800,2,0,L|320:192,1,35.1058223412525
256,192,94800,2,0,L|320:192,1,35.1058223412525
256,192,94800,2,0,L|320:192,1,35.1058223412525
256,192,94800,2,0,L|320:192,1,35.1058223412525
256,192,94800,2,0,L|320:192,1,35.1058223412525
256,192,94800,2,0,L|320:192,1,35.1058223412525
256,192,94800,2,0,L|320:192,1,35.1058223412525
256,192,94800,2,0,L|320:192,1,35.1058223412525
256,192,94819,2,0,L|320:192,1,35.1058223412525
256,192,94820,2,0,L|320:192,1,35.1058223412525
256,192,94820,2,0,L|320:192,1,35.1058223412525
256,192,94820,2,0,L|320:192,1,35.1058223412525
256,192,94820,2,0,L|320:192,1,35.1058223412525
256,192,94820,2,0,L|320:192,1,35.1058223412525
256,192,94820,2,0,L|320:192,1,35.1058223412525
256,192,94820,2,0,L|320:192,1,35.1058223412525
256,192,94820,2,0,L|320:192,1,35.1058223412525
256,192,94820,2,0,L|320:192,1,35.1058223412525
256,192,94820,2,0,L|320:192,1,35.1058223412525
256,192,94820,2,0,L|320:192,1,35.1058223412525
256,192,94820,2,0,L|320:192,1,35.1058223412525
256,192,94820,2,0,L|320:192,1,35.1058223412525
256,192,94820,2,0,L|320:192,1,35.1058223412525
256,192,94820,2,0,L|320:192,1,35.1058223412525
256,192,94820,2,0,L|320:192,1,35.1058223412525
256,192,94820,2,0,L|320:192,1,35.1058223412525
256,192,94839,2,0,L|320:192,1,35.1058223412525
256,192,94840,2,0,L|320:192,1,35.1058223412525
256,192,94840,2,0,L|320:192,1,35.1058223412525
256,192,94840,2,0,L|320:192,1,35.1058223412525
256,192,94840,2,0,L|320:192,1,35.1058223412525
256,192,94840,2,0,L|320:192,1,35.1058223412525
256,192,94840,2,0,L|320:192,1,35.1058223412525
256,192,94840,2,0,L|320:192,1,35.1058223412525
256,192,94840,2,0,L|320:192,1,35.1058223412525
256,192,94840,2,0,L|320:192,1,35.1058223412525
256,192,94840,2,0,L|320:192,1,35.1058223412525
256,192,94840,2,0,L|320:192,1,35.1058223412525
256,192,94840,2,0,L|320:192,1,35.1058223412525
256,192,94840,2,0,L|320:192,1,35.1058223412525
256,192,94840,2,0,L|320:192,1,35.1058223412525
256,192,94840,2,0,L|320:192,1,35.1058223412525
256,192,94840,2,0,L|320:192,1,35.1058223412525
256,192,94840,2,0,L|320:192,1,35.1058223412525
256,192,94859,2,0,L|320:192,1,35.1058223412525
256,192,94860,2,0,L|320:192,1,35.1058223412525
256,192,94860,2,0,L|320:192,1,35.1058223412525
256,192,94860,2,0,L|320:192,1,35.1058223412525
256,192,94860,2,0,L|320:192,1,35.1058223412525
256,192,94860,2,0,L|320:192,1,35.1058223412525
256,192,94860,2,0,L|320:192,1,35.1058223412525
256,192,94860,2,0,L|320:192,1,35.1058223412525
256,192,94860,2,0,L|320:192,1,35.1058223412525
256,192,94860,2,0,L|320:192,1,35.1058223412525
256,192,94860,2,0,L|320:192,1,35.1058223412525
256,192,94860,2,0,L|320:192,1,35.1058223412525
256,192,94860,2,0,L|320:192,1,35.1058223412525
256,192,94860,2,0,L|320:192,1,35.1058223412525
256,192,94860,2,0,L|320:192,1,35.1058223412525
256,192,94860,2,0,L|320:192,1,35.1058223412525
256,192,94860,2,0,L|320:192,1,35.1058223412525
256,192,94860,2,0,L|320:192,1,35.1058223412525
256,192,94880,2,0,L|320:192,1,35.1058223412525
256,192,94880,2,0,L|320:192,1,35.1058223412525
256,192,94880,2,0,L|320:192,1,35.1058223412525
256,192,94880,2,0,L|320:192,1,35.1058223412525
256,192,94880,2,0,L|320:192,1,35.1058223412525
256,192,94880,2,0,L|320:192,1,35.1058223412525
256,192,94880,2,0,L|320:192,1,35.1058223412525
256,192,94880,2,0,L|320:192,1,35.1058223412525
256,192,94880,2,0,L|320:192,1,35.1058223412525
256,192,94880,2,0,L|320:192,1,35.1058223412525
256,192,94880,2,0,L|320:192,1,35.1058223412525
256,192,94880,2,0,L|320:192,1,35.1058223412525
256,192,94880,2,0,L|320:192,1,35.1058223412525
256,192,94880,2,0,L|320:192,1,35.1058223412525
256,192,94880,2,0,L|320:192,1,35.1058223412525
256,192,94880,2,0,L|320:192,1,35.1058223412525
256,192,94880,2,0,L|320:192,1,35.1058223412525
256,192,94881,2,0,L|320:192,1,35.1058223412525
256,192,94900,2,0,L|320:192,1,35.1058223412525
256,192,94900,2,0,L|320:192,1,35.1058223412525
256,192,94900,2,0,L|320:192,1,35.1058223412525
256,192,94900,2,0,L|320:192,1,35.1058223412525
256,192,94900,2,0,L|320:192,1,35.1058223412525
256,192,94900,2,0,L|320:192,1,35.1058223412525
256,192,94900,2,0,L|320:192,1,35.1058223412525
256,192,94900,2,0,L|320:192,1,35.1058223412525
256,192,94901,2,0,L|320:192,1,35.1058223412525
256,192,94901,2,0,L|320:192,1,35.1058223412525
256,192,94901,2,0,L|320:192,1,35.1058223412525
256,192,94901,2,0,L|320:192,1,35.1058223412525
256,192,94901,2,0,L|320:192,1,35.1058223412525
256,192,94901,2,0,L|320:192,1,35.1058223412525
256,192,94901,2,0,L|320:192,1,35.1058223412525
256,192,94901,2,0,L|320:192,1,35.1058223412525
256,192,94901,2,0,L|320:192,1,35.1058223412525
256,192,94901,2,0,L|320:192,1,35.1058223412525
256,192,94920,2,0,L|320:192,1,35.1058223412525
256,192,94920,2,0,L|320:192,1,35.1058223412525
256,192,94920,2,0,L|320:192,1,35.1058223412525
256,192,94921,2,0,L|320:192,1,35.1058223412525
256,192,94921,2,0,L|320:192,1,35.1058223412525
256,192,94921,2,0,L|320:192,1,35.1058223412525
256,192,94921,2,0,L|320:192,1,35.1058223412525
256,192,94921,2,0,L|320:192,1,35.1058223412525
256,192,94921,2,0,L|320:192,1,35.1058223412525
256,192,94921,2,0,L|320:192,1,35.1058223412525
256,192,94921,2,0,L|320:192,1,35.1058223412525
256,192,94921,2,0,L|320:192,1,35.1058223412525
256,192,94921,2,0,L|320:192,1,35.1058223412525
256,192,94921,2,0,L|320:192,1,35.1058223412525
256,192,94921,2,0,L|320:192,1,35.1058223412525
256,192,94921,2,0,L|320:192,1,35.1058223412525
256,192,94921,2,0,L|320:192,1,35.1058223412525
256,192,94921,2,0,L|320:192,1,35.1058223412525
256,192,94941,2,0,L|320:192,1,35.1058223412525
256,192,94941,2,0,L|320:192,1,35.1058223412525
256,192,94941,2,0,L|320:192,1,35.1058223412525
256,192,94941,2,0,L|320:192,1,35.1058223412525
256,192,94941,2,0,L|320:192,1,35.1058223412525
256,192,94941,2,0,L|320:192,1,35.1058223412525
256,192,94941,2,0,L|320:192,1,35.1058223412525
256,192,94941,2,0,L|320:192,1,35.1058223412525
256,192,94941,2,0,L|320:192,1,35.1058223412525
256,192,94941,2,0,L|320:192,1,35.1058223412525
256,192,94941,2,0,L|320:192,1,35.1058223412525
256,192,94941,2,0,L|320:192,1,35.1058223412525
256,192,94941,2,0,L|320:192,1,35.1058223412525
256,192,94941,2,0,L|320:192,1,35.1058223412525
256,192,94941,2,0,L|320:192,1,35.1058223412525
256,192,94941,2,0,L|320:192,1,35.1058223412525
256,192,94941,2,0,L|320:192,1,35.1058223412525
256,192,94942,2,0,L|320:192,1,35.1058223412525
256,192,94961,2,0,L|320:192,1,35.1058223412525
256,192,94961,2,0,L|320:192,1,35.1058223412525
256,192,94961,2,0,L|320:192,1,35.1058223412525
256,192,94961,2,0,L|320:192,1,35.1058223412525
256,192,94961,2,0,L|320:192,1,35.1058223412525
256,192,94961,2,0,L|320:192,1,35.1058223412525
256,192,94961,2,0,L|320:192,1,35.1058223412525
256,192,94961,2,0,L|320:192,1,35.1058223412525
256,192,94962,2,0,L|320:192,1,35.1058223412525
256,192,94962,2,0,L|320:192,1,35.1058223412525
256,192,94962,2,0,L|320:192,1,35.1058223412525
256,192,94962,2,0,L|320:192,1,35.1058223412525
256,192,94962,2,0,L|320:192,1,35.1058223412525
256,192,94962,2,0,L|320:192,1,35.1058223412525
256,192,94962,2,0,L|320:192,1,35.1058223412525
256,192,94962,2,0,L|320:192,1,35.1058223412525
256,192,94962,2,0,L|320:192,1,35.1058223412525
256,192,94962,2,0,L|320:192,1,35.1058223412525
256,192,94981,2,0,L|320:192,1,35.1058223412525
256,192,94981,2,0,L|320:192,1,35.1058223412525
256,192,94981,2,0,L|320:192,1,35.1058223412525
256,192,94982,2,0,L|320:192,1,35.1058223412525
256,192,94982,2,0,L|320:192,1,35.1058223412525
256,192,94982,2,0,L|320:192,1,35.1058223412525
256,192,94982,2,0,L|320:192,1,35.1058223412525
256,192,94982,2,0,L|320:192,1,35.1058223412525
256,192,94982,2,0,L|320:192,1,35.1058223412525
256,192,94982,2,0,L|320:192,1,35.1058223412525
256,192,94982,2,0,L|320:192,1,35.1058223412525
256,192,94982,2,0,L|320:192,1,35.1058223412525
256,192,94982,2,0,L|320:192,1,35.1058223412525
256,192,94982,2,0,L|320:192,1,35.1058223412525
256,192,94982,2,0,L|320:192,1,35.1058223412525
256,192,94982,2,0,L|320:192,1,35.1058223412525
256,192,94982,2,0,L|320:192,1,35.1058223412525
256,192,94982,2,0,L|320:192,1,35.1058223412525
256,192,95001,2,0,L|320:192,1,35.1058223412525
256,192,95002,2,0,L|320:192,1,35.1058223412525
256,192,95002,2,0,L|320:192,1,35.1058223412525
256,192,95002,2,0,L|320:192,1,35.1058223412525
256,192,95002,2,0,L|320:192,1,35.1058223412525
256,192,95002,2,0,L|320:192,1,35.1058223412525
256,192,95002,2,0,L|320:192,1,35.1058223412525
256,192,95002,2,0,L|320:192,1,35.1058223412525
256,192,95002,2,0,L|320:192,1,35.1058223412525
256,192,95002,2,0,L|320:192,1,35.1058223412525
256,192,95002,2,0,L|320:192,1,35.1058223412525
256,192,95002,2,0,L|320:192,1,35.1058223412525
256,192,95002,2,0,L|320:192,1,35.1058223412525
256,192,95002,2,0,L|320:192,1,35.1058223412525
256,192,95002,2,0,L|320:192,1,35.1058223412525
256,192,95002,2,0,L|320:192,1,35.1058223412525
256,192,95002,2,0,L|320:192,1,35.1058223412525
256,192,95002,2,0,L|320:192,1,35.1058223412525
256,192,95022,2,0,L|320:192,1,35.1058223412525
256,192,95022,2,0,L|320:192,1,35.1058223412525
256,192,95022,2,0,L|320:192,1,35.1058223412525
256,192,95022,2,0,L|320:192,1,35.1058223412525
256,192,95022,2,0,L|320:192,1,35.1058223412525
256,192,95022,2,0,L|320:192,1,35.1058223412525
256,192,95022,2,0,L|320:192,1,35.1058223412525
256,192,95022,2,0,L|320:192,1,35.1058223412525
256,192,95022,2,0,L|320:192,1,35.1058223412525
256,192,95022,2,0,L|320:192,1,35.1058223412525
256,192,95022,2,0,L|320:192,1,35.1058223412525
256,192,95022,2,0,L|320:192,1,35.1058223412525
256,192,95022,2,0,L|320:192,1,35.1058223412525
256,192,95022,2,0,L|320:192,1,35.1058223412525
256,192,95022,2,0,L|320:192,1,35.1058223412525
256,192,95022,2,0,L|320:192,1,35.1058223412525
256,192,95022,2,0,L|320:192,1,35.1058223412525
256,192,95023,2,0,L|320:192,1,35.1058223412525
256,192,95042,2,0,L|320:192,1,35.1058223412525
256,192,95042,2,0,L|320:192,1,35.1058223412525
256,192,95042,2,0,L|320:192,1,35.1058223412525
256,192,95042,2,0,L|320:192,1,35.1058223412525
256,192,95042,2,0,L|320:192,1,35.1058223412525
256,192,95042,2,0,L|320:192,1,35.1058223412525
256,192,95042,2,0,L|320:192,1,35.1058223412525
256,192,95042,2,0,L|320:192,1,35.1058223412525
256,192,95043,2,0,L|320:192,1,35.1058223412525
256,192,95043,2,0,L|320:192,1,35.1058223412525
256,192,95043,2,0,L|320:192,1,35.1058223412525
256,192,95043,2,0,L|320:192,1,35.1058223412525
256,192,95043,2,0,L|320:192,1,35.1058223412525
256,192,95043,2,0,L|320:192,1,35.1058223412525
256,192,95043,2,0,L|320:192,1,35.1058223412525
256,192,95043,2,0,L|320:192,1,35.1058223412525
256,192,95043,2,0,L|320:192,1,35.1058223412525
256,192,95043,2,0,L|320:192,1,35.1058223412525
256,192,95062,2,0,L|320:192,1,35.1058223412525
256,192,95062,2,0,L|320:192,1,35.1058223412525
256,192,95062,2,0,L|320:192,1,35.1058223412525
256,192,95063,2,0,L|320:192,1,35.1058223412525
256,192,95063,2,0,L|320:192,1,35.1058223412525
256,192,95063,2,0,L|320:192,1,35.1058223412525
256,192,95063,2,0,L|320:192,1,35.1058223412525
256,192,95063,2,0,L|320:192,1,35.1058223412525
256,192,95063,2,0,L|320:192,1,35.1058223412525
256,192,95063,2,0,L|320:192,1,35.1058223412525
256,192,95063,2,0,L|320:192,1,35.1058223412525
256,192,95063,2,0,L|320:192,1,35.1058223412525
256,192,95063,2,0,L|320:192,1,35.1058223412525
256,192,95063,2,0,L|320:192,1,35.1058223412525
256,192,95063,2,0,L|320:192,1,35.1058223412525
256,192,95063,2,0,L|320:192,1,35.1058223412525
256,192,95063,2,0,L|320:192,1,35.1058223412525
256,192,95063,2,0,L|320:192,1,35.1058223412525
256,192,95082,2,0,L|320:192,1,35.1058223412525
256,192,95083,2,0,L|320:192,1,35.1058223412525
256,192,95083,2,0,L|320:192,1,35.1058223412525
256,192,95083,2,0,L|320:192,1,35.1058223412525
256,192,95083,2,0,L|320:192,1,35.1058223412525
256,192,95083,2,0,L|320:192,1,35.1058223412525
256,192,95083,2,0,L|320:192,1,35.1058223412525
256,192,95083,2,0,L|320:192,1,35.1058223412525
256,192,95083,2,0,L|320:192,1,35.1058223412525
256,192,95083,2,0,L|320:192,1,35.1058223412525
256,192,95083,2,0,L|320:192,1,35.1058223412525
256,192,95083,2,0,L|320:192,1,35.1058223412525
256,192,95083,2,0,L|320:192,1,35.1058223412525
256,192,95083,2,0,L|320:192,1,35.1058223412525
256,192,95083,2,0,L|320:192,1,35.1058223412525
256,192,95083,2,0,L|320:192,1,35.1058223412525
256,192,95083,2,0,L|320:192,1,35.1058223412525
256,192,95083,2,0,L|320:192,1,35.1058223412525
256,192,95103,2,0,L|320:192,1,35.1058223412525
256,192,95103,2,0,L|320:192,1,35.1058223412525
256,192,95103,2,0,L|320:192,1,35.1058223412525
256,192,95103,2,0,L|320:192,1,35.1058223412525
256,192,95103,2,0,L|320:192,1,35.1058223412525
256,192,95103,2,0,L|320:192,1,35.1058223412525
256,192,95103,2,0,L|320:192,1,35.1058223412525
256,192,95103,2,0,L|320:192,1,35.1058223412525
256,192,95103,2,0,L|320:192,1,35.1058223412525
256,192,95103,2,0,L|320:192,1,35.1058223412525
256,192,95103,2,0,L|320:192,1,35.1058223412525
256,192,95103,2,0,L|320:192,1,35.1058223412525
256,192,95103,2,0,L|320:192,1,35.1058223412525
256,192,95103,2,0,L|320:192,1,35.1058223412525
256,192,95103,2,0,L|320:192,1,35.1058223412525
256,192,95103,2,0,L|320:192,1,35.1058223412525
256,192,95103,2,0,L|320:192,1,35.1058223412525
256,192,95104,2,0,L|320:192,1,35.1058223412525
256,192,95123,2,0,L|320:192,1,35.1058223412525
256,192,95123,2,0,L|320:192,1,35.1058223412525
256,192,95123,2,0,L|320:192,1,35.1058223412525
256,192,95123,2,0,L|320:192,1,35.1058223412525
256,192,95123,2,0,L|320:192,1,35.1058223412525
256,192,95123,2,0,L|320:192,1,35.1058223412525
256,192,95123,2,0,L|320:192,1,35.1058223412525
256,192,95123,2,0,L|320:192,1,35.1058223412525
256,192,95124,2,0,L|320:192,1,35.1058223412525
256,192,95124,2,0,L|320:192,1,35.1058223412525
256,192,95124,2,0,L|320:192,1,35.1058223412525
256,192,95124,2,0,L|320:192,1,35.1058223412525
256,192,95124,2,0,L|320:192,1,35.1058223412525
256,192,95124,2,0,L|320:192,1,35.1058223412525
256,192,95124,2,0,L|320:192,1,35.1058223412525
256,192,95124,2,0,L|320:192,1,35.1058223412525
256,192,95124,2,0,L|320:192,1,35.1058223412525
256,192,95124,2,0,L|320:192,1,35.1058223412525
256,192,95143,2,0,L|320:192,1,35.1058223412525
256,192,95143,2,0,L|320:192,1,35.1058223412525
256,192,95143,2,0,L|320:192,1,35.1058223412525
256,192,95144,2,0,L|320:192,1,35.1058223412525
256,192,95144,2,0,L|320:192,1,35.1058223412525
256,192,95144,2,0,L|320:192,1,35.1058223412525
256,192,95144,2,0,L|320:192,1,35.1058223412525
256,192,95144,2,0,L|320:192,1,35.1058223412525
256,192,95144,2,0,L|320:192,1,35.1058223412525
256,192,95144,2,0,L|320:192,1,35.1058223412525
256,192,95144,2,0,L|320:192,1,35.1058223412525
256,192,95144,2,0,L|320:192,1,35.1058223412525
256,192,95144,2,0,L|320:192,1,35.1058223412525
256,192,95144,2,0,L|320:192,1,35.1058223412525
256,192,95144,2,0,L|320:192,1,35.1058223412525
256,192,95144,2,0,L|320:192,1,35.1058223412525
256,192,95144,2,0,L|320:192,1,35.1058223412525
256,192,95144,2,0,L|320:192,1,35.1058223412525
256,192,95164,2,0,L|320:192,1,35.1058223412525
256,192,95164,2,0,L|320:192,1,35.1058223412525
256,192,95164,2,0,L|320:192,1,35.1058223412525
256,192,95164,2,0,L|320:192,1,35.1058223412525
256,192,95164,2,0,L|320:192,1,35.1058223412525
256,192,95164,2,0,L|320:192,1,35.1058223412525
256,192,95164,2,0,L|320:192,1,35.1058223412525
256,192,95164,2,0,L|320:192,1,35.1058223412525
256,192,95164,2,0,L|320:192,1,35.1058223412525
256,192,95164,2,0,L|320:192,1,35.1058223412525
256,192,95164,2,0,L|320:192,1,35.1058223412525
256,192,95164,2,0,L|320:192,1,35.1058223412525
256,192,95164,2,0,L|320:192,1,35.1058223412525
256,192,95164,2,0,L|320:192,1,35.1058223412525
256,192,95164,2,0,L|320:192,1,35.1058223412525
256,192,95164,2,0,L|320:192,1,35.1058223412525
256,192,95164,2,0,L|320:192,1,35.1058223412525
256,192,95165,2,0,L|320:192,1,35.1058223412525
256,192,95184,2,0,L|320:192,1,35.1058223412525
256,192,95184,2,0,L|320:192,1,35.1058223412525
256,192,95184,2,0,L|320:192,1,35.1058223412525
256,192,95184,2,0,L|320:192,1,35.1058223412525
256,192,95184,2,0,L|320:192,1,35.1058223412525
256,192,95184,2,0,L|320:192,1,35.1058223412525
256,192,95184,2,0,L|320:192,1,35.1058223412525
256,192,95184,2,0,L|320:192,1,35.1058223412525
256,192,95185,2,0,L|320:192,1,35.1058223412525
256,192,95185,2,0,L|320:192,1,35.1058223412525
256,192,95185,2,0,L|320:192,1,35.1058223412525
256,192,95185,2,0,L|320:192,1,35.1058223412525
256,192,95185,2,0,L|320:192,1,35.1058223412525
256,192,95185,2,0,L|320:192,1,35.1058223412525
256,192,95185,2,0,L|320:192,1,35.1058223412525
256,192,95185,2,0,L|320:192,1,35.1058223412525
256,192,95185,2,0,L|320:192,1,35.1058223412525
256,192,95185,2,0,L|320:192,1,35.1058223412525
256,192,95204,2,0,L|320:192,1,35.1058223412525
256,192,95204,2,0,L|320:192,1,35.1058223412525
256,192,95204,2,0,L|320:192,1,35.1058223412525
256,192,95205,2,0,L|320:192,1,35.1058223412525
256,192,95205,2,0,L|320:192,1,35.1058223412525
256,192,95205,2,0,L|320:192,1,35.1058223412525
256,192,95205,2,0,L|320:192,1,35.1058223412525
256,192,95205,2,0,L|320:192,1,35.1058223412525
256,192,95205,2,0,L|320:192,1,35.1058223412525
256,192,95205,2,0,L|320:192,1,35.1058223412525
256,192,95205,2,0,L|320:192,1,35.1058223412525
256,192,95205,2,0,L|320:192,1,35.1058223412525
256,192,95205,2,0,L|320:192,1,35.1058223412525
256,192,95205,2,0,L|320:192,1,35.1058223412525
256,192,95205,2,0,L|320:192,1,35.1058223412525
256,192,95205,2,0,L|320:192,1,35.1058223412525
256,192,95205,2,0,L|320:192,1,35.1058223412525
256,192,95205,2,0,L|320:192,1,35.1058223412525
256,192,95224,2,0,L|320:192,1,35.1058223412525
256,192,95225,2,0,L|320:192,1,35.1058223412525
256,192,95225,2,0,L|320:192,1,35.1058223412525
256,192,95225,2,0,L|320:192,1,35.1058223412525
256,192,95225,2,0,L|320:192,1,35.1058223412525
256,192,95225,2,0,L|320:192,1,35.1058223412525
256,192,95225,2,0,L|320:192,1,35.1058223412525
256,192,95225,2,0,L|320:192,1,35.1058223412525
256,192,95225,2,0,L|320:192,1,35.1058223412525
256,192,95225,2,0,L|320:192,1,35.1058223412525
256,192,95225,2,0,L|320:192,1,35.1058223412525
256,192,95225,2,0,L|320:192,1,35.1058223412525
256,192,95225,2,0,L|320:192,1,35.1058223412525
256,192,95225,2,0,L|320:192,1,35.1058223412525
256,192,95225,2,0,L|320:192,1,35.1058223412525
256,192,95225,2,0,L|320:192,1,35.1058223412525
256,192,95225,2,0,L|320:192,1,35.1058223412525
256,192,95225,2,0,L|320:192,1,35.1058223412525
256,192,95245,2,0,L|320:192,1,35.1058223412525
256,192,95245,2,0,L|320:192,1,35.1058223412525
256,192,95245,2,0,L|320:192,1,35.1058223412525
256,192,95245,2,0,L|320:192,1,35.1058223412525
256,192,95245,2,0,L|320:192,1,35.1058223412525
256,192,95245,2,0,L|320:192,1,35.1058223412525
256,192,95245,2,0,L|320:192,1,35.1058223412525
256,192,95245,2,0,L|320:192,1,35.1058223412525
256,192,95245,2,0,L|320:192,1,35.1058223412525
256,192,95245,2,0,L|320:192,1,35.1058223412525
256,192,95245,2,0,L|320:192,1,35.1058223412525
256,192,95245,2,0,L|320:192,1,35.1058223412525
256,192,95245,2,0,L|320:192,1,35.1058223412525
256,192,95245,2,0,L|320:192,1,35.1058223412525
256,192,95245,2,0,L|320:192,1,35.1058223412525
256,192,95245,2,0,L|320:192,1,35.1058223412525
256,192,95245,2,0,L|320:192,1,35.1058223412525
256,192,95246,2,0,L|320:192,1,35.1058223412525
256,192,95265,2,0,L|320:192,1,35.1058223412525
256,192,95265,2,0,L|320:192,1,35.1058223412525
256,192,95265,2,0,L|320:192,1,35.1058223412525
256,192,95265,2,0,L|320:192,1,35.1058223412525
256,192,95265,2,0,L|320:192,1,35.1058223412525
256,192,95265,2,0,L|320:192,1,35.1058223412525
256,192,95265,2,0,L|320:192,1,35.1058223412525
256,192,95265,2,0,L|320:192,1,35.1058223412525
256,192,95266,2,0,L|320:192,1,35.1058223412525
256,192,95266,2,0,L|320:192,1,35.1058223412525
256,192,95266,2,0,L|320:192,1,35.1058223412525
256,192,95266,2,0,L|320:192,1,35.1058223412525
256,192,95266,2,0,L|320:192,1,35.1058223412525
256,192,95266,2,0,L|320:192,1,35.1058223412525
256,192,95266,2,0,L|320:192,1,35.1058223412525
256,192,95266,2,0,L|320:192,1,35.1058223412525
256,192,95266,2,0,L|320:192,1,35.1058223412525
256,192,95266,2,0,L|320:192,1,35.1058223412525
256,192,95285,2,0,L|320:192,1,35.1058223412525
256,192,95285,2,0,L|320:192,1,35.1058223412525
256,192,95285,2,0,L|320:192,1,35.1058223412525
256,192,95286,2,0,L|320:192,1,35.1058223412525
256,192,95286,2,0,L|320:192,1,35.1058223412525
256,192,95286,2,0,L|320:192,1,35.1058223412525
256,192,95286,2,0,L|320:192,1,35.1058223412525
256,192,95286,2,0,L|320:192,1,35.1058223412525
256,192,95286,2,0,L|320:192,1,35.1058223412525
256,192,95286,2,0,L|320:192,1,35.1058223412525
256,192,95286,2,0,L|320:192,1,35.1058223412525
256,192,95286,2,0,L|320:192,1,35.1058223412525
256,192,95286,2,0,L|320:192,1,35.1058223412525
256,192,95286,2,0,L|320:192,1,35.1058223412525
256,192,95286,2,0,L|320:192,1,35.1058223412525
256,192,95286,2,0,L|320:192,1,35.1058223412525
256,192,95286,2,0,L|320:192,1,35.1058223412525
256,192,95286,2,0,L|320:192,1,35.1058223412525
256,192,95286,2,0,L|320:192,1,35.1058223412525
256,192,95287,2,0,L|320:192,1,35.1058223412525
256,192,95306,2,0,L|320:192,1,35.1058223412525
256,192,95306,2,0,L|320:192,1,35.1058223412525
256,192,95306,2,0,L|320:192,1,35.1058223412525
256,192,95306,2,0,L|320:192,1,35.1058223412525
256,192,95306,2,0,L|320:192,1,35.1058223412525
256,192,95306,2,0,L|320:192,1,35.1058223412525
256,192,95306,2,0,L|320:192,1,35.1058223412525
256,192,95306,2,0,L|320:192,1,35.1058223412525
256,192,95306,2,0,L|320:192,1,35.1058223412525
256,192,95306,2,0,L|320:192,1,35.1058223412525
256,192,95306,2,0,L|320:192,1,35.1058223412525
256,192,95306,2,0,L|320:192,1,35.1058223412525
256,192,95306,2,0,L|320:192,1,35.1058223412525
256,192,95306,2,0,L|320:192,1,35.1058223412525
256,192,95306,2,0,L|320:192,1,35.1058223412525
256,192,95306,2,0,L|320:192,1,35.1058223412525
256,192,95306,2,0,L|320:192,1,35.1058223412525
256,192,95307,2,0,L|320:192,1,35.1058223412525
256,192,95307,2,0,L|320:192,1,35.1058223412525
256,192,95307,2,0,L|320:192,1,35.1058223412525
256,192,95307,2,0,L|320:192,1,35.1058223412525
256,192,95307,2,0,L|320:192,1,35.1058223412525
256,192,95307,2,0,L|320:192,1,35.1058223412525
256,192,95307,2,0,L|320:192,1,35.1058223412525
256,192,95307,2,0,L|320:192,1,35.1058223412525
256,192,95307,2,0,L|320:192,1,35.1058223412525
256,192,95307,2,0,L|320:192,1,35.1058223412525
256,192,95326,2,0,L|320:192,1,35.1058223412525
256,192,95326,2,0,L|320:192,1,35.1058223412525
256,192,95326,2,0,L|320:192,1,35.1058223412525
256,192,95326,2,0,L|320:192,1,35.1058223412525
256,192,95326,2,0,L|320:192,1,35.1058223412525
256,192,95326,2,0,L|320:192,1,35.1058223412525
256,192,95326,2,0,L|320:192,1,35.1058223412525
256,192,95326,2,0,L|320:192,1,35.1058223412525
256,192,95327,2,0,L|320:192,1,35.1058223412525
256,192,95327,2,0,L|320:192,1,35.1058223412525
256,192,95327,2,0,L|320:192,1,35.1058223412525
256,192,95327,2,0,L|320:192,1,35.1058223412525
256,192,95327,2,0,L|320:192,1,35.1058223412525
256,192,95327,2,0,L|320:192,1,35.1058223412525
256,192,95327,2,0,L|320:192,1,35.1058223412525
256,192,95327,2,0,L|320:192,1,35.1058223412525
256,192,95327,2,0,L|320:192,1,35.1058223412525
256,192,95327,2,0,L|320:192,1,35.1058223412525
256,192,95327,2,0,L|320:192,1,35.1058223412525
256,192,95327,2,0,L|320:192,1,35.1058223412525
256,192,95327,2,0,L|320:192,1,35.1058223412525
256,192,95327,2,0,L|320:192,1,35.1058223412525
256,192,95327,2,0,L|320:192,1,35.1058223412525
256,192,95346,2,0,L|320:192,1,35.1058223412525
256,192,95346,2,0,L|320:192,1,35.1058223412525
256,192,95346,2,0,L|320:192,1,35.1058223412525
256,192,95347,2,0,L|320:192,1,35.1058223412525
256,192,95347,2,0,L|320:192,1,35.1058223412525
256,192,95347,2,0,L|320:192,1,35.1058223412525
256,192,95347,2,0,L|320:192,1,35.1058223412525
256,192,95347,2,0,L|320:192,1,35.1058223412525
256,192,95347,2,0,L|320:192,1,35.1058223412525
256,192,95347,2,0,L|320:192,1,35.1058223412525
256,192,95347,2,0,L|320:192,1,35.1058223412525
256,192,95347,2,0,L|320:192,1,35.1058223412525
256,192,95347,2,0,L|320:192,1,35.1058223412525
256,192,95347,2,0,L|320:192,1,35.1058223412525
256,192,95347,2,0,L|320:192,1,35.1058223412525
256,192,95347,2,0,L|320:192,1,35.1058223412525
256,192,95347,2,0,L|320:192,1,35.1058223412525
256,192,95347,2,0,L|320:192,1,35.1058223412525
256,192,95347,2,0,L|320:192,1,35.1058223412525
256,192,95347,2,0,L|320:192,1,35.1058223412525
256,192,95367,2,0,L|320:192,1,35.1058223412525
256,192,95367,2,0,L|320:192,1,35.1058223412525
256,192,95367,2,0,L|320:192,1,35.1058223412525
256,192,95367,2,0,L|320:192,1,35.1058223412525
256,192,95367,2,0,L|320:192,1,35.1058223412525
256,192,95367,2,0,L|320:192,1,35.1058223412525
256,192,95367,2,0,L|320:192,1,35.1058223412525
256,192,95367,2,0,L|320:192,1,35.1058223412525
256,192,95367,2,0,L|320:192,1,35.1058223412525
256,192,95367,2,0,L|320:192,1,35.1058223412525
256,192,95367,2,0,L|320:192,1,35.1058223412525
256,192,95367,2,0,L|320:192,1,35.1058223412525
256,192,95367,2,0,L|320:192,1,35.1058223412525
256,192,95367,2,0,L|320:192,1,35.1058223412525
256,192,95367,2,0,L|320:192,1,35.1058223412525
256,192,95367,2,0,L|320:192,1,35.1058223412525
256,192,95367,2,0,L|320:192,1,35.1058223412525
256,192,95368,2,0,L|320:192,1,35.1058223412525
256,192,95387,2,0,L|320:192,1,35.1058223412525
256,192,95387,2,0,L|320:192,1,35.1058223412525
256,192,95387,2,0,L|320:192,1,35.1058223412525
256,192,95387,2,0,L|320:192,1,35.1058223412525
256,192,95387,2,0,L|320:192,1,35.1058223412525
256,192,95387,2,0,L|320:192,1,35.1058223412525
256,192,95387,2,0,L|320:192,1,35.1058223412525
256,192,95387,2,0,L|320:192,1,35.1058223412525
256,192,95388,2,0,L|320:192,1,35.1058223412525
256,192,95388,2,0,L|320:192,1,35.1058223412525
256,192,95388,2,0,L|320:192,1,35.1058223412525
256,192,95388,2,0,L|320:192,1,35.1058223412525
256,192,95388,2,0,L|320:192,1,35.1058223412525
256,192,95388,2,0,L|320:192,1,35.1058223412525
256,192,95388,2,0,L|320:192,1,35.1058223412525
256,192,95388,2,0,L|320:192,1,35.1058223412525
256,192,95388,2,0,L|320:192,1,35.1058223412525
256,192,95388,2,0,L|320:192,1,35.1058223412525
256,192,95407,2,0,L|320:192,1,35.1058223412525
256,192,95407,2,0,L|320:192,1,35.1058223412525
256,192,95407,2,0,L|320:192,1,35.1058223412525
256,192,95408,2,0,L|320:192,1,35.1058223412525
256,192,95408,2,0,L|320:192,1,35.1058223412525
256,192,95408,2,0,L|320:192,1,35.1058223412525
256,192,95408,2,0,L|320:192,1,35.1058223412525
256,192,95408,2,0,L|320:192,1,35.1058223412525
256,192,95408,2,0,L|320:192,1,35.1058223412525
256,192,95408,2,0,L|320:192,1,35.1058223412525
256,192,95408,2,0,L|320:192,1,35.1058223412525
256,192,95408,2,0,L|320:192,1,35.1058223412525
256,192,95408,2,0,L|320:192,1,35.1058223412525
256,192,95408,2,0,L|320:192,1,35.1058223412525
256,192,95408,2,0,L|320:192,1,35.1058223412525
256,192,95408,2,0,L|320:192,1,35.1058223412525
256,192,95408,2,0,L|320:192,1,35.1058223412525
256,192,95408,2,0,L|320:192,1,35.1058223412525
256,192,95428,2,0,L|320:192,1,35.1058223412525
256,192,95428,2,0,L|320:192,1,35.1058223412525
256,192,95428,2,0,L|320:192,1,35.1058223412525
256,192,95428,2,0,L|320:192,1,35.1058223412525
256,192,95428,2,0,L|320:192,1,35.1058223412525
256,192,95428,2,0,L|320:192,1,35.1058223412525
256,192,95428,2,0,L|320:192,1,35.1058223412525
256,192,95428,2,0,L|320:192,1,35.1058223412525
256,192,95428,2,0,L|320:192,1,35.1058223412525
256,192,95428,2,0,L|320:192,1,35.1058223412525
256,192,95428,2,0,L|320:192,1,35.1058223412525
256,192,95428,2,0,L|320:192,1,35.1058223412525
256,192,95428,2,0,L|320:192,1,35.1058223412525
256,192,95428,2,0,L|320:192,1,35.1058223412525
256,192,95428,2,0,L|320:192,1,35.1058223412525
256,192,95428,2,0,L|320:192,1,35.1058223412525
256,192,95428,2,0,L|320:192,1,35.1058223412525
256,192,95429,2,0,L|320:192,1,35.1058223412525
256,192,95448,2,0,L|320:192,1,35.1058223412525
256,192,95448,2,0,L|320:192,1,35.1058223412525
256,192,95448,2,0,L|320:192,1,35.1058223412525
256,192,95448,2,0,L|320:192,1,35.1058223412525
256,192,95448,2,0,L|320:192,1,35.1058223412525
256,192,95448,2,0,L|320:192,1,35.1058223412525
256,192,95448,2,0,L|320:192,1,35.1058223412525
256,192,95448,2,0,L|320:192,1,35.1058223412525
256,192,95449,2,0,L|320:192,1,35.1058223412525
256,192,95449,2,0,L|320:192,1,35.1058223412525
256,192,95449,2,0,L|320:192,1,35.1058223412525
256,192,95449,2,0,L|320:192,1,35.1058223412525
256,192,95449,2,0,L|320:192,1,35.1058223412525
256,192,95449,2,0,L|320:192,1,35.1058223412525
256,192,95449,2,0,L|320:192,1,35.1058223412525
256,192,95449,2,0,L|320:192,1,35.1058223412525
256,192,95449,2,0,L|320:192,1,35.1058223412525
256,192,95449,2,0,L|320:192,1,35.1058223412525
256,192,95468,2,0,L|320:192,1,35.1058223412525
256,192,95468,2,0,L|320:192,1,35.1058223412525
256,192,95468,2,0,L|320:192,1,35.1058223412525
256,192,95469,2,0,L|320:192,1,35.1058223412525
256,192,95469,2,0,L|320:192,1,35.1058223412525
256,192,95469,2,0,L|320:192,1,35.1058223412525
256,192,95469,2,0,L|320:192,1,35.1058223412525
256,192,95469,2,0,L|320:192,1,35.1058223412525
256,192,95469,2,0,L|320:192,1,35.1058223412525
256,192,95469,2,0,L|320:192,1,35.1058223412525
256,192,95469,2,0,L|320:192,1,35.1058223412525
256,192,95469,2,0,L|320:192,1,35.1058223412525
256,192,95469,2,0,L|320:192,1,35.1058223412525
256,192,95469,2,0,L|320:192,1,35.1058223412525
256,192,95469,2,0,L|320:192,1,35.1058223412525
256,192,95469,2,0,L|320:192,1,35.1058223412525
256,192,95469,2,0,L|320:192,1,35.1058223412525
256,192,95469,2,0,L|320:192,1,35.1058223412525
256,192,95488,2,0,L|320:192,1,35.1058223412525
256,192,95489,2,0,L|320:192,1,35.1058223412525
256,192,95489,2,0,L|320:192,1,35.1058223412525
256,192,95489,2,0,L|320:192,1,35.1058223412525
256,192,95489,2,0,L|320:192,1,35.1058223412525
256,192,95489,2,0,L|320:192,1,35.1058223412525
256,192,95489,2,0,L|320:192,1,35.1058223412525
256,192,95489,2,0,L|320:192,1,35.1058223412525
256,192,95489,2,0,L|320:192,1,35.1058223412525
256,192,95489,2,0,L|320:192,1,35.1058223412525
256,192,95489,2,0,L|320:192,1,35.1058223412525
256,192,95489,2,0,L|320:192,1,35.1058223412525
256,192,95489,2,0,L|320:192,1,35.1058223412525
256,192,95489,2,0,L|320:192,1,35.1058223412525
256,192,95489,2,0,L|320:192,1,35.1058223412525
256,192,95489,2,0,L|320:192,1,35.1058223412525
256,192,95489,2,0,L|320:192,1,35.1058223412525
256,192,95489,2,0,L|320:192,1,35.1058223412525
256,192,95509,2,0,L|320:192,1,35.1058223412525
256,192,95509,2,0,L|320:192,1,35.1058223412525
256,192,95509,2,0,L|320:192,1,35.1058223412525
256,192,95509,2,0,L|320:192,1,35.1058223412525
256,192,95509,2,0,L|320:192,1,35.1058223412525
256,192,95509,2,0,L|320:192,1,35.1058223412525
256,192,95509,2,0,L|320:192,1,35.1058223412525
256,192,95509,2,0,L|320:192,1,35.1058223412525
256,192,95509,2,0,L|320:192,1,35.1058223412525
256,192,95509,2,0,L|320:192,1,35.1058223412525
256,192,95509,2,0,L|320:192,1,35.1058223412525
256,192,95509,2,0,L|320:192,1,35.1058223412525
256,192,95509,2,0,L|320:192,1,35.1058223412525
256,192,95509,2,0,L|320:192,1,35.1058223412525
256,192,95509,2,0,L|320:192,1,35.1058223412525
256,192,95509,2,0,L|320:192,1,35.1058223412525
256,192,95509,2,0,L|320:192,1,35.1058223412525
256,192,95510,2,0,L|320:192,1,35.1058223412525
256,192,95529,2,0,L|320:192,1,35.1058223412525
256,192,95529,2,0,L|320:192,1,35.1058223412525
256,192,95529,2,0,L|320:192,1,35.1058223412525
256,192,95529,2,0,L|320:192,1,35.1058223412525
256,192,95529,2,0,L|320:192,1,35.1058223412525
256,192,95529,2,0,L|320:192,1,35.1058223412525
256,192,95529,2,0,L|320:192,1,35.1058223412525
256,192,95529,2,0,L|320:192,1,35.1058223412525
256,192,95530,2,0,L|320:192,1,35.1058223412525
256,192,95530,2,0,L|320:192,1,35.1058223412525
256,192,95530,2,0,L|320:192,1,35.1058223412525
256,192,95530,2,0,L|320:192,1,35.1058223412525
256,192,95530,2,0,L|320:192,1,35.1058223412525
256,192,95530,2,0,L|320:192,1,35.1058223412525
256,192,95530,2,0,L|320:192,1,35.1058223412525
256,192,95530,2,0,L|320:192,1,35.1058223412525
256,192,95530,2,0,L|320:192,1,35.1058223412525
256,192,95530,2,0,L|320:192,1,35.1058223412525
256,192,95549,2,0,L|320:192,1,35.1058223412525
256,192,95549,2,0,L|320:192,1,35.1058223412525
256,192,95549,2,0,L|320:192,1,35.1058223412525
256,192,95550,2,0,L|320:192,1,35.1058223412525
256,192,95550,2,0,L|320:192,1,35.1058223412525
256,192,95550,2,0,L|320:192,1,35.1058223412525
256,192,95550,2,0,L|320:192,1,35.1058223412525
256,192,95550,2,0,L|320:192,1,35.1058223412525
256,192,95550,2,0,L|320:192,1,35.1058223412525
256,192,95550,2,0,L|320:192,1,35.1058223412525
256,192,95550,2,0,L|320:192,1,35.1058223412525
256,192,95550,2,0,L|320:192,1,35.1058223412525
256,192,95550,2,0,L|320:192,1,35.1058223412525
256,192,95550,2,0,L|320:192,1,35.1058223412525
256,192,95550,2,0,L|320:192,1,35.1058223412525
256,192,95550,2,0,L|320:192,1,35.1058223412525
256,192,95550,2,0,L|320:192,1,35.1058223412525
256,192,95550,2,0,L|320:192,1,35.1058223412525
256,192,95569,2,0,L|320:192,1,35.1058223412525
256,192,95570,2,0,L|320:192,1,35.1058223412525
256,192,95570,2,0,L|320:192,1,35.1058223412525
256,192,95570,2,0,L|320:192,1,35.1058223412525
256,192,95570,2,0,L|320:192,1,35.1058223412525
256,192,95570,2,0,L|320:192,1,35.1058223412525
256,192,95570,2,0,L|320:192,1,35.1058223412525
256,192,95570,2,0,L|320:192,1,35.1058223412525
256,192,95570,2,0,L|320:192,1,35.1058223412525
256,192,95570,2,0,L|320:192,1,35.1058223412525
256,192,95570,2,0,L|320:192,1,35.1058223412525
256,192,95570,2,0,L|320:192,1,35.1058223412525
256,192,95570,2,0,L|320:192,1,35.1058223412525
256,192,95570,2,0,L|320:192,1,35.1058223412525
256,192,95570,2,0,L|320:192,1,35.1058223412525
256,192,95570,2,0,L|320:192,1,35.1058223412525
256,192,95570,2,0,L|320:192,1,35.1058223412525
256,192,95570,2,0,L|320:192,1,35.1058223412525
256,192,95590,2,0,L|320:192,1,35.1058223412525
256,192,95590,2,0,L|320:192,1,35.1058223412525
256,192,95590,2,0,L|320:192,1,35.1058223412525
256,192,95590,2,0,L|320:192,1,35.1058223412525
256,192,95590,2,0,L|320:192,1,35.1058223412525
256,192,95590,2,0,L|320:192,1,35.1058223412525
256,192,95590,2,0,L|320:192,1,35.1058223412525
256,192,95590,2,0,L|320:192,1,35.1058223412525
256,192,95590,2,0,L|320:192,1,35.1058223412525
256,192,95590,2,0,L|320:192,1,35.1058223412525
256,192,95590,2,0,L|320:192,1,35.1058223412525
256,192,95590,2,0,L|320:192,1,35.1058223412525
256,192,95590,2,0,L|320:192,1,35.1058223412525
256,192,95590,2,0,L|320:192,1,35.1058223412525
256,192,95590,2,0,L|320:192,1,35.1058223412525
256,192,95590,2,0,L|320:192,1,35.1058223412525
256,192,95590,2,0,L|320:192,1,35.1058223412525
256,192,95591,2,0,L|320:192,1,35.1058223412525
256,192,95610,2,0,L|320:192,1,35.1058223412525
256,192,95610,2,0,L|320:192,1,35.1058223412525
256,192,95610,2,0,L|320:192,1,35.1058223412525
256,192,95610,2,0,L|320:192,1,35.1058223412525
256,192,95610,2,0,L|320:192,1,35.1058223412525
256,192,95610,2,0,L|320:192,1,35.1058223412525
256,192,95610,2,0,L|320:192,1,35.1058223412525
256,192,95610,2,0,L|320:192,1,35.1058223412525
256,192,95611,2,0,L|320:192,1,35.1058223412525
256,192,95611,2,0,L|320:192,1,35.1058223412525
256,192,95611,2,0,L|320:192,1,35.1058223412525
256,192,95611,2,0,L|320:192,1,35.1058223412525
256,192,95611,2,0,L|320:192,1,35.1058223412525
256,192,95611,2,0,L|320:192,1,35.1058223412525
256,192,95611,2,0,L|320:192,1,35.1058223412525
256,192,95611,2,0,L|320:192,1,35.1058223412525
256,192,95611,2,0,L|320:192,1,35.1058223412525
256,192,95611,2,0,L|320:192,1,35.1058223412525
256,192,95630,2,0,L|320:192,1,35.1058223412525
256,192,95630,2,0,L|320:192,1,35.1058223412525
256,192,95630,2,0,L|320:192,1,35.1058223412525
256,192,95631,2,0,L|320:192,1,35.1058223412525
256,192,95631,2,0,L|320:192,1,35.1058223412525
256,192,95631,2,0,L|320:192,1,35.1058223412525
256,192,95631,2,0,L|320:192,1,35.1058223412525
256,192,95631,2,0,L|320:192,1,35.1058223412525
256,192,95631,2,0,L|320:192,1,35.1058223412525
256,192,95631,2,0,L|320:192,1,35.1058223412525
256,192,95631,2,0,L|320:192,1,35.1058223412525
256,192,95631,2,0,L|320:192,1,35.1058223412525
256,192,95631,2,0,L|320:192,1,35.1058223412525
256,192,95631,2,0,L|320:192,1,35.1058223412525
256,192,95631,2,0,L|320:192,1,35.1058223412525
256,192,95631,2,0,L|320:192,1,35.1058223412525
256,192,95631,2,0,L|320:192,1,35.1058223412525
256,192,95631,2,0,L|320:192,1,35.1058223412525
256,192,95651,2,0,L|320:192,1,35.1058223412525
256,192,95651,2,0,L|320:192,1,35.1058223412525
256,192,95651,2,0,L|320:192,1,35.1058223412525
256,192,95651,2,0,L|320:192,1,35.1058223412525
256,192,95651,2,0,L|320:192,1,35.1058223412525
256,192,95651,2,0,L|320:192,1,35.1058223412525
256,192,95651,2,0,L|320:192,1,35.1058223412525
256,192,95651,2,0,L|320:192,1,35.1058223412525
256,192,95651,2,0,L|320:192,1,35.1058223412525
256,192,95651,2,0,L|320:192,1,35.1058223412525
256,192,95651,2,0,L|320:192,1,35.1058223412525
256,192,95651,2,0,L|320:192,1,35.1058223412525
256,192,95651,2,0,L|320:192,1,35.1058223412525
256,192,95651,2,0,L|320:192,1,35.1058223412525
256,192,95651,2,0,L|320:192,1,35.1058223412525
256,192,95651,2,0,L|320:192,1,35.1058223412525
256,192,95651,2,0,L|320:192,1,35.1058223412525
256,192,95652,2,0,L|320:192,1,35.1058223412525
256,192,95671,2,0,L|320:192,1,35.1058223412525
256,192,95671,2,0,L|320:192,1,35.1058223412525
256,192,95671,2,0,L|320:192,1,35.1058223412525
256,192,95671,2,0,L|320:192,1,35.1058223412525
256,192,95671,2,0,L|320:192,1,35.1058223412525
256,192,95671,2,0,L|320:192,1,35.1058223412525
256,192,95671,2,0,L|320:192,1,35.1058223412525
256,192,95671,2,0,L|320:192,1,35.1058223412525
256,192,95672,2,0,L|320:192,1,35.1058223412525
256,192,95672,2,0,L|320:192,1,35.1058223412525
256,192,95672,2,0,L|320:192,1,35.1058223412525
256,192,95672,2,0,L|320:192,1,35.1058223412525
256,192,95672,2,0,L|320:192,1,35.1058223412525
256,192,95672,2,0,L|320:192,1,35.1058223412525
256,192,95672,2,0,L|320:192,1,35.1058223412525
256,192,95672,2,0,L|320:192,1,35.1058223412525
256,192,95672,2,0,L|320:192,1,35.1058223412525
256,192,95672,2,0,L|320:192,1,35.1058223412525
256,192,95691,2,0,L|320:192,1,35.1058223412525
256,192,95691,2,0,L|320:192,1,35.1058223412525
256,192,95691,2,0,L|320:192,1,35.1058223412525
256,192,95692,2,0,L|320:192,1,35.1058223412525
256,192,95692,2,0,L|320:192,1,35.1058223412525
256,192,95692,2,0,L|320:192,1,35.1058223412525
256,192,95692,2,0,L|320:192,1,35.1058223412525
256,192,95692,2,0,L|320:192,1,35.1058223412525
256,192,95692,2,0,L|320:192,1,35.1058223412525
256,192,95692,2,0,L|320:192,1,35.1058223412525
256,192,95692,2,0,L|320:192,1,35.1058223412525
256,192,95692,2,0,L|320:192,1,35.1058223412525
256,192,95692,2,0,L|320:192,1,35.1058223412525
256,192,95692,2,0,L|320:192,1,35.1058223412525
256,192,95692,2,0,L|320:192,1,35.1058223412525
256,192,95692,2,0,L|320:192,1,35.1058223412525
256,192,95692,2,0,L|320:192,1,35.1058223412525
256,192,95692,2,0,L|320:192,1,35.1058223412525
256,192,95711,2,0,L|320:192,1,35.1058223412525
256,192,95712,2,0,L|320:192,1,35.1058223412525
256,192,95712,2,0,L|320:192,1,35.1058223412525
256,192,95712,2,0,L|320:192,1,35.1058223412525
256,192,95712,2,0,L|320:192,1,35.1058223412525
256,192,95712,2,0,L|320:192,1,35.1058223412525
256,192,95712,2,0,L|320:192,1,35.1058223412525
256,192,95712,2,0,L|320:192,1,35.1058223412525
256,192,95712,2,0,L|320:192,1,35.1058223412525
256,192,95712,2,0,L|320:192,1,35.1058223412525
256,192,95712,2,0,L|320:192,1,35.1058223412525
256,192,95712,2,0,L|320:192,1,35.1058223412525
256,192,95712,2,0,L|320:192,1,35.1058223412525
256,192,95712,2,0,L|320:192,1,35.1058223412525
256,192,95712,2,0,L|320:192,1,35.1058223412525
256,192,95712,2,0,L|320:192,1,35.1058223412525
256,192,95712,2,0,L|320:192,1,35.1058223412525
256,192,95712,2,0,L|320:192,1,35.1058223412525
256,192,95732,2,0,L|320:192,1,35.1058223412525
256,192,95732,2,0,L|320:192,1,35.1058223412525
256,192,95732,2,0,L|320:192,1,35.1058223412525
256,192,95732,2,0,L|320:192,1,35.1058223412525
256,192,95732,2,0,L|320:192,1,35.1058223412525
256,192,95732,2,0,L|320:192,1,35.1058223412525
256,192,95732,2,0,L|320:192,1,35.1058223412525
256,192,95732,2,0,L|320:192,1,35.1058223412525
256,192,95732,2,0,L|320:192,1,35.1058223412525
256,192,95732,2,0,L|320:192,1,35.1058223412525
256,192,95732,2,0,L|320:192,1,35.1058223412525
256,192,95732,2,0,L|320:192,1,35.1058223412525
256,192,95732,2,0,L|320:192,1,35.1058223412525
256,192,95732,2,0,L|320:192,1,35.1058223412525
256,192,95732,2,0,L|320:192,1,35.1058223412525
256,192,95732,2,0,L|320:192,1,35.1058223412525
256,192,95732,2,0,L|320:192,1,35.1058223412525
256,192,95733,2,0,L|320:192,1,35.1058223412525
256,192,95752,2,0,L|320:192,1,35.1058223412525
256,192,95752,2,0,L|320:192,1,35.1058223412525
256,192,95752,2,0,L|320:192,1,35.1058223412525
256,192,95752,2,0,L|320:192,1,35.1058223412525
256,192,95752,2,0,L|320:192,1,35.1058223412525
256,192,95752,2,0,L|320:192,1,35.1058223412525
256,192,95752,2,0,L|320:192,1,35.1058223412525
256,192,95752,2,0,L|320:192,1,35.1058223412525
256,192,95753,2,0,L|320:192,1,35.1058223412525
256,192,95753,2,0,L|320:192,1,35.1058223412525
256,192,95753,2,0,L|320:192,1,35.1058223412525
256,192,95753,2,0,L|320:192,1,35.1058223412525
256,192,95753,2,0,L|320:192,1,35.1058223412525
256,192,95753,2,0,L|320:192,1,35.1058223412525
256,192,95753,2,0,L|320:192,1,35.1058223412525
256,192,95753,2,0,L|320:192,1,35.1058223412525
256,192,95753,2,0,L|320:192,1,35.1058223412525
256,192,95753,2,0,L|320:192,1,35.1058223412525
256,192,95772,2,0,L|320:192,1,35.1058223412525
256,192,95772,2,0,L|320:192,1,35.1058223412525
256,192,95772,2,0,L|320:192,1,35.1058223412525
256,192,95773,2,0,L|320:192,1,35.1058223412525
256,192,95773,2,0,L|320:192,1,35.1058223412525
256,192,95773,2,0,L|320:192,1,35.1058223412525
256,192,95773,2,0,L|320:192,1,35.1058223412525
256,192,95773,2,0,L|320:192,1,35.1058223412525
256,192,95773,2,0,L|320:192,1,35.1058223412525
256,192,95773,2,0,L|320:192,1,35.1058223412525
256,192,95773,2,0,L|320:192,1,35.1058223412525
256,192,95773,2,0,L|320:192,1,35.1058223412525
256,192,95773,2,0,L|320:192,1,35.1058223412525
256,192,95773,2,0,L|320:192,1,35.1058223412525
256,192,95773,2,0,L|320:192,1,35.1058223412525
256,192,95773,2,0,L|320:192,1,35.1058223412525
256,192,95773,2,0,L|320:192,1,35.1058223412525
256,192,95773,2,0,L|320:192,1,35.1058223412525
256,192,95793,2,0,L|320:192,1,35.1058223412525
256,192,95793,2,0,L|320:192,1,35.1058223412525
256,192,95793,2,0,L|320:192,1,35.1058223412525
256,192,95793,2,0,L|320:192,1,35.1058223412525
256,192,95793,2,0,L|320:192,1,35.1058223412525
256,192,95793,2,0,L|320:192,1,35.1058223412525
256,192,95793,2,0,L|320:192,1,35.1058223412525
256,192,95793,2,0,L|320:192,1,35.1058223412525
256,192,95793,2,0,L|320:192,1,35.1058223412525
256,192,95793,2,0,L|320:192,1,35.1058223412525
256,192,95793,2,0,L|320:192,1,35.1058223412525
256,192,95793,2,0,L|320:192,1,35.1058223412525
256,192,95793,2,0,L|320:192,1,35.1058223412525
256,192,95793,2,0,L|320:192,1,35.1058223412525
256,192,95793,2,0,L|320:192,1,35.1058223412525
256,192,95793,2,0,L|320:192,1,35.1058223412525
256,192,95813,2,0,L|320:192,1,35.1058223412525
256,192,95813,2,0,L|320:192,1,35.1058223412525
256,192,95813,2,0,L|320:192,1,35.1058223412525
256,192,95813,2,0,L|320:192,1,35.1058223412525
256,192,95813,2,0,L|320:192,1,35.1058223412525
256,192,95813,2,0,L|320:192,1,35.1058223412525
256,192,95813,2,0,L|320:192,1,35.1058223412525
256,192,95813,2,0,L|320:192,1,35.1058223412525
256,192,95814,2,0,L|320:192,1,35.1058223412525
256,192,95833,2,0,L|320:192,1,35.1058223412525
256,192,95833,2,0,L|320:192,1,35.1058223412525
256,192,95833,2,0,L|320:192,1,35.1058223412525
256,192,95834,2,0,L|320:192,1,35.1058223412525
256,192,95834,2,0,L|320:192,1,35.1058223412525
256,192,95834,2,0,L|320:192,1,35.1058223412525
256,192,95834,2,0,L|320:192,1,35.1058223412525
256,192,95834,2,0,L|320:192,1,35.1058223412525
256,192,95834,2,0,L|320:192,1,35.1058223412525
256,192,95834,2,0,L|320:192,1,35.1058223412525
256,192,95834,2,0,L|320:192,1,35.1058223412525
256,192,95834,2,0,L|320:192,1,35.1058223412525
256,192,95834,2,0,L|320:192,1,35.1058223412525
256,192,95853,2,0,L|320:192,1,35.1058223412525
256,192,95854,2,0,L|320:192,1,35.1058223412525
256,192,95854,2,0,L|320:192,1,35.1058223412525
256,192,95854,2,0,L|320:192,1,35.1058223412525
256,192,95854,2,0,L|320:192,1,35.1058223412525
256,192,95854,2,0,L|320:192,1,35.1058223412525
256,192,95854,2,0,L|320:192,1,35.1058223412525
256,192,95854,2,0,L|320:192,1,35.1058223412525
256,192,95854,2,0,L|320:192,1,35.1058223412525
256,192,95854,2,0,L|320:192,1,35.1058223412525
256,192,95854,2,0,L|320:192,1,35.1058223412525
256,192,95854,2,0,L|320:192,1,35.1058223412525
256,192,95854,2,0,L|320:192,1,35.1058223412525
256,192,95854,2,0,L|320:192,1,35.1058223412525
256,192,95854,2,0,L|320:192,1,35.1058223412525
256,192,95854,2,0,L|320:192,1,35.1058223412525
256,192,95873,2,0,L|320:192,1,35.1058223412525
256,192,95874,2,0,L|320:192,1,35.1058223412525
256,192,95874,2,0,L|320:192,1,35.1058223412525
256,192,95874,2,0,L|320:192,1,35.1058223412525
256,192,95874,2,0,L|320:192,1,35.1058223412525
256,192,95874,2,0,L|320:192,1,35.1058223412525
256,192,95874,2,0,L|320:192,1,35.1058223412525
256,192,95874,2,0,L|320:192,1,35.1058223412525
256,192,95874,2,0,L|320:192,1,35.1058223412525
256,192,95874,2,0,L|320:192,1,35.1058223412525
256,192,95874,2,0,L|320:192,1,35.1058223412525
256,192,95874,2,0,L|320:192,1,35.1058223412525
256,192,95874,2,0,L|320:192,1,35.1058223412525
256,192,95874,2,0,L|320:192,1,35.1058223412525
256,192,95874,2,0,L|320:192,1,35.1058223412525
256,192,95874,2,0,L|320:192,1,35.1058223412525
256,192,95874,2,0,L|320:192,1,35.1058223412525
256,192,95874,2,0,L|320:192,1,35.1058223412525
256,192,95894,2,0,L|320:192,1,35.1058223412525
256,192,95894,2,0,L|320:192,1,35.1058223412525
256,192,95894,2,0,L|320:192,1,35.1058223412525
256,192,95894,2,0,L|320:192,1,35.1058223412525
256,192,95894,2,0,L|320:192,1,35.1058223412525
256,192,95894,2,0,L|320:192,1,35.1058223412525
256,192,95894,2,0,L|320:192,1,35.1058223412525
256,192,95894,2,0,L|320:192,1,35.1058223412525
256,192,95894,2,0,L|320:192,1,35.1058223412525
256,192,95894,2,0,L|320:192,1,35.1058223412525
256,192,95894,2,0,L|320:192,1,35.1058223412525
256,192,95894,2,0,L|320:192,1,35.1058223412525
256,192,95894,2,0,L|320:192,1,35.1058223412525
256,192,95894,2,0,L|320:192,1,35.1058223412525
256,192,95894,2,0,L|320:192,1,35.1058223412525
256,192,95894,2,0,L|320:192,1,35.1058223412525
256,192,95894,2,0,L|320:192,1,35.1058223412525
256,192,95895,2,0,L|320:192,1,35.1058223412525
256,192,95914,2,0,L|320:192,1,35.1058223412525
256,192,95914,2,0,L|320:192,1,35.1058223412525
256,192,95914,2,0,L|320:192,1,35.1058223412525
256,192,95914,2,0,L|320:192,1,35.1058223412525
256,192,95914,2,0,L|320:192,1,35.1058223412525
256,192,95914,2,0,L|320:192,1,35.1058223412525
256,192,95914,2,0,L|320:192,1,35.1058223412525
256,192,95914,2,0,L|320:192,1,35.1058223412525
256,192,95915,2,0,L|320:192,1,35.1058223412525
256,192,95915,2,0,L|320:192,1,35.1058223412525
256,192,95915,2,0,L|320:192,1,35.1058223412525
256,192,95915,2,0,L|320:192,1,35.1058223412525
256,192,95915,2,0,L|320:192,1,35.1058223412525
256,192,95915,2,0,L|320:192,1,35.1058223412525
256,192,95915,2,0,L|320:192,1,35.1058223412525
256,192,95915,2,0,L|320:192,1,35.1058223412525
256,192,95915,2,0,L|320:192,1,35.1058223412525
256,192,95915,2,0,L|320:192,1,35.1058223412525
256,192,95934,2,0,L|320:192,1,35.1058223412525
256,192,95934,2,0,L|320:192,1,35.1058223412525
256,192,95934,2,0,L|320:192,1,35.1058223412525
256,192,95935,2,0,L|320:192,1,35.1058223412525
256,192,95935,2,0,L|320:192,1,35.1058223412525
256,192,95935,2,0,L|320:192,1,35.1058223412525
256,192,95935,2,0,L|320:192,1,35.1058223412525
256,192,95935,2,0,L|320:192,1,35.1058223412525
256,192,95935,2,0,L|320:192,1,35.1058223412525
256,192,95935,2,0,L|320:192,1,35.1058223412525
256,192,95935,2,0,L|320:192,1,35.1058223412525
256,192,95935,2,0,L|320:192,1,35.1058223412525
256,192,95935,2,0,L|320:192,1,35.1058223412525
256,192,95935,2,0,L|320:192,1,35.1058223412525
256,192,95935,2,0,L|320:192,1,35.1058223412525
256,192,95935,2,0,L|320:192,1,35.1058223412525
256,192,95935,2,0,L|320:192,1,35.1058223412525
256,192,95935,2,0,L|320:192,1,35.1058223412525
256,192,95955,2,0,L|320:192,1,35.1058223412525
256,192,95955,2,0,L|320:192,1,35.1058223412525
256,192,95955,2,0,L|320:192,1,35.1058223412525
256,192,95955,2,0,L|320:192,1,35.1058223412525
256,192,95955,2,0,L|320:192,1,35.1058223412525
256,192,95955,2,0,L|320:192,1,35.1058223412525
256,192,95955,2,0,L|320:192,1,35.1058223412525
256,192,95955,2,0,L|320:192,1,35.1058223412525
256,192,95955,2,0,L|320:192,1,35.1058223412525
256,192,95955,2,0,L|320:192,1,35.1058223412525
256,192,95955,2,0,L|320:192,1,35.1058223412525
256,192,95955,2,0,L|320:192,1,35.1058223412525
256,192,95955,2,0,L|320:192,1,35.1058223412525
256,192,95955,2,0,L|320:192,1,35.1058223412525
256,192,95955,2,0,L|320:192,1,35.1058223412525
256,192,95955,2,0,L|320:192,1,35.1058223412525
256,192,95955,2,0,L|320:192,1,35.1058223412525
256,192,95956,2,0,L|320:192,1,35.1058223412525
256,192,95975,2,0,L|320:192,1,35.1058223412525
256,192,95975,2,0,L|320:192,1,35.1058223412525
256,192,95975,2,0,L|320:192,1,35.1058223412525
256,192,95975,2,0,L|320:192,1,35.1058223412525
256,192,95975,2,0,L|320:192,1,35.1058223412525
256,192,95975,2,0,L|320:192,1,35.1058223412525
256,192,95975,2,0,L|320:192,1,35.1058223412525
256,192,95975,2,0,L|320:192,1,35.1058223412525
256,192,95976,2,0,L|320:192,1,35.1058223412525
256,192,95976,2,0,L|320:192,1,35.1058223412525
256,192,95976,2,0,L|320:192,1,35.1058223412525
256,192,95976,2,0,L|320:192,1,35.1058223412525
256,192,95976,2,0,L|320:192,1,35.1058223412525
256,192,95976,2,0,L|320:192,1,35.1058223412525
256,192,95976,2,0,L|320:192,1,35.1058223412525
256,192,95976,2,0,L|320:192,1,35.1058223412525
256,192,95976,2,0,L|320:192,1,35.1058223412525
256,192,95976,2,0,L|320:192,1,35.1058223412525
256,192,95995,2,0,L|320:192,1,35.1058223412525
256,192,95995,2,0,L|320:192,1,35.1058223412525
256,192,95995,2,0,L|320:192,1,35.1058223412525
256,192,95996,2,0,L|320:192,1,35.1058223412525
256,192,95996,2,0,L|320:192,1,35.1058223412525
256,192,95996,2,0,L|320:192,1,35.1058223412525
256,192,95996,2,0,L|320:192,1,35.1058223412525
256,192,95996,2,0,L|320:192,1,35.1058223412525
256,192,95996,2,0,L|320:192,1,35.1058223412525
256,192,95996,2,0,L|320:192,1,35.1058223412525
256,192,95996,2,0,L|320:192,1,35.1058223412525
256,192,95996,2,0,L|320:192,1,35.1058223412525
256,192,95996,2,0,L|320:192,1,35.1058223412525
256,192,95996,2,0,L|320:192,1,35.1058223412525
256,192,95996,2,0,L|320:192,1,35.1058223412525
256,192,95996,2,0,L|320:192,1,35.1058223412525
256,192,95996,2,0,L|320:192,1,35.1058223412525
256,192,95996,2,0,L|320:192,1,35.1058223412525
256,192,96015,2,0,L|320:192,1,35.1058223412525
256,192,96016,2,0,L|320:192,1,35.1058223412525
256,192,96016,2,0,L|320:192,1,35.1058223412525
256,192,96016,2,0,L|320:192,1,35.1058223412525
256,192,96016,2,0,L|320:192,1,35.1058223412525
256,192,96016,2,0,L|320:192,1,35.1058223412525
256,192,96016,2,0,L|320:192,1,35.1058223412525
256,192,96016,2,0,L|320:192,1,35.1058223412525
256,192,96016,2,0,L|320:192,1,35.1058223412525
256,192,96016,2,0,L|320:192,1,35.1058223412525
256,192,96016,2,0,L|320:192,1,35.1058223412525
256,192,96016,2,0,L|320:192,1,35.1058223412525
256,192,96016,2,0,L|320:192,1,35.1058223412525
256,192,96016,2,0,L|320:192,1,35.1058223412525
256,192,96016,2,0,L|320:192,1,35.1058223412525
256,192,96016,2,0,L|320:192,1,35.1058223412525
256,192,96016,2,0,L|320:192,1,35.1058223412525
256,192,96016,2,0,L|320:192,1,35.1058223412525
256,192,96036,2,0,L|320:192,1,35.1058223412525
256,192,96036,2,0,L|320:192,1,35.1058223412525
256,192,96036,2,0,L|320:192,1,35.1058223412525
256,192,96036,2,0,L|320:192,1,35.1058223412525
256,192,96036,2,0,L|320:192,1,35.1058223412525
256,192,96036,2,0,L|320:192,1,35.1058223412525
256,192,96036,2,0,L|320:192,1,35.1058223412525
256,192,96036,2,0,L|320:192,1,35.1058223412525
256,192,96036,2,0,L|320:192,1,35.1058223412525
256,192,96036,2,0,L|320:192,1,35.1058223412525
256,192,96036,2,0,L|320:192,1,35.1058223412525
256,192,96036,2,0,L|320:192,1,35.1058223412525
256,192,96036,2,0,L|320:192,1,35.1058223412525
256,192,96036,2,0,L|320:192,1,35.1058223412525
256,192,96036,2,0,L|320:192,1,35.1058223412525
256,192,96036,2,0,L|320:192,1,35.1058223412525
256,192,96036,2,0,L|320:192,1,35.1058223412525
256,192,96037,2,0,L|320:192,1,35.1058223412525
256,192,96056,2,0,L|320:192,1,35.1058223412525
256,192,96056,2,0,L|320:192,1,35.1058223412525
256,192,96056,2,0,L|320:192,1,35.1058223412525
256,192,96056,2,0,L|320:192,1,35.1058223412525
256,192,96056,2,0,L|320:192,1,35.1058223412525
256,192,96056,2,0,L|320:192,1,35.1058223412525
256,192,96056,2,0,L|320:192,1,35.1058223412525
256,192,96056,2,0,L|320:192,1,35.1058223412525
256,192,96057,2,0,L|320:192,1,35.1058223412525
256,192,96057,2,0,L|320:192,1,35.1058223412525
256,192,96057,2,0,L|320:192,1,35.1058223412525
256,192,96057,2,0,L|320:192,1,35.1058223412525
256,192,96057,2,0,L|320:192,1,35.1058223412525
256,192,96057,2,0,L|320:192,1,35.1058223412525
256,192,96057,2,0,L|320:192,1,35.1058223412525
256,192,96057,2,0,L|320:192,1,35.1058223412525
256,192,96057,2,0,L|320:192,1,35.1058223412525
256,192,96057,2,0,L|320:192,1,35.1058223412525
256,192,96076,2,0,L|320:192,1,35.1058223412525
256,192,96076,2,0,L|320:192,1,35.1058223412525
256,192,96076,2,0,L|320:192,1,35.1058223412525
256,192,96077,2,0,L|320:192,1,35.1058223412525
256,192,96077,2,0,L|320:192,1,35.1058223412525
256,192,96077,2,0,L|320:192,1,35.1058223412525
256,192,96077,2,0,L|320:192,1,35.1058223412525
256,192,96077,2,0,L|320:192,1,35.1058223412525
256,192,96077,2,0,L|320:192,1,35.1058223412525
256,192,96077,2,0,L|320:192,1,35.1058223412525
256,192,96077,2,0,L|320:192,1,35.1058223412525
256,192,96077,2,0,L|320:192,1,35.1058223412525
256,192,96077,2,0,L|320:192,1,35.1058223412525
256,192,96077,2,0,L|320:192,1,35.1058223412525
256,192,96077,2,0,L|320:192,1,35.1058223412525
256,192,96077,2,0,L|320:192,1,35.1058223412525
256,192,96077,2,0,L|320:192,1,35.1058223412525
256,192,96077,2,0,L|320:192,1,35.1058223412525
256,192,96096,2,0,L|320:192,1,35.1058223412525
256,192,96097,2,0,L|320:192,1,35.1058223412525
256,192,96097,2,0,L|320:192,1,35.1058223412525
256,192,96097,2,0,L|320:192,1,35.1058223412525
256,192,96097,2,0,L|320:192,1,35.1058223412525
256,192,96097,2,0,L|320:192,1,35.1058223412525
256,192,96097,2,0,L|320:192,1,35.1058223412525
256,192,96097,2,0,L|320:192,1,35.1058223412525
256,192,96097,2,0,L|320:192,1,35.1058223412525
256,192,96097,2,0,L|320:192,1,35.1058223412525
256,192,96097,2,0,L|320:192,1,35.1058223412525
256,192,96097,2,0,L|320:192,1,35.1058223412525
256,192,96097,2,0,L|320:192,1,35.1058223412525
256,192,96097,2,0,L|320:192,1,35.1058223412525
256,192,96097,2,0,L|320:192,1,35.1058223412525
256,192,96097,2,0,L|320:192,1,35.1058223412525
256,192,96097,2,0,L|320:192,1,35.1058223412525
256,192,96097,2,0,L|320:192,1,35.1058223412525
256,192,96117,2,0,L|320:192,1,35.1058223412525
256,192,96117,2,0,L|320:192,1,35.1058223412525
256,192,96117,2,0,L|320:192,1,35.1058223412525
256,192,96117,2,0,L|320:192,1,35.1058223412525
256,192,96117,2,0,L|320:192,1,35.1058223412525
256,192,96117,2,0,L|320:192,1,35.1058223412525
256,192,96117,2,0,L|320:192,1,35.1058223412525
256,192,96117,2,0,L|320:192,1,35.1058223412525
256,192,96117,2,0,L|320:192,1,35.1058223412525
256,192,96117,2,0,L|320:192,1,35.1058223412525
256,192,96117,2,0,L|320:192,1,35.1058223412525
256,192,96117,2,0,L|320:192,1,35.1058223412525
256,192,96117,2,0,L|320:192,1,35.1058223412525
256,192,96117,2,0,L|320:192,1,35.1058223412525
256,192,96117,2,0,L|320:192,1,35.1058223412525
256,192,96117,2,0,L|320:192,1,35.1058223412525
256,192,96117,2,0,L|320:192,1,35.1058223412525
256,192,96118,2,0,L|320:192,1,35.1058223412525
256,192,96137,2,0,L|320:192,1,35.1058223412525
256,192,96137,2,0,L|320:192,1,35.1058223412525
256,192,96137,2,0,L|320:192,1,35.1058223412525
256,192,96137,2,0,L|320:192,1,35.1058223412525
256,192,96137,2,0,L|320:192,1,35.1058223412525
256,192,96137,2,0,L|320:192,1,35.1058223412525
256,192,96137,2,0,L|320:192,1,35.1058223412525
256,192,96137,2,0,L|320:192,1,35.1058223412525
256,192,96138,2,0,L|320:192,1,35.1058223412525
256,192,96138,2,0,L|320:192,1,35.1058223412525
256,192,96138,2,0,L|320:192,1,35.1058223412525
256,192,96138,2,0,L|320:192,1,35.1058223412525
256,192,96138,2,0,L|320:192,1,35.1058223412525
256,192,96138,2,0,L|320:192,1,35.1058223412525
256,192,96138,2,0,L|320:192,1,35.1058223412525
256,192,96138,2,0,L|320:192,1,35.1058223412525
256,192,96138,2,0,L|320:192,1,35.1058223412525
256,192,96138,2,0,L|320:192,1,35.1058223412525
256,192,96157,2,0,L|320:192,1,35.1058223412525
256,192,96157,2,0,L|320:192,1,35.1058223412525
256,192,96157,2,0,L|320:192,1,35.1058223412525
256,192,96158,2,0,L|320:192,1,35.1058223412525
256,192,96158,2,0,L|320:192,1,35.1058223412525
256,192,96158,2,0,L|320:192,1,35.1058223412525
256,192,96158,2,0,L|320:192,1,35.1058223412525
256,192,96158,2,0,L|320:192,1,35.1058223412525
256,192,96158,2,0,L|320:192,1,35.1058223412525
256,192,96158,2,0,L|320:192,1,35.1058223412525
256,192,96158,2,0,L|320:192,1,35.1058223412525
256,192,96158,2,0,L|320:192,1,35.1058223412525
256,192,96158,2,0,L|320:192,1,35.1058223412525
256,192,96158,2,0,L|320:192,1,35.1058223412525
256,192,96158,2,0,L|320:192,1,35.1058223412525
256,192,96158,2,0,L|320:192,1,35.1058223412525
256,192,96158,2,0,L|320:192,1,35.1058223412525
256,192,96158,2,0,L|320:192,1,35.1058223412525
256,192,96178,2,0,L|320:192,1,35.1058223412525
256,192,96178,2,0,L|320:192,1,35.1058223412525
256,192,96178,2,0,L|320:192,1,35.1058223412525
256,192,96178,2,0,L|320:192,1,35.1058223412525
256,192,96178,2,0,L|320:192,1,35.1058223412525
256,192,96178,2,0,L|320:192,1,35.1058223412525
256,192,96178,2,0,L|320:192,1,35.1058223412525
256,192,96178,2,0,L|320:192,1,35.1058223412525
256,192,96178,2,0,L|320:192,1,35.1058223412525
256,192,96178,2,0,L|320:192,1,35.1058223412525
256,192,96178,2,0,L|320:192,1,35.1058223412525
256,192,96178,2,0,L|320:192,1,35.1058223412525
256,192,96178,2,0,L|320:192,1,35.1058223412525
256,192,96178,2,0,L|320:192,1,35.1058223412525
256,192,96178,2,0,L|320:192,1,35.1058223412525
256,192,96178,2,0,L|320:192,1,35.1058223412525
256,192,96178,2,0,L|320:192,1,35.1058223412525
256,192,96179,2,0,L|320:192,1,35.1058223412525
256,192,96198,2,0,L|320:192,1,35.1058223412525
256,192,96198,2,0,L|320:192,1,35.1058223412525
256,192,96198,2,0,L|320:192,1,35.1058223412525
256,192,96198,2,0,L|320:192,1,35.1058223412525
256,192,96198,2,0,L|320:192,1,35.1058223412525
256,192,96198,2,0,L|320:192,1,35.1058223412525
256,192,96198,2,0,L|320:192,1,35.1058223412525
256,192,96198,2,0,L|320:192,1,35.1058223412525
256,192,96199,2,0,L|320:192,1,35.1058223412525
256,192,96199,2,0,L|320:192,1,35.1058223412525
256,192,96199,2,0,L|320:192,1,35.1058223412525
256,192,96199,2,0,L|320:192,1,35.1058223412525
256,192,96199,2,0,L|320:192,1,35.1058223412525
256,192,96199,2,0,L|320:192,1,35.1058223412525
256,192,96199,2,0,L|320:192,1,35.1058223412525
256,192,96199,2,0,L|320:192,1,35.1058223412525
256,192,96199,2,0,L|320:192,1,35.1058223412525
256,192,96199,2,0,L|320:192,1,35.1058223412525
256,192,96218,2,0,L|320:192,1,35.1058223412525
256,192,96218,2,0,L|320:192,1,35.1058223412525
256,192,96218,2,0,L|320:192,1,35.1058223412525
256,192,96219,2,0,L|320:192,1,35.1058223412525
256,192,96219,2,0,L|320:192,1,35.1058223412525
256,192,96219,2,0,L|320:192,1,35.1058223412525
256,192,96219,2,0,L|320:192,1,35.1058223412525
256,192,96219,2,0,L|320:192,1,35.1058223412525
256,192,96219,2,0,L|320:192,1,35.1058223412525
256,192,96219,2,0,L|320:192,1,35.1058223412525
256,192,96219,2,0,L|320:192,1,35.1058223412525
256,192,96219,2,0,L|320:192,1,35.1058223412525
256,192,96219,2,0,L|320:192,1,35.1058223412525
256,192,96219,2,0,L|320:192,1,35.1058223412525
256,192,96219,2,0,L|320:192,1,35.1058223412525
256,192,96219,2,0,L|320:192,1,35.1058223412525
256,192,96219,2,0,L|320:192,1,35.1058223412525
256,192,96219,2,0,L|320:192,1,35.1058223412525
256,192,96238,2,0,L|320:192,1,35.1058223412525
256,192,96239,2,0,L|320:192,1,35.1058223412525
256,192,96239,2,0,L|320:192,1,35.1058223412525
256,192,96239,2,0,L|320:192,1,35.1058223412525
256,192,96239,2,0,L|320:192,1,35.1058223412525
256,192,96239,2,0,L|320:192,1,35.1058223412525
256,192,96239,2,0,L|320:192,1,35.1058223412525
256,192,96239,2,0,L|320:192,1,35.1058223412525
256,192,96239,2,0,L|320:192,1,35.1058223412525
256,192,96239,2,0,L|320:192,1,35.1058223412525
256,192,96239,2,0,L|320:192,1,35.1058223412525
256,192,96239,2,0,L|320:192,1,35.1058223412525
256,192,96239,2,0,L|320:192,1,35.1058223412525
256,192,96239,2,0,L|320:192,1,35.1058223412525
256,192,96239,2,0,L|320:192,1,35.1058223412525
256,192,96239,2,0,L|320:192,1,35.1058223412525
256,192,96239,2,0,L|320:192,1,35.1058223412525
256,192,96239,2,0,L|320:192,1,35.1058223412525
256,192,96259,2,0,L|320:192,1,35.1058223412525
256,192,96259,2,0,L|320:192,1,35.1058223412525
256,192,96259,2,0,L|320:192,1,35.1058223412525
256,192,96259,2,0,L|320:192,1,35.1058223412525
256,192,96259,2,0,L|320:192,1,35.1058223412525
256,192,96259,2,0,L|320:192,1,35.1058223412525
256,192,96259,2,0,L|320:192,1,35.1058223412525
256,192,96259,2,0,L|320:192,1,35.1058223412525
256,192,96259,2,0,L|320:192,1,35.1058223412525
256,192,96259,2,0,L|320:192,1,35.1058223412525
256,192,96259,2,0,L|320:192,1,35.1058223412525
256,192,96259,2,0,L|320:192,1,35.1058223412525
256,192,96259,2,0,L|320:192,1,35.1058223412525
256,192,96259,2,0,L|320:192,1,35.1058223412525
256,192,96259,2,0,L|320:192,1,35.1058223412525
256,192,96259,2,0,L|320:192,1,35.1058223412525
256,192,96259,2,0,L|320:192,1,35.1058223412525
256,192,96260,2,0,L|320:192,1,35.1058223412525
256,192,96279,2,0,L|320:192,1,35.1058223412525
256,192,96279,2,0,L|320:192,1,35.1058223412525
256,192,96279,2,0,L|320:192,1,35.1058223412525
256,192,96279,2,0,L|320:192,1,35.1058223412525
256,192,96279,2,0,L|320:192,1,35.1058223412525
256,192,96279,2,0,L|320:192,1,35.1058223412525
256,192,96279,2,0,L|320:192,1,35.1058223412525
256,192,96279,2,0,L|320:192,1,35.1058223412525
256,192,96280,2,0,L|320:192,1,35.1058223412525
256,192,96280,2,0,L|320:192,1,35.1058223412525
256,192,96280,2,0,L|320:192,1,35.1058223412525
256,192,96280,2,0,L|320:192,1,35.1058223412525
256,192,96280,2,0,L|320:192,1,35.1058223412525
256,192,96280,2,0,L|320:192,1,35.1058223412525
256,192,96280,2,0,L|320:192,1,35.1058223412525
256,192,96280,2,0,L|320:192,1,35.1058223412525
256,192,96280,2,0,L|320:192,1,35.1058223412525
256,192,96280,2,0,L|320:192,1,35.1058223412525
256,192,96299,2,0,L|320:192,1,35.1058223412525
256,192,96299,2,0,L|320:192,1,35.1058223412525
256,192,96299,2,0,L|320:192,1,35.1058223412525
256,192,96300,2,0,L|320:192,1,35.1058223412525
256,192,96300,2,0,L|320:192,1,35.1058223412525
256,192,96300,2,0,L|320:192,1,35.1058223412525
256,192,96300,2,0,L|320:192,1,35.1058223412525
256,192,96300,2,0,L|320:192,1,35.1058223412525
256,192,96300,2,0,L|320:192,1,35.1058223412525
256,192,96300,2,0,L|320:192,1,35.1058223412525
256,192,96300,2,0,L|320:192,1,35.1058223412525
256,192,96300,2,0,L|320:192,1,35.1058223412525
256,192,96300,2,0,L|320:192,1,35.1058223412525
256,192,96300,2,0,L|320:192,1,35.1058223412525
256,192,96300,2,0,L|320:192,1,35.1058223412525
256,192,96300,2,0,L|320:192,1,35.1058223412525
256,192,96300,2,0,L|320:192,1,35.1058223412525
256,192,96300,2,0,L|320:192,1,35.1058223412525
256,192,96319,2,0,L|320:192,1,35.1058223412525
256,192,96320,2,0,L|320:192,1,35.1058223412525
256,192,96320,2,0,L|320:192,1,35.1058223412525
256,192,96320,2,0,L|320:192,1,35.1058223412525
256,192,96320,2,0,L|320:192,1,35.1058223412525
256,192,96320,2,0,L|320:192,1,35.1058223412525
256,192,96320,2,0,L|320:192,1,35.1058223412525
256,192,96320,2,0,L|320:192,1,35.1058223412525
256,192,96320,2,0,L|320:192,1,35.1058223412525
256,192,96320,2,0,L|320:192,1,35.1058223412525
256,192,96320,2,0,L|320:192,1,35.1058223412525
256,192,96320,2,0,L|320:192,1,35.1058223412525
256,192,96320,2,0,L|320:192,1,35.1058223412525
256,192,96320,2,0,L|320:192,1,35.1058223412525
256,192,96320,2,0,L|320:192,1,35.1058223412525
256,192,96320,2,0,L|320:192,1,35.1058223412525
256,192,96320,2,0,L|320:192,1,35.1058223412525
256,192,96320,2,0,L|320:192,1,35.1058223412525
256,192,96339,2,0,L|320:192,1,35.1058223412525
256,192,96340,2,0,L|320:192,1,35.1058223412525
256,192,96340,2,0,L|320:192,1,35.1058223412525
256,192,96340,2,0,L|320:192,1,35.1058223412525
256,192,96340,2,0,L|320:192,1,35.1058223412525
256,192,96340,2,0,L|320:192,1,35.1058223412525
256,192,96340,2,0,L|320:192,1,35.1058223412525
256,192,96340,2,0,L|320:192,1,35.1058223412525
256,192,96340,2,0,L|320:192,1,35.1058223412525
256,192,96340,2,0,L|320:192,1,35.1058223412525
256,192,96340,2,0,L|320:192,1,35.1058223412525
256,192,96340,2,0,L|320:192,1,35.1058223412525
256,192,96340,2,0,L|320:192,1,35.1058223412525
256,192,96340,2,0,L|320:192,1,35.1058223412525
256,192,96340,2,0,L|320:192,1,35.1058223412525
256,192,96340,2,0,L|320:192,1,35.1058223412525
256,192,96340,2,0,L|320:192,1,35.1058223412525
256,192,96340,2,0,L|320:192,1,35.1058223412525
256,192,96359,2,0,L|320:192,1,35.1058223412525
256,192,96360,2,0,L|320:192,1,35.1058223412525
256,192,96360,2,0,L|320:192,1,35.1058223412525
256,192,96360,2,0,L|320:192,1,35.1058223412525
256,192,96360,2,0,L|320:192,1,35.1058223412525
256,192,96360,2,0,L|320:192,1,35.1058223412525
256,192,96360,2,0,L|320:192,1,35.1058223412525
256,192,96360,2,0,L|320:192,1,35.1058223412525
256,192,96360,2,0,L|320:192,1,35.1058223412525
256,192,96360,2,0,L|320:192,1,35.1058223412525
256,192,96360,2,0,L|320:192,1,35.1058223412525
256,192,96360,2,0,L|320:192,1,35.1058223412525
256,192,96360,2,0,L|320:192,1,35.1058223412525
256,192,96360,2,0,L|320:192,1,35.1058223412525
256,192,96360,2,0,L|320:192,1,35.1058223412525
256,192,96360,2,0,L|320:192,1,35.1058223412525
256,192,96360,2,0,L|320:192,1,35.1058223412525
256,192,96360,2,0,L|320:192,1,35.1058223412525
256,192,96379,2,0,L|320:192,1,35.1058223412525
256,192,96380,2,0,L|320:192,1,35.1058223412525
256,192,96380,2,0,L|320:192,1,35.1058223412525
256,192,96380,2,0,L|320:192,1,35.1058223412525
256,192,96380,2,0,L|320:192,1,35.1058223412525
256,192,96380,2,0,L|320:192,1,35.1058223412525
256,192,96380,2,0,L|320:192,1,35.1058223412525
256,192,96380,2,0,L|320:192,1,35.1058223412525
256,192,96380,2,0,L|320:192,1,35.1058223412525
256,192,96380,2,0,L|320:192,1,35.1058223412525
256,192,96380,2,0,L|320:192,1,35.1058223412525
256,192,96380,2,0,L|320:192,1,35.1058223412525
256,192,96380,2,0,L|320:192,1,35.1058223412525
256,192,96380,2,0,L|320:192,1,35.1058223412525
256,192,96380,2,0,L|320:192,1,35.1058223412525
256,192,96380,2,0,L|320:192,1,35.1058223412525
256,192,96380,2,0,L|320:192,1,35.1058223412525
256,192,96380,2,0,L|320:192,1,35.1058223412525
256,192,96400,2,0,L|320:192,1,35.1058223412525
256,192,96400,2,0,L|320:192,1,35.1058223412525
256,192,96400,2,0,L|320:192,1,35.1058223412525
256,192,96400,2,0,L|320:192,1,35.1058223412525
256,192,96400,2,0,L|320:192,1,35.1058223412525
256,192,96400,2,0,L|320:192,1,35.1058223412525
256,192,96400,2,0,L|320:192,1,35.1058223412525
256,192,96400,2,0,L|320:192,1,35.1058223412525
256,192,96400,2,0,L|320:192,1,35.1058223412525
256,192,96400,2,0,L|320:192,1,35.1058223412525
256,192,96400,2,0,L|320:192,1,35.1058223412525
256,192,96400,2,0,L|320:192,1,35.1058223412525
256,192,96400,2,0,L|320:192,1,35.1058223412525
256,192,96400,2,0,L|320:192,1,35.1058223412525
256,192,96400,2,0,L|320:192,1,35.1058223412525
256,192,96400,2,0,L|320:192,1,35.1058223412525
256,192,96400,2,0,L|320:192,1,35.1058223412525
256,192,96401,2,0,L|320:192,1,35.1058223412525
256,192,96420,2,0,L|320:192,1,35.1058223412525
256,192,96420,2,0,L|320:192,1,35.1058223412525
256,192,96420,2,0,L|320:192,1,35.1058223412525
256,192,96420,2,0,L|320:192,1,35.1058223412525
256,192,96420,2,0,L|320:192,1,35.1058223412525
256,192,96420,2,0,L|320:192,1,35.1058223412525
256,192,96420,2,0,L|320:192,1,35.1058223412525
256,192,96420,2,0,L|320:192,1,35.1058223412525
256,192,96421,2,0,L|320:192,1,35.1058223412525
256,192,96421,2,0,L|320:192,1,35.1058223412525
256,192,96421,2,0,L|320:192,1,35.1058223412525
256,192,96421,2,0,L|320:192,1,35.1058223412525
256,192,96421,2,0,L|320:192,1,35.1058223412525
256,192,96421,2,0,L|320:192,1,35.1058223412525
256,192,96421,2,0,L|320:192,1,35.1058223412525
256,192,96421,2,0,L|320:192,1,35.1058223412525
256,192,96421,2,0,L|320:192,1,35.1058223412525
256,192,96421,2,0,L|320:192,1,35.1058223412525
256,192,96440,2,0,L|320:192,1,35.1058223412525
256,192,96440,2,0,L|320:192,1,35.1058223412525
256,192,96440,2,0,L|320:192,1,35.1058223412525
256,192,96441,2,0,L|320:192,1,35.1058223412525
256,192,96441,2,0,L|320:192,1,35.1058223412525
256,192,96441,2,0,L|320:192,1,35.1058223412525
256,192,96441,2,0,L|320:192,1,35.1058223412525
256,192,96441,2,0,L|320:192,1,35.1058223412525
256,192,96441,2,0,L|320:192,1,35.1058223412525
256,192,96441,2,0,L|320:192,1,35.1058223412525
256,192,96441,2,0,L|320:192,1,35.1058223412525
256,192,96441,2,0,L|320:192,1,35.1058223412525
256,192,96441,2,0,L|320:192,1,35.1058223412525
256,192,96441,2,0,L|320:192,1,35.1058223412525
256,192,96441,2,0,L|320:192,1,35.1058223412525
256,192,96441,2,0,L|320:192,1,35.1058223412525
256,192,96441,2,0,L|320:192,1,35.1058223412525
256,192,96441,2,0,L|320:192,1,35.1058223412525
256,192,96461,2,0,L|320:192,1,35.1058223412525
256,192,96461,2,0,L|320:192,1,35.1058223412525
256,192,96461,2,0,L|320:192,1,35.1058223412525
256,192,96461,2,0,L|320:192,1,35.1058223412525
256,192,96461,2,0,L|320:192,1,35.1058223412525
256,192,96461,2,0,L|320:192,1,35.1058223412525
256,192,96461,2,0,L|320:192,1,35.1058223412525
256,192,96461,2,0,L|320:192,1,35.1058223412525
256,192,96461,2,0,L|320:192,1,35.1058223412525
256,192,96461,2,0,L|320:192,1,35.1058223412525
256,192,96461,2,0,L|320:192,1,35.1058223412525
256,192,96461,2,0,L|320:192,1,35.1058223412525
256,192,96461,2,0,L|320:192,1,35.1058223412525
256,192,96461,2,0,L|320:192,1,35.1058223412525
256,192,96461,2,0,L|320:192,1,35.1058223412525
256,192,96461,2,0,L|320:192,1,35.1058223412525
256,192,96461,2,0,L|320:192,1,35.1058223412525
256,192,96462,2,0,L|320:192,1,35.1058223412525
256,192,96481,2,0,L|320:192,1,35.1058223412525
256,192,96481,2,0,L|320:192,1,35.1058223412525
256,192,96481,2,0,L|320:192,1,35.1058223412525
256,192,96481,2,0,L|320:192,1,35.1058223412525
256,192,96481,2,0,L|320:192,1,35.1058223412525
256,192,96481,2,0,L|320:192,1,35.1058223412525
256,192,96481,2,0,L|320:192,1,35.1058223412525
256,192,96481,2,0,L|320:192,1,35.1058223412525
256,192,96482,2,0,L|320:192,1,35.1058223412525
256,192,96482,2,0,L|320:192,1,35.1058223412525
256,192,96482,2,0,L|320:192,1,35.1058223412525
256,192,96482,2,0,L|320:192,1,35.1058223412525
256,192,96482,2,0,L|320:192,1,35.1058223412525
256,192,96482,2,0,L|320:192,1,35.1058223412525
256,192,96482,2,0,L|320:192,1,35.1058223412525
256,192,96482,2,0,L|320:192,1,35.1058223412525
256,192,96482,2,0,L|320:192,1,35.1058223412525
256,192,96482,2,0,L|320:192,1,35.1058223412525
256,192,96501,2,0,L|320:192,1,35.1058223412525
256,192,96501,2,0,L|320:192,1,35.1058223412525
256,192,96501,2,0,L|320:192,1,35.1058223412525
256,192,96502,2,0,L|320:192,1,35.1058223412525
256,192,96502,2,0,L|320:192,1,35.1058223412525
256,192,96502,2,0,L|320:192,1,35.1058223412525
256,192,96502,2,0,L|320:192,1,35.1058223412525
256,192,96502,2,0,L|320:192,1,35.1058223412525
256,192,96502,2,0,L|320:192,1,35.1058223412525
256,192,96502,2,0,L|320:192,1,35.1058223412525
256,192,96502,2,0,L|320:192,1,35.1058223412525
256,192,96502,2,0,L|320:192,1,35.1058223412525
256,192,96502,2,0,L|320:192,1,35.1058223412525
256,192,96502,2,0,L|320:192,1,35.1058223412525
256,192,96502,2,0,L|320:192,1,35.1058223412525
256,192,96502,2,0,L|320:192,1,35.1058223412525
256,192,96502,2,0,L|320:192,1,35.1058223412525
256,192,96502,2,0,L|320:192,1,35.1058223412525
256,192,96521,2,0,L|320:192,1,35.1058223412525
256,192,96522,2,0,L|320:192,1,35.1058223412525
256,192,96522,2,0,L|320:192,1,35.1058223412525
256,192,96522,2,0,L|320:192,1,35.1058223412525
256,192,96522,2,0,L|320:192,1,35.1058223412525
256,192,96522,2,0,L|320:192,1,35.1058223412525
256,192,96522,2,0,L|320:192,1,35.1058223412525
256,192,96522,2,0,L|320:192,1,35.1058223412525
256,192,96522,2,0,L|320:192,1,35.1058223412525
256,192,96522,2,0,L|320:192,1,35.1058223412525
256,192,96522,2,0,L|320:192,1,35.1058223412525
256,192,96522,2,0,L|320:192,1,35.1058223412525
256,192,96522,2,0,L|320:192,1,35.1058223412525
256,192,96522,2,0,L|320:192,1,35.1058223412525
256,192,96522,2,0,L|320:192,1,35.1058223412525
256,192,96522,2,0,L|320:192,1,35.1058223412525
256,192,96522,2,0,L|320:192,1,35.1058223412525
256,192,96522,2,0,L|320:192,1,35.1058223412525
256,192,96542,2,0,L|320:192,1,35.1058223412525
256,192,96542,2,0,L|320:192,1,35.1058223412525
256,192,96542,2,0,L|320:192,1,35.1058223412525
256,192,96542,2,0,L|320:192,1,35.1058223412525
256,192,96542,2,0,L|320:192,1,35.1058223412525
256,192,96542,2,0,L|320:192,1,35.1058223412525
256,192,96542,2,0,L|320:192,1,35.1058223412525
256,192,96542,2,0,L|320:192,1,35.1058223412525
256,192,96542,2,0,L|320:192,1,35.1058223412525
256,192,96542,2,0,L|320:192,1,35.1058223412525
256,192,96542,2,0,L|320:192,1,35.1058223412525
256,192,96542,2,0,L|320:192,1,35.1058223412525
256,192,96542,2,0,L|320:192,1,35.1058223412525
256,192,96542,2,0,L|320:192,1,35.1058223412525
256,192,96542,2,0,L|320:192,1,35.1058223412525
256,192,96542,2,0,L|320:192,1,35.1058223412525
256,192,96542,2,0,L|320:192,1,35.1058223412525
256,192,96543,2,0,L|320:192,1,35.1058223412525
256,192,96562,2,0,L|320:192,1,35.1058223412525
256,192,96562,2,0,L|320:192,1,35.1058223412525
256,192,96562,2,0,L|320:192,1,35.1058223412525
256,192,96562,2,0,L|320:192,1,35.1058223412525
256,192,96562,2,0,L|320:192,1,35.1058223412525
256,192,96562,2,0,L|320:192,1,35.1058223412525
256,192,96562,2,0,L|320:192,1,35.1058223412525
256,192,96562,2,0,L|320:192,1,35.1058223412525
256,192,96563,2,0,L|320:192,1,35.1058223412525
256,192,96563,2,0,L|320:192,1,35.1058223412525
256,192,96563,2,0,L|320:192,1,35.1058223412525
256,192,96563,2,0,L|320:192,1,35.1058223412525
256,192,96563,2,0,L|320:192,1,35.1058223412525
256,192,96563,2,0,L|320:192,1,35.1058223412525
256,192,96563,2,0,L|320:192,1,35.1058223412525
256,192,96563,2,0,L|320:192,1,35.1058223412525
256,192,96563,2,0,L|320:192,1,35.1058223412525
256,192,96563,2,0,L|320:192,1,35.1058223412525
256,192,96582,2,0,L|320:192,1,35.1058223412525
256,192,96582,2,0,L|320:192,1,35.1058223412525
256,192,96582,2,0,L|320:192,1,35.1058223412525
256,192,96583,2,0,L|320:192,1,35.1058223412525
256,192,96583,2,0,L|320:192,1,35.1058223412525
256,192,96583,2,0,L|320:192,1,35.1058223412525
256,192,96583,2,0,L|320:192,1,35.1058223412525
256,192,96583,2,0,L|320:192,1,35.1058223412525
256,192,96583,2,0,L|320:192,1,35.1058223412525
256,192,96583,2,0,L|320:192,1,35.1058223412525
256,192,96583,2,0,L|320:192,1,35.1058223412525
256,192,96583,2,0,L|320:192,1,35.1058223412525
256,192,96583,2,0,L|320:192,1,35.1058223412525
256,192,96583,2,0,L|320:192,1,35.1058223412525
256,192,96583,2,0,L|320:192,1,35.1058223412525
256,192,96583,2,0,L|320:192,1,35.1058223412525
256,192,96583,2,0,L|320:192,1,35.1058223412525
256,192,96583,2,0,L|320:192,1,35.1058223412525
256,192,96602,2,0,L|320:192,1,35.1058223412525
256,192,96603,2,0,L|320:192,1,35.1058223412525
256,192,96603,2,0,L|320:192,1,35.1058223412525
256,192,96603,2,0,L|320:192,1,35.1058223412525
256,192,96603,2,0,L|320:192,1,35.1058223412525
256,192,96603,2,0,L|320:192,1,35.1058223412525
256,192,96603,2,0,L|320:192,1,35.1058223412525
256,192,96603,2,0,L|320:192,1,35.1058223412525
256,192,96603,2,0,L|320:192,1,35.1058223412525
256,192,96603,2,0,L|320:192,1,35.1058223412525
256,192,96603,2,0,L|320:192,1,35.1058223412525
256,192,96603,2,0,L|320:192,1,35.1058223412525
256,192,96603,2,0,L|320:192,1,35.1058223412525
256,192,96603,2,0,L|320:192,1,35.1058223412525
256,192,96603,2,0,L|320:192,1,35.1058223412525
256,192,96603,2,0,L|320:192,1,35.1058223412525
256,192,96603,2,0,L|320:192,1,35.1058223412525
256,192,96603,2,0,L|320:192,1,35.1058223412525
256,192,96623,2,0,L|320:192,1,35.1058223412525
256,192,96623,2,0,L|320:192,1,35.1058223412525
256,192,96623,2,0,L|320:192,1,35.1058223412525
256,192,96623,2,0,L|320:192,1,35.1058223412525
256,192,96623,2,0,L|320:192,1,35.1058223412525
256,192,96623,2,0,L|320:192,1,35.1058223412525
256,192,96623,2,0,L|320:192,1,35.1058223412525
256,192,96623,2,0,L|320:192,1,35.1058223412525
256,192,96623,2,0,L|320:192,1,35.1058223412525
256,192,96623,2,0,L|320:192,1,35.1058223412525
256,192,96623,2,0,L|320:192,1,35.1058223412525
256,192,96623,2,0,L|320:192,1,35.1058223412525
256,192,96623,2,0,L|320:192,1,35.1058223412525
256,192,96623,2,0,L|320:192,1,35.1058223412525
256,192,96623,2,0,L|320:192,1,35.1058223412525
256,192,96623,2,0,L|320:192,1,35.1058223412525
256,192,96623,2,0,L|320:192,1,35.1058223412525
256,192,96624,2,0,L|320:192,1,35.1058223412525
256,192,96643,2,0,L|320:192,1,35.1058223412525
256,192,96643,2,0,L|320:192,1,35.1058223412525
256,192,96643,2,0,L|320:192,1,35.1058223412525
256,192,96643,2,0,L|320:192,1,35.1058223412525
256,192,96643,2,0,L|320:192,1,35.1058223412525
256,192,96643,2,0,L|320:192,1,35.1058223412525
256,192,96643,2,0,L|320:192,1,35.1058223412525
256,192,96643,2,0,L|320:192,1,35.1058223412525
256,192,96644,2,0,L|320:192,1,35.1058223412525
256,192,96644,2,0,L|320:192,1,35.1058223412525
256,192,96644,2,0,L|320:192,1,35.1058223412525
256,192,96644,2,0,L|320:192,1,35.1058223412525
256,192,96644,2,0,L|320:192,1,35.1058223412525
256,192,96644,2,0,L|320:192,1,35.1058223412525
256,192,96644,2,0,L|320:192,1,35.1058223412525
256,192,96644,2,0,L|320:192,1,35.1058223412525
256,192,96644,2,0,L|320:192,1,35.1058223412525
256,192,96644,2,0,L|320:192,1,35.1058223412525
256,192,96663,2,0,L|320:192,1,35.1058223412525
256,192,96663,2,0,L|320:192,1,35.1058223412525
256,192,96663,2,0,L|320:192,1,35.1058223412525
256,192,96664,2,0,L|320:192,1,35.1058223412525
256,192,96664,2,0,L|320:192,1,35.1058223412525
256,192,96664,2,0,L|320:192,1,35.1058223412525
256,192,96664,2,0,L|320:192,1,35.1058223412525
256,192,96664,2,0,L|320:192,1,35.1058223412525
256,192,96664,2,0,L|320:192,1,35.1058223412525
256,192,96664,2,0,L|320:192,1,35.1058223412525
256,192,96664,2,0,L|320:192,1,35.1058223412525
256,192,96664,2,0,L|320:192,1,35.1058223412525
256,192,96664,2,0,L|320:192,1,35.1058223412525
256,192,96664,2,0,L|320:192,1,35.1058223412525
256,192,96664,2,0,L|320:192,1,35.1058223412525
256,192,96664,2,0,L|320:192,1,35.1058223412525
256,192,96664,2,0,L|320:192,1,35.1058223412525
256,192,96664,2,0,L|320:192,1,35.1058223412525
256,192,96684,2,0,L|320:192,1,35.1058223412525
256,192,96684,2,0,L|320:192,1,35.1058223412525
256,192,96684,2,0,L|320:192,1,35.1058223412525
256,192,96684,2,0,L|320:192,1,35.1058223412525
256,192,96684,2,0,L|320:192,1,35.1058223412525
256,192,96684,2,0,L|320:192,1,35.1058223412525
256,192,96684,2,0,L|320:192,1,35.1058223412525
256,192,96684,2,0,L|320:192,1,35.1058223412525
256,192,96684,2,0,L|320:192,1,35.1058223412525
256,192,96684,2,0,L|320:192,1,35.1058223412525
256,192,96684,2,0,L|320:192,1,35.1058223412525
256,192,96684,2,0,L|320:192,1,35.1058223412525
256,192,96684,2,0,L|320:192,1,35.1058223412525
256,192,96684,2,0,L|320:192,1,35.1058223412525
256,192,96684,2,0,L|320:192,1,35.1058223412525
256,192,96684,2,0,L|320:192,1,35.1058223412525
256,192,96684,2,0,L|320:192,1,35.1058223412525
256,192,96685,2,0,L|320:192,1,35.1058223412525
256,192,96704,2,0,L|320:192,1,35.1058223412525
256,192,96704,2,0,L|320:192,1,35.1058223412525
256,192,96704,2,0,L|320:192,1,35.1058223412525
256,192,96704,2,0,L|320:192,1,35.1058223412525
256,192,96704,2,0,L|320:192,1,35.1058223412525
256,192,96704,2,0,L|320:192,1,35.1058223412525
256,192,96704,2,0,L|320:192,1,35.1058223412525
256,192,96704,2,0,L|320:192,1,35.1058223412525
256,192,96705,2,0,L|320:192,1,35.1058223412525
256,192,96705,2,0,L|320:192,1,35.1058223412525
256,192,96705,2,0,L|320:192,1,35.1058223412525
256,192,96705,2,0,L|320:192,1,35.1058223412525
256,192,96705,2,0,L|320:192,1,35.1058223412525
256,192,96705,2,0,L|320:192,1,35.1058223412525
256,192,96705,2,0,L|320:192,1,35.1058223412525
256,192,96705,2,0,L|320:192,1,35.1058223412525
256,192,96705,2,0,L|320:192,1,35.1058223412525
256,192,96705,2,0,L|320:192,1,35.1058223412525
256,192,96724,2,0,L|320:192,1,35.1058223412525
256,192,96724,2,0,L|320:192,1,35.1058223412525
256,192,96724,2,0,L|320:192,1,35.1058223412525
256,192,96725,2,0,L|320:192,1,35.1058223412525
256,192,96725,2,0,L|320:192,1,35.1058223412525
256,192,96725,2,0,L|320:192,1,35.1058223412525
256,192,96725,2,0,L|320:192,1,35.1058223412525
256,192,96725,2,0,L|320:192,1,35.1058223412525
256,192,96725,2,0,L|320:192,1,35.1058223412525
256,192,96725,2,0,L|320:192,1,35.1058223412525
256,192,96725,2,0,L|320:192,1,35.1058223412525
256,192,96725,2,0,L|320:192,1,35.1058223412525
256,192,96725,2,0,L|320:192,1,35.1058223412525
256,192,96725,2,0,L|320:192,1,35.1058223412525
256,192,96725,2,0,L|320:192,1,35.1058223412525
256,192,96725,2,0,L|320:192,1,35.1058223412525
256,192,96725,2,0,L|320:192,1,35.1058223412525
256,192,96725,2,0,L|320:192,1,35.1058223412525
256,192,96744,2,0,L|320:192,1,35.1058223412525
256,192,96745,2,0,L|320:192,1,35.1058223412525
256,192,96745,2,0,L|320:192,1,35.1058223412525
256,192,96745,2,0,L|320:192,1,35.1058223412525
256,192,96745,2,0,L|320:192,1,35.1058223412525
256,192,96745,2,0,L|320:192,1,35.1058223412525
256,192,96745,2,0,L|320:192,1,35.1058223412525
256,192,96745,2,0,L|320:192,1,35.1058223412525
256,192,96745,2,0,L|320:192,1,35.1058223412525
256,192,96745,2,0,L|320:192,1,35.1058223412525
256,192,96745,2,0,L|320:192,1,35.1058223412525
256,192,96745,2,0,L|320:192,1,35.1058223412525
256,192,96745,2,0,L|320:192,1,35.1058223412525
256,192,96745,2,0,L|320:192,1,35.1058223412525
256,192,96745,2,0,L|320:192,1,35.1058223412525
256,192,96745,2,0,L|320:192,1,35.1058223412525
256,192,96745,2,0,L|320:192,1,35.1058223412525
256,192,96745,2,0,L|320:192,1,35.1058223412525
256,192,96765,2,0,L|320:192,1,35.1058223412525
256,192,96765,2,0,L|320:192,1,35.1058223412525
256,192,96765,2,0,L|320:192,1,35.1058223412525
256,192,96765,2,0,L|320:192,1,35.1058223412525
256,192,96765,2,0,L|320:192,1,35.1058223412525
256,192,96765,2,0,L|320:192,1,35.1058223412525
256,192,96765,2,0,L|320:192,1,35.1058223412525
256,192,96765,2,0,L|320:192,1,35.1058223412525
256,192,96765,2,0,L|320:192,1,35.1058223412525
256,192,96765,2,0,L|320:192,1,35.1058223412525
256,192,96765,2,0,L|320:192,1,35.1058223412525
256,192,96765,2,0,L|320:192,1,35.1058223412525
256,192,96765,2,0,L|320:192,1,35.1058223412525
256,192,96765,2,0,L|320:192,1,35.1058223412525
256,192,96765,2,0,L|320:192,1,35.1058223412525
256,192,96765,2,0,L|320:192,1,35.1058223412525
256,192,96765,2,0,L|320:192,1,35.1058223412525
256,192,96766,2,0,L|320:192,1,35.1058223412525
256,192,96785,2,0,L|320:192,1,35.1058223412525
256,192,96785,2,0,L|320:192,1,35.1058223412525
256,192,96785,2,0,L|320:192,1,35.1058223412525
256,192,96785,2,0,L|320:192,1,35.1058223412525
256,192,96785,2,0,L|320:192,1,35.1058223412525
256,192,96785,2,0,L|320:192,1,35.1058223412525
256,192,96785,2,0,L|320:192,1,35.1058223412525
256,192,96785,2,0,L|320:192,1,35.1058223412525
256,192,96786,2,0,L|320:192,1,35.1058223412525
256,192,96786,2,0,L|320:192,1,35.1058223412525
256,192,96786,2,0,L|320:192,1,35.1058223412525
256,192,96786,2,0,L|320:192,1,35.1058223412525
256,192,96786,2,0,L|320:192,1,35.1058223412525
256,192,96786,2,0,L|320:192,1,35.1058223412525
256,192,96786,2,0,L|320:192,1,35.1058223412525
256,192,96786,2,0,L|320:192,1,35.1058223412525
256,192,96786,2,0,L|320:192,1,35.1058223412525
256,192,96786,2,0,L|320:192,1,35.1058223412525
256,192,96805,2,0,L|320:192,1,35.1058223412525
256,192,96805,2,0,L|320:192,1,35.1058223412525
256,192,96805,2,0,L|320:192,1,35.1058223412525
256,192,96806,2,0,L|320:192,1,35.1058223412525
256,192,96806,2,0,L|320:192,1,35.1058223412525
256,192,96806,2,0,L|320:192,1,35.1058223412525
256,192,96806,2,0,L|320:192,1,35.1058223412525
256,192,96806,2,0,L|320:192,1,35.1058223412525
256,192,96806,2,0,L|320:192,1,35.1058223412525
256,192,96806,2,0,L|320:192,1,35.1058223412525
256,192,96806,2,0,L|320:192,1,35.1058223412525
256,192,96806,2,0,L|320:192,1,35.1058223412525
256,192,96806,2,0,L|320:192,1,35.1058223412525
256,192,96806,2,0,L|320:192,1,35.1058223412525
256,192,96806,2,0,L|320:192,1,35.1058223412525
256,192,96806,2,0,L|320:192,1,35.1058223412525
256,192,96806,2,0,L|320:192,1,35.1058223412525
256,192,96806,2,0,L|320:192,1,35.1058223412525
256,192,96806,2,0,L|320:192,1,35.1058223412525
256,192,96807,2,0,L|320:192,1,35.1058223412525
256,192,96826,2,0,L|320:192,1,35.1058223412525
256,192,96826,2,0,L|320:192,1,35.1058223412525
256,192,96826,2,0,L|320:192,1,35.1058223412525
256,192,96826,2,0,L|320:192,1,35.1058223412525
256,192,96826,2,0,L|320:192,1,35.1058223412525
256,192,96826,2,0,L|320:192,1,35.1058223412525
256,192,96826,2,0,L|320:192,1,35.1058223412525
256,192,96826,2,0,L|320:192,1,35.1058223412525
256,192,96826,2,0,L|320:192,1,35.1058223412525
256,192,96826,2,0,L|320:192,1,35.1058223412525
256,192,96826,2,0,L|320:192,1,35.1058223412525
256,192,96826,2,0,L|320:192,1,35.1058223412525
256,192,96826,2,0,L|320:192,1,35.1058223412525
256,192,96826,2,0,L|320:192,1,35.1058223412525
256,192,96826,2,0,L|320:192,1,35.1058223412525
256,192,96826,2,0,L|320:192,1,35.1058223412525
256,192,96826,2,0,L|320:192,1,35.1058223412525
256,192,96827,2,0,L|320:192,1,35.1058223412525
256,192,96827,2,0,L|320:192,1,35.1058223412525
256,192,96827,2,0,L|320:192,1,35.1058223412525
256,192,96827,2,0,L|320:192,1,35.1058223412525
256,192,96827,2,0,L|320:192,1,35.1058223412525
256,192,96827,2,0,L|320:192,1,35.1058223412525
256,192,96827,2,0,L|320:192,1,35.1058223412525
256,192,96827,2,0,L|320:192,1,35.1058223412525
256,192,96827,2,0,L|320:192,1,35.1058223412525
256,192,96827,2,0,L|320:192,1,35.1058223412525
256,192,96846,2,0,L|320:192,1,35.1058223412525
256,192,96846,2,0,L|320:192,1,35.1058223412525
256,192,96846,2,0,L|320:192,1,35.1058223412525
256,192,96846,2,0,L|320:192,1,35.1058223412525
256,192,96846,2,0,L|320:192,1,35.1058223412525
256,192,96846,2,0,L|320:192,1,35.1058223412525
256,192,96846,2,0,L|320:192,1,35.1058223412525
256,192,96846,2,0,L|320:192,1,35.1058223412525
256,192,96847,2,0,L|320:192,1,35.1058223412525
256,192,96847,2,0,L|320:192,1,35.1058223412525
256,192,96847,2,0,L|320:192,1,35.1058223412525
256,192,96847,2,0,L|320:192,1,35.1058223412525
256,192,96847,2,0,L|320:192,1,35.1058223412525
256,192,96847,2,0,L|320:192,1,35.1058223412525
256,192,96847,2,0,L|320:192,1,35.1058223412525
256,192,96847,2,0,L|320:192,1,35.1058223412525
256,192,96847,2,0,L|320:192,1,35.1058223412525
256,192,96847,2,0,L|320:192,1,35.1058223412525
256,192,96847,2,0,L|320:192,1,35.1058223412525
256,192,96847,2,0,L|320:192,1,35.1058223412525
256,192,96847,2,0,L|320:192,1,35.1058223412525
256,192,96847,2,0,L|320:192,1,35.1058223412525
256,192,96847,2,0,L|320:192,1,35.1058223412525
256,192,96866,2,0,L|320:192,1,35.1058223412525
256,192,96866,2,0,L|320:192,1,35.1058223412525
256,192,96866,2,0,L|320:192,1,35.1058223412525
256,192,96867,2,0,L|320:192,1,35.1058223412525
256,192,96867,2,0,L|320:192,1,35.1058223412525
256,192,96867,2,0,L|320:192,1,35.1058223412525
256,192,96867,2,0,L|320:192,1,35.1058223412525
256,192,96867,2,0,L|320:192,1,35.1058223412525
256,192,96867,2,0,L|320:192,1,35.1058223412525
256,192,96867,2,0,L|320:192,1,35.1058223412525
256,192,96867,2,0,L|320:192,1,35.1058223412525
256,192,96867,2,0,L|320:192,1,35.1058223412525
256,192,96867,2,0,L|320:192,1,35.1058223412525
256,192,96867,2,0,L|320:192,1,35.1058223412525
256,192,96867,2,0,L|320:192,1,35.1058223412525
256,192,96867,2,0,L|320:192,1,35.1058223412525
256,192,96867,2,0,L|320:192,1,35.1058223412525
256,192,96867,2,0,L|320:192,1,35.1058223412525
256,192,96867,2,0,L|320:192,1,35.1058223412525
256,192,96867,2,0,L|320:192,1,35.1058223412525
256,192,96887,2,0,L|320:192,1,35.1058223412525
256,192,96887,2,0,L|320:192,1,35.1058223412525
256,192,96887,2,0,L|320:192,1,35.1058223412525
256,192,96887,2,0,L|320:192,1,35.1058223412525
256,192,96887,2,0,L|320:192,1,35.1058223412525
256,192,96887,2,0,L|320:192,1,35.1058223412525
256,192,96887,2,0,L|320:192,1,35.1058223412525
256,192,96887,2,0,L|320:192,1,35.1058223412525
256,192,96887,2,0,L|320:192,1,35.1058223412525
256,192,96887,2,0,L|320:192,1,35.1058223412525
256,192,96887,2,0,L|320:192,1,35.1058223412525
256,192,96887,2,0,L|320:192,1,35.1058223412525
256,192,96887,2,0,L|320:192,1,35.1058223412525
256,192,96887,2,0,L|320:192,1,35.1058223412525
256,192,96887,2,0,L|320:192,1,35.1058223412525
256,192,96887,2,0,L|320:192,1,35.1058223412525
256,192,96887,2,0,L|320:192,1,35.1058223412525
256,192,96888,2,0,L|320:192,1,35.1058223412525
256,192,96907,2,0,L|320:192,1,35.1058223412525
256,192,96907,2,0,L|320:192,1,35.1058223412525
256,192,96907,2,0,L|320:192,1,35.1058223412525
256,192,96907,2,0,L|320:192,1,35.1058223412525
256,192,96907,2,0,L|320:192,1,35.1058223412525
256,192,96907,2,0,L|320:192,1,35.1058223412525
256,192,96907,2,0,L|320:192,1,35.1058223412525
256,192,96907,2,0,L|320:192,1,35.1058223412525
256,192,96908,2,0,L|320:192,1,35.1058223412525
256,192,96908,2,0,L|320:192,1,35.1058223412525
256,192,96908,2,0,L|320:192,1,35.1058223412525
256,192,96908,2,0,L|320:192,1,35.1058223412525
256,192,96908,2,0,L|320:192,1,35.1058223412525
256,192,96908,2,0,L|320:192,1,35.1058223412525
256,192,96908,2,0,L|320:192,1,35.1058223412525
256,192,96908,2,0,L|320:192,1,35.1058223412525
256,192,96908,2,0,L|320:192,1,35.1058223412525
256,192,96908,2,0,L|320:192,1,35.1058223412525
256,192,96927,2,0,L|320:192,1,35.1058223412525
256,192,96927,2,0,L|320:192,1,35.1058223412525
256,192,96927,2,0,L|320:192,1,35.1058223412525
256,192,96928,2,0,L|320:192,1,35.1058223412525
256,192,96928,2,0,L|320:192,1,35.1058223412525
256,192,96928,2,0,L|320:192,1,35.1058223412525
256,192,96928,2,0,L|320:192,1,35.1058223412525
256,192,96928,2,0,L|320:192,1,35.1058223412525
256,192,96928,2,0,L|320:192,1,35.1058223412525
256,192,96928,2,0,L|320:192,1,35.1058223412525
256,192,96928,2,0,L|320:192,1,35.1058223412525
256,192,96928,2,0,L|320:192,1,35.1058223412525
256,192,96928,2,0,L|320:192,1,35.1058223412525
256,192,96928,2,0,L|320:192,1,35.1058223412525
256,192,96928,2,0,L|320:192,1,35.1058223412525
256,192,96928,2,0,L|320:192,1,35.1058223412525
256,192,96928,2,0,L|320:192,1,35.1058223412525
256,192,96928,2,0,L|320:192,1,35.1058223412525
256,192,96948,2,0,L|320:192,1,35.1058223412525
256,192,96948,2,0,L|320:192,1,35.1058223412525
256,192,96948,2,0,L|320:192,1,35.1058223412525
256,192,96948,2,0,L|320:192,1,35.1058223412525
256,192,96948,2,0,L|320:192,1,35.1058223412525
256,192,96948,2,0,L|320:192,1,35.1058223412525
256,192,96948,2,0,L|320:192,1,35.1058223412525
256,192,96948,2,0,L|320:192,1,35.1058223412525
256,192,96948,2,0,L|320:192,1,35.1058223412525
256,192,96948,2,0,L|320:192,1,35.1058223412525
256,192,96948,2,0,L|320:192,1,35.1058223412525
256,192,96948,2,0,L|320:192,1,35.1058223412525
256,192,96948,2,0,L|320:192,1,35.1058223412525
256,192,96948,2,0,L|320:192,1,35.1058223412525
256,192,96948,2,0,L|320:192,1,35.1058223412525
256,192,96948,2,0,L|320:192,1,35.1058223412525
256,192,96948,2,0,L|320:192,1,35.1058223412525
256,192,96949,2,0,L|320:192,1,35.1058223412525
256,192,96968,2,0,L|320:192,1,35.1058223412525
256,192,96968,2,0,L|320:192,1,35.1058223412525
256,192,96968,2,0,L|320:192,1,35.1058223412525
256,192,96968,2,0,L|320:192,1,35.1058223412525
256,192,96968,2,0,L|320:192,1,35.1058223412525
256,192,96968,2,0,L|320:192,1,35.1058223412525
256,192,96968,2,0,L|320:192,1,35.1058223412525
256,192,96968,2,0,L|320:192,1,35.1058223412525
256,192,96969,2,0,L|320:192,1,35.1058223412525
256,192,96969,2,0,L|320:192,1,35.1058223412525
256,192,96969,2,0,L|320:192,1,35.1058223412525
256,192,96969,2,0,L|320:192,1,35.1058223412525
256,192,96969,2,0,L|320:192,1,35.1058223412525
256,192,96969,2,0,L|320:192,1,35.1058223412525
256,192,96969,2,0,L|320:192,1,35.1058223412525
256,192,96969,2,0,L|320:192,1,35.1058223412525
256,192,96969,2,0,L|320:192,1,35.1058223412525
256,192,96969,2,0,L|320:192,1,35.1058223412525
256,192,96988,2,0,L|320:192,1,35.1058223412525
256,192,96988,2,0,L|320:192,1,35.1058223412525
256,192,96988,2,0,L|320:192,1,35.1058223412525
256,192,96989,2,0,L|320:192,1,35.1058223412525
256,192,96989,2,0,L|320:192,1,35.1058223412525
256,192,96989,2,0,L|320:192,1,35.1058223412525
256,192,96989,2,0,L|320:192,1,35.1058223412525
256,192,96989,2,0,L|320:192,1,35.1058223412525
256,192,96989,2,0,L|320:192,1,35.1058223412525
256,192,96989,2,0,L|320:192,1,35.1058223412525
256,192,96989,2,0,L|320:192,1,35.1058223412525
256,192,96989,2,0,L|320:192,1,35.1058223412525
256,192,96989,2,0,L|320:192,1,35.1058223412525
256,192,96989,2,0,L|320:192,1,35.1058223412525
256,192,96989,2,0,L|320:192,1,35.1058223412525
256,192,96989,2,0,L|320:192,1,35.1058223412525
256,192,96989,2,0,L|320:192,1,35.1058223412525
256,192,96989,2,0,L|320:192,1,35.1058223412525
256,192,97008,2,0,L|320:192,1,35.1058223412525
256,192,97009,2,0,L|320:192,1,35.1058223412525
256,192,97009,2,0,L|320:192,1,35.1058223412525
256,192,97009,2,0,L|320:192,1,35.1058223412525
256,192,97009,2,0,L|320:192,1,35.1058223412525
256,192,97009,2,0,L|320:192,1,35.1058223412525
256,192,97009,2,0,L|320:192,1,35.1058223412525
256,192,97009,2,0,L|320:192,1,35.1058223412525
256,192,97009,2,0,L|320:192,1,35.1058223412525
256,192,97009,2,0,L|320:192,1,35.1058223412525
256,192,97009,2,0,L|320:192,1,35.1058223412525
256,192,97009,2,0,L|320:192,1,35.1058223412525
256,192,97009,2,0,L|320:192,1,35.1058223412525
256,192,97009,2,0,L|320:192,1,35.1058223412525
256,192,97009,2,0,L|320:192,1,35.1058223412525
256,192,97009,2,0,L|320:192,1,35.1058223412525
256,192,97009,2,0,L|320:192,1,35.1058223412525
256,192,97009,2,0,L|320:192,1,35.1058223412525
256,192,97029,2,0,L|320:192,1,35.1058223412525
256,192,97029,2,0,L|320:192,1,35.1058223412525
256,192,97029,2,0,L|320:192,1,35.1058223412525
256,192,97029,2,0,L|320:192,1,35.1058223412525
256,192,97029,2,0,L|320:192,1,35.1058223412525
256,192,97029,2,0,L|320:192,1,35.1058223412525
256,192,97029,2,0,L|320:192,1,35.1058223412525
256,192,97029,2,0,L|320:192,1,35.1058223412525
256,192,97029,2,0,L|320:192,1,35.1058223412525
256,192,97029,2,0,L|320:192,1,35.1058223412525
256,192,97029,2,0,L|320:192,1,35.1058223412525
256,192,97029,2,0,L|320:192,1,35.1058223412525
256,192,97029,2,0,L|320:192,1,35.1058223412525
256,192,97029,2,0,L|320:192,1,35.1058223412525
256,192,97029,2,0,L|320:192,1,35.1058223412525
256,192,97029,2,0,L|320:192,1,35.1058223412525
256,192,97029,2,0,L|320:192,1,35.1058223412525
256,192,97030,2,0,L|320:192,1,35.1058223412525
256,192,97049,2,0,L|320:192,1,35.1058223412525
256,192,97049,2,0,L|320:192,1,35.1058223412525
256,192,97049,2,0,L|320:192,1,35.1058223412525
256,192,97049,2,0,L|320:192,1,35.1058223412525
256,192,97049,2,0,L|320:192,1,35.1058223412525
256,192,97049,2,0,L|320:192,1,35.1058223412525
256,192,97049,2,0,L|320:192,1,35.1058223412525
256,192,97049,2,0,L|320:192,1,35.1058223412525
256,192,97050,2,0,L|320:192,1,35.1058223412525
256,192,97050,2,0,L|320:192,1,35.1058223412525
256,192,97050,2,0,L|320:192,1,35.1058223412525
256,192,97050,2,0,L|320:192,1,35.1058223412525
256,192,97050,2,0,L|320:192,1,35.1058223412525
256,192,97050,2,0,L|320:192,1,35.1058223412525
256,192,97050,2,0,L|320:192,1,35.1058223412525
256,192,97050,2,0,L|320:192,1,35.1058223412525
256,192,97050,2,0,L|320:192,1,35.1058223412525
256,192,97050,2,0,L|320:192,1,35.1058223412525
256,192,97069,2,0,L|320:192,1,35.1058223412525
256,192,97069,2,0,L|320:192,1,35.1058223412525
256,192,97069,2,0,L|320:192,1,35.1058223412525
256,192,97070,2,0,L|320:192,1,35.1058223412525
256,192,97070,2,0,L|320:192,1,35.1058223412525
256,192,97070,2,0,L|320:192,1,35.1058223412525
256,192,97070,2,0,L|320:192,1,35.1058223412525
256,192,97070,2,0,L|320:192,1,35.1058223412525
256,192,97070,2,0,L|320:192,1,35.1058223412525
256,192,97070,2,0,L|320:192,1,35.1058223412525
256,192,97070,2,0,L|320:192,1,35.1058223412525
256,192,97070,2,0,L|320:192,1,35.1058223412525
256,192,97070,2,0,L|320:192,1,35.1058223412525
256,192,97070,2,0,L|320:192,1,35.1058223412525
256,192,97070,2,0,L|320:192,1,35.1058223412525
256,192,97070,2,0,L|320:192,1,35.1058223412525
256,192,97070,2,0,L|320:192,1,35.1058223412525
256,192,97070,2,0,L|320:192,1,35.1058223412525
256,192,97089,2,0,L|320:192,1,35.1058223412525
256,192,97090,2,0,L|320:192,1,35.1058223412525
256,192,97090,2,0,L|320:192,1,35.1058223412525
256,192,97090,2,0,L|320:192,1,35.1058223412525
256,192,97090,2,0,L|320:192,1,35.1058223412525
256,192,97090,2,0,L|320:192,1,35.1058223412525
256,192,97090,2,0,L|320:192,1,35.1058223412525
256,192,97090,2,0,L|320:192,1,35.1058223412525
256,192,97090,2,0,L|320:192,1,35.1058223412525
256,192,97090,2,0,L|320:192,1,35.1058223412525
256,192,97090,2,0,L|320:192,1,35.1058223412525
256,192,97090,2,0,L|320:192,1,35.1058223412525
256,192,97090,2,0,L|320:192,1,35.1058223412525
256,192,97090,2,0,L|320:192,1,35.1058223412525
256,192,97090,2,0,L|320:192,1,35.1058223412525
256,192,97090,2,0,L|320:192,1,35.1058223412525
256,192,97090,2,0,L|320:192,1,35.1058223412525
256,192,97090,2,0,L|320:192,1,35.1058223412525
256,192,97110,2,0,L|320:192,1,35.1058223412525
256,192,97110,2,0,L|320:192,1,35.1058223412525
256,192,97110,2,0,L|320:192,1,35.1058223412525
256,192,97110,2,0,L|320:192,1,35.1058223412525
256,192,97110,2,0,L|320:192,1,35.1058223412525
256,192,97110,2,0,L|320:192,1,35.1058223412525
256,192,97110,2,0,L|320:192,1,35.1058223412525
256,192,97110,2,0,L|320:192,1,35.1058223412525
256,192,97110,2,0,L|320:192,1,35.1058223412525
256,192,97110,2,0,L|320:192,1,35.1058223412525
256,192,97110,2,0,L|320:192,1,35.1058223412525
256,192,97110,2,0,L|320:192,1,35.1058223412525
256,192,97110,2,0,L|320:192,1,35.1058223412525
256,192,97110,2,0,L|320:192,1,35.1058223412525
256,192,97110,2,0,L|320:192,1,35.1058223412525
256,192,97110,2,0,L|320:192,1,35.1058223412525
256,192,97110,2,0,L|320:192,1,35.1058223412525
256,192,97111,2,0,L|320:192,1,35.1058223412525
256,192,97130,2,0,L|320:192,1,35.1058223412525
256,192,97130,2,0,L|320:192,1,35.1058223412525
256,192,97130,2,0,L|320:192,1,35.1058223412525
256,192,97130,2,0,L|320:192,1,35.1058223412525
256,192,97130,2,0,L|320:192,1,35.1058223412525
256,192,97130,2,0,L|320:192,1,35.1058223412525
256,192,97130,2,0,L|320:192,1,35.1058223412525
256,192,97130,2,0,L|320:192,1,35.1058223412525
256,192,97131,2,0,L|320:192,1,35.1058223412525
256,192,97131,2,0,L|320:192,1,35.1058223412525
256,192,97131,2,0,L|320:192,1,35.1058223412525
256,192,97131,2,0,L|320:192,1,35.1058223412525
256,192,97131,2,0,L|320:192,1,35.1058223412525
256,192,97131,2,0,L|320:192,1,35.1058223412525
256,192,97131,2,0,L|320:192,1,35.1058223412525
256,192,97131,2,0,L|320:192,1,35.1058223412525
256,192,97131,2,0,L|320:192,1,35.1058223412525
256,192,97131,2,0,L|320:192,1,35.1058223412525
256,192,97150,2,0,L|320:192,1,35.1058223412525
256,192,97150,2,0,L|320:192,1,35.1058223412525
256,192,97150,2,0,L|320:192,1,35.1058223412525
256,192,97151,2,0,L|320:192,1,35.1058223412525
256,192,97151,2,0,L|320:192,1,35.1058223412525
256,192,97151,2,0,L|320:192,1,35.1058223412525
256,192,97151,2,0,L|320:192,1,35.1058223412525
256,192,97151,2,0,L|320:192,1,35.1058223412525
256,192,97151,2,0,L|320:192,1,35.1058223412525
256,192,97151,2,0,L|320:192,1,35.1058223412525
256,192,97151,2,0,L|320:192,1,35.1058223412525
256,192,97151,2,0,L|320:192,1,35.1058223412525
256,192,97151,2,0,L|320:192,1,35.1058223412525
256,192,97151,2,0,L|320:192,1,35.1058223412525
256,192,97151,2,0,L|320:192,1,35.1058223412525
256,192,97151,2,0,L|320:192,1,35.1058223412525
256,192,97151,2,0,L|320:192,1,35.1058223412525
256,192,97151,2,0,L|320:192,1,35.1058223412525
256,192,97171,2,0,L|320:192,1,35.1058223412525
256,192,97171,2,0,L|320:192,1,35.1058223412525
256,192,97171,2,0,L|320:192,1,35.1058223412525
256,192,97171,2,0,L|320:192,1,35.1058223412525
256,192,97171,2,0,L|320:192,1,35.1058223412525
256,192,97171,2,0,L|320:192,1,35.1058223412525
256,192,97171,2,0,L|320:192,1,35.1058223412525
256,192,97171,2,0,L|320:192,1,35.1058223412525
256,192,97171,2,0,L|320:192,1,35.1058223412525
256,192,97171,2,0,L|320:192,1,35.1058223412525
256,192,97171,2,0,L|320:192,1,35.1058223412525
256,192,97171,2,0,L|320:192,1,35.1058223412525
256,192,97171,2,0,L|320:192,1,35.1058223412525
256,192,97171,2,0,L|320:192,1,35.1058223412525
256,192,97171,2,0,L|320:192,1,35.1058223412525
256,192,97171,2,0,L|320:192,1,35.1058223412525
256,192,97171,2,0,L|320:192,1,35.1058223412525
256,192,97172,2,0,L|320:192,1,35.1058223412525
256,192,97191,2,0,L|320:192,1,35.1058223412525
256,192,97191,2,0,L|320:192,1,35.1058223412525
256,192,97191,2,0,L|320:192,1,35.1058223412525
256,192,97191,2,0,L|320:192,1,35.1058223412525
256,192,97191,2,0,L|320:192,1,35.1058223412525
256,192,97191,2,0,L|320:192,1,35.1058223412525
256,192,97191,2,0,L|320:192,1,35.1058223412525
256,192,97191,2,0,L|320:192,1,35.1058223412525
256,192,97192,2,0,L|320:192,1,35.1058223412525
256,192,97192,2,0,L|320:192,1,35.1058223412525
256,192,97192,2,0,L|320:192,1,35.1058223412525
256,192,97192,2,0,L|320:192,1,35.1058223412525
256,192,97192,2,0,L|320:192,1,35.1058223412525
256,192,97192,2,0,L|320:192,1,35.1058223412525
256,192,97192,2,0,L|320:192,1,35.1058223412525
256,192,97192,2,0,L|320:192,1,35.1058223412525
256,192,97192,2,0,L|320:192,1,35.1058223412525
256,192,97192,2,0,L|320:192,1,35.1058223412525
256,192,97211,2,0,L|320:192,1,35.1058223412525
256,192,97211,2,0,L|320:192,1,35.1058223412525
256,192,97211,2,0,L|320:192,1,35.1058223412525
256,192,97212,2,0,L|320:192,1,35.1058223412525
256,192,97212,2,0,L|320:192,1,35.1058223412525
256,192,97212,2,0,L|320:192,1,35.1058223412525
256,192,97212,2,0,L|320:192,1,35.1058223412525
256,192,97212,2,0,L|320:192,1,35.1058223412525
256,192,97212,2,0,L|320:192,1,35.1058223412525
256,192,97212,2,0,L|320:192,1,35.1058223412525
256,192,97212,2,0,L|320:192,1,35.1058223412525
256,192,97212,2,0,L|320:192,1,35.1058223412525
256,192,97212,2,0,L|320:192,1,35.1058223412525
256,192,97212,2,0,L|320:192,1,35.1058223412525
256,192,97212,2,0,L|320:192,1,35.1058223412525
256,192,97212,2,0,L|320:192,1,35.1058223412525
256,192,97212,2,0,L|320:192,1,35.1058223412525
256,192,97212,2,0,L|320:192,1,35.1058223412525
256,192,97231,2,0,L|320:192,1,35.1058223412525
256,192,97232,2,0,L|320:192,1,35.1058223412525
256,192,97232,2,0,L|320:192,1,35.1058223412525
256,192,97232,2,0,L|320:192,1,35.1058223412525
256,192,97232,2,0,L|320:192,1,35.1058223412525
256,192,97232,2,0,L|320:192,1,35.1058223412525
256,192,97232,2,0,L|320:192,1,35.1058223412525
256,192,97232,2,0,L|320:192,1,35.1058223412525
256,192,97232,2,0,L|320:192,1,35.1058223412525
256,192,97232,2,0,L|320:192,1,35.1058223412525
256,192,97232,2,0,L|320:192,1,35.1058223412525
256,192,97232,2,0,L|320:192,1,35.1058223412525
256,192,97232,2,0,L|320:192,1,35.1058223412525
256,192,97232,2,0,L|320:192,1,35.1058223412525
256,192,97232,2,0,L|320:192,1,35.1058223412525
256,192,97232,2,0,L|320:192,1,35.1058223412525
256,192,97232,2,0,L|320:192,1,35.1058223412525
256,192,97232,2,0,L|320:192,1,35.1058223412525
256,192,97252,2,0,L|320:192,1,35.1058223412525
256,192,97252,2,0,L|320:192,1,35.1058223412525
256,192,97252,2,0,L|320:192,1,35.1058223412525
256,192,97252,2,0,L|320:192,1,35.1058223412525
256,192,97252,2,0,L|320:192,1,35.1058223412525
256,192,97252,2,0,L|320:192,1,35.1058223412525
256,192,97252,2,0,L|320:192,1,35.1058223412525
256,192,97252,2,0,L|320:192,1,35.1058223412525
256,192,97252,2,0,L|320:192,1,35.1058223412525
256,192,97252,2,0,L|320:192,1,35.1058223412525
256,192,97252,2,0,L|320:192,1,35.1058223412525
256,192,97252,2,0,L|320:192,1,35.1058223412525
256,192,97252,2,0,L|320:192,1,35.1058223412525
256,192,97252,2,0,L|320:192,1,35.1058223412525
256,192,97252,2,0,L|320:192,1,35.1058223412525
256,192,97252,2,0,L|320:192,1,35.1058223412525
256,192,97252,2,0,L|320:192,1,35.1058223412525
256,192,97253,2,0,L|320:192,1,35.1058223412525
256,192,97272,2,0,L|320:192,1,35.1058223412525
256,192,97272,2,0,L|320:192,1,35.1058223412525
256,192,97272,2,0,L|320:192,1,35.1058223412525
256,192,97272,2,0,L|320:192,1,35.1058223412525
256,192,97272,2,0,L|320:192,1,35.1058223412525
256,192,97272,2,0,L|320:192,1,35.1058223412525
256,192,97272,2,0,L|320:192,1,35.1058223412525
256,192,97272,2,0,L|320:192,1,35.1058223412525
256,192,97273,2,0,L|320:192,1,35.1058223412525
256,192,97273,2,0,L|320:192,1,35.1058223412525
256,192,97273,2,0,L|320:192,1,35.1058223412525
256,192,97273,2,0,L|320:192,1,35.1058223412525
256,192,97273,2,0,L|320:192,1,35.1058223412525
256,192,97273,2,0,L|320:192,1,35.1058223412525
256,192,97273,2,0,L|320:192,1,35.1058223412525
256,192,97273,2,0,L|320:192,1,35.1058223412525
256,192,97273,2,0,L|320:192,1,35.1058223412525
256,192,97273,2,0,L|320:192,1,35.1058223412525
256,192,97292,2,0,L|320:192,1,35.1058223412525
256,192,97292,2,0,L|320:192,1,35.1058223412525
256,192,97292,2,0,L|320:192,1,35.1058223412525
256,192,97293,2,0,L|320:192,1,35.1058223412525
256,192,97293,2,0,L|320:192,1,35.1058223412525
256,192,97293,2,0,L|320:192,1,35.1058223412525
256,192,97293,2,0,L|320:192,1,35.1058223412525
256,192,97293,2,0,L|320:192,1,35.1058223412525
256,192,97293,2,0,L|320:192,1,35.1058223412525
256,192,97293,2,0,L|320:192,1,35.1058223412525
256,192,97293,2,0,L|320:192,1,35.1058223412525
256,192,97293,2,0,L|320:192,1,35.1058223412525
256,192,97293,2,0,L|320:192,1,35.1058223412525
256,192,97293,2,0,L|320:192,1,35.1058223412525
256,192,97293,2,0,L|320:192,1,35.1058223412525
256,192,97293,2,0,L|320:192,1,35.1058223412525
256,192,97293,2,0,L|320:192,1,35.1058223412525
256,192,97293,2,0,L|320:192,1,35.1058223412525
256,192,97313,2,0,L|320:192,1,35.1058223412525
256,192,97313,2,0,L|320:192,1,35.1058223412525
256,192,97313,2,0,L|320:192,1,35.1058223412525
256,192,97313,2,0,L|320:192,1,35.1058223412525
256,192,97313,2,0,L|320:192,1,35.1058223412525
256,192,97313,2,0,L|320:192,1,35.1058223412525
256,192,97313,2,0,L|320:192,1,35.1058223412525
256,192,97313,2,0,L|320:192,1,35.1058223412525
256,192,97313,2,0,L|320:192,1,35.1058223412525
256,192,97313,2,0,L|320:192,1,35.1058223412525
256,192,97313,2,0,L|320:192,1,35.1058223412525
256,192,97313,2,0,L|320:192,1,35.1058223412525
256,192,97313,2,0,L|320:192,1,35.1058223412525
256,192,97313,2,0,L|320:192,1,35.1058223412525
256,192,97313,2,0,L|320:192,1,35.1058223412525
256,192,97313,2,0,L|320:192,1,35.1058223412525
256,192,97333,2,0,L|320:192,1,35.1058223412525
256,192,97333,2,0,L|320:192,1,35.1058223412525
256,192,97333,2,0,L|320:192,1,35.1058223412525
256,192,97333,2,0,L|320:192,1,35.1058223412525
256,192,97333,2,0,L|320:192,1,35.1058223412525
256,192,97333,2,0,L|320:192,1,35.1058223412525
256,192,97333,2,0,L|320:192,1,35.1058223412525
256,192,97333,2,0,L|320:192,1,35.1058223412525
256,192,97334,2,0,L|320:192,1,35.1058223412525
256,192,97353,2,0,L|320:192,1,35.1058223412525
256,192,97353,2,0,L|320:192,1,35.1058223412525
256,192,97353,2,0,L|320:192,1,35.1058223412525
256,192,97354,2,0,L|320:192,1,35.1058223412525
256,192,97354,2,0,L|320:192,1,35.1058223412525
256,192,97354,2,0,L|320:192,1,35.1058223412525
256,192,97354,2,0,L|320:192,1,35.1058223412525
256,192,97354,2,0,L|320:192,1,35.1058223412525
256,192,97354,2,0,L|320:192,1,35.1058223412525
256,192,97354,2,0,L|320:192,1,35.1058223412525
256,192,97354,2,0,L|320:192,1,35.1058223412525
256,192,97354,2,0,L|320:192,1,35.1058223412525
256,192,97354,2,0,L|320:192,1,35.1058223412525
256,192,97373,2,0,L|320:192,1,35.1058223412525
256,192,97374,2,0,L|320:192,1,35.1058223412525
256,192,97374,2,0,L|320:192,1,35.1058223412525
256,192,97374,2,0,L|320:192,1,35.1058223412525
256,192,97374,2,0,L|320:192,1,35.1058223412525
256,192,97374,2,0,L|320:192,1,35.1058223412525
256,192,97374,2,0,L|320:192,1,35.1058223412525
256,192,97374,2,0,L|320:192,1,35.1058223412525
256,192,97374,2,0,L|320:192,1,35.1058223412525
256,192,97374,2,0,L|320:192,1,35.1058223412525
256,192,97374,2,0,L|320:192,1,35.1058223412525
256,192,97374,2,0,L|320:192,1,35.1058223412525
256,192,97374,2,0,L|320:192,1,35.1058223412525
256,192,97374,2,0,L|320:192,1,35.1058223412525
256,192,97374,2,0,L|320:192,1,35.1058223412525
256,192,97374,2,0,L|320:192,1,35.1058223412525
256,192,97393,2,0,L|320:192,1,35.1058223412525
256,192,97394,2,0,L|320:192,1,35.1058223412525
256,192,97394,2,0,L|320:192,1,35.1058223412525
256,192,97394,2,0,L|320:192,1,35.1058223412525
256,192,97394,2,0,L|320:192,1,35.1058223412525
256,192,97394,2,0,L|320:192,1,35.1058223412525
256,192,97394,2,0,L|320:192,1,35.1058223412525
256,192,97394,2,0,L|320:192,1,35.1058223412525
256,192,97394,2,0,L|320:192,1,35.1058223412525
256,192,97394,2,0,L|320:192,1,35.1058223412525
256,192,97394,2,0,L|320:192,1,35.1058223412525
256,192,97394,2,0,L|320:192,1,35.1058223412525
256,192,97394,2,0,L|320:192,1,35.1058223412525
256,192,97394,2,0,L|320:192,1,35.1058223412525
256,192,97394,2,0,L|320:192,1,35.1058223412525
256,192,97394,2,0,L|320:192,1,35.1058223412525
256,192,97394,2,0,L|320:192,1,35.1058223412525
256,192,97394,2,0,L|320:192,1,35.1058223412525
256,192,97414,2,0,L|320:192,1,35.1058223412525
256,192,97414,2,0,L|320:192,1,35.1058223412525
256,192,97414,2,0,L|320:192,1,35.1058223412525
256,192,97414,2,0,L|320:192,1,35.1058223412525
256,192,97414,2,0,L|320:192,1,35.1058223412525
256,192,97414,2,0,L|320:192,1,35.1058223412525
256,192,97414,2,0,L|320:192,1,35.1058223412525
256,192,97414,2,0,L|320:192,1,35.1058223412525
256,192,97414,2,0,L|320:192,1,35.1058223412525
256,192,97414,2,0,L|320:192,1,35.1058223412525
256,192,97414,2,0,L|320:192,1,35.1058223412525
256,192,97414,2,0,L|320:192,1,35.1058223412525
256,192,97414,2,0,L|320:192,1,35.1058223412525
256,192,97414,2,0,L|320:192,1,35.1058223412525
256,192,97414,2,0,L|320:192,1,35.1058223412525
256,192,97414,2,0,L|320:192,1,35.1058223412525
256,192,97414,2,0,L|320:192,1,35.1058223412525
256,192,97415,2,0,L|320:192,1,35.1058223412525
256,192,97434,2,0,L|320:192,1,35.1058223412525
256,192,97434,2,0,L|320:192,1,35.1058223412525
256,192,97434,2,0,L|320:192,1,35.1058223412525
256,192,97434,2,0,L|320:192,1,35.1058223412525
256,192,97434,2,0,L|320:192,1,35.1058223412525
256,192,97434,2,0,L|320:192,1,35.1058223412525
256,192,97434,2,0,L|320:192,1,35.1058223412525
256,192,97434,2,0,L|320:192,1,35.1058223412525
256,192,97435,2,0,L|320:192,1,35.1058223412525
256,192,97435,2,0,L|320:192,1,35.1058223412525
256,192,97435,2,0,L|320:192,1,35.1058223412525
256,192,97435,2,0,L|320:192,1,35.1058223412525
256,192,97435,2,0,L|320:192,1,35.1058223412525
256,192,97435,2,0,L|320:192,1,35.1058223412525
256,192,97435,2,0,L|320:192,1,35.1058223412525
256,192,97435,2,0,L|320:192,1,35.1058223412525
256,192,97435,2,0,L|320:192,1,35.1058223412525
256,192,97435,2,0,L|320:192,1,35.1058223412525
256,192,97454,2,0,L|320:192,1,35.1058223412525
256,192,97454,2,0,L|320:192,1,35.1058223412525
256,192,97454,2,0,L|320:192,1,35.1058223412525
256,192,97455,2,0,L|320:192,1,35.1058223412525
256,192,97455,2,0,L|320:192,1,35.1058223412525
256,192,97455,2,0,L|320:192,1,35.1058223412525
256,192,97455,2,0,L|320:192,1,35.1058223412525
256,192,97455,2,0,L|320:192,1,35.1058223412525
256,192,97455,2,0,L|320:192,1,35.1058223412525
256,192,97455,2,0,L|320:192,1,35.1058223412525
256,192,97455,2,0,L|320:192,1,35.1058223412525
256,192,97455,2,0,L|320:192,1,35.1058223412525
256,192,97455,2,0,L|320:192,1,35.1058223412525
256,192,97455,2,0,L|320:192,1,35.1058223412525
256,192,97455,2,0,L|320:192,1,35.1058223412525
256,192,97455,2,0,L|320:192,1,35.1058223412525
256,192,97455,2,0,L|320:192,1,35.1058223412525
256,192,97455,2,0,L|320:192,1,35.1058223412525
256,192,97475,2,0,L|320:192,1,35.1058223412525
256,192,97475,2,0,L|320:192,1,35.1058223412525
256,192,97475,2,0,L|320:192,1,35.1058223412525
256,192,97475,2,0,L|320:192,1,35.1058223412525
256,192,97475,2,0,L|320:192,1,35.1058223412525
256,192,97475,2,0,L|320:192,1,35.1058223412525
256,192,97475,2,0,L|320:192,1,35.1058223412525
256,192,97475,2,0,L|320:192,1,35.1058223412525
256,192,97475,2,0,L|320:192,1,35.1058223412525
256,192,97475,2,0,L|320:192,1,35.1058223412525
256,192,97475,2,0,L|320:192,1,35.1058223412525
256,192,97475,2,0,L|320:192,1,35.1058223412525
256,192,97475,2,0,L|320:192,1,35.1058223412525
256,192,97475,2,0,L|320:192,1,35.1058223412525
256,192,97475,2,0,L|320:192,1,35.1058223412525
256,192,97475,2,0,L|320:192,1,35.1058223412525
256,192,97475,2,0,L|320:192,1,35.1058223412525
256,192,97476,2,0,L|320:192,1,35.1058223412525
256,192,97495,2,0,L|320:192,1,35.1058223412525
256,192,97495,2,0,L|320:192,1,35.1058223412525
256,192,97495,2,0,L|320:192,1,35.1058223412525
256,192,97495,2,0,L|320:192,1,35.1058223412525
256,192,97495,2,0,L|320:192,1,35.1058223412525
256,192,97495,2,0,L|320:192,1,35.1058223412525
256,192,97495,2,0,L|320:192,1,35.1058223412525
256,192,97495,2,0,L|320:192,1,35.1058223412525
256,192,97496,2,0,L|320:192,1,35.1058223412525
256,192,97496,2,0,L|320:192,1,35.1058223412525
256,192,97496,2,0,L|320:192,1,35.1058223412525
256,192,97496,2,0,L|320:192,1,35.1058223412525
256,192,97496,2,0,L|320:192,1,35.1058223412525
256,192,97496,2,0,L|320:192,1,35.1058223412525
256,192,97496,2,0,L|320:192,1,35.1058223412525
256,192,97496,2,0,L|320:192,1,35.1058223412525
256,192,97496,2,0,L|320:192,1,35.1058223412525
256,192,97496,2,0,L|320:192,1,35.1058223412525
256,192,97515,2,0,L|320:192,1,35.1058223412525
256,192,97515,2,0,L|320:192,1,35.1058223412525
256,192,97515,2,0,L|320:192,1,35.1058223412525
256,192,97516,2,0,L|320:192,1,35.1058223412525
256,192,97516,2,0,L|320:192,1,35.1058223412525
256,192,97516,2,0,L|320:192,1,35.1058223412525
256,192,97516,2,0,L|320:192,1,35.1058223412525
256,192,97516,2,0,L|320:192,1,35.1058223412525
256,192,97516,2,0,L|320:192,1,35.1058223412525
256,192,97516,2,0,L|320:192,1,35.1058223412525
256,192,97516,2,0,L|320:192,1,35.1058223412525
256,192,97516,2,0,L|320:192,1,35.1058223412525
256,192,97516,2,0,L|320:192,1,35.1058223412525
256,192,97516,2,0,L|320:192,1,35.1058223412525
256,192,97516,2,0,L|320:192,1,35.1058223412525
256,192,97516,2,0,L|320:192,1,35.1058223412525
256,192,97516,2,0,L|320:192,1,35.1058223412525
256,192,97516,2,0,L|320:192,1,35.1058223412525
256,192,97535,2,0,L|320:192,1,35.1058223412525
256,192,97536,2,0,L|320:192,1,35.1058223412525
256,192,97536,2,0,L|320:192,1,35.1058223412525
256,192,97536,2,0,L|320:192,1,35.1058223412525
256,192,97536,2,0,L|320:192,1,35.1058223412525
256,192,97536,2,0,L|320:192,1,35.1058223412525
256,192,97536,2,0,L|320:192,1,35.1058223412525
256,192,97536,2,0,L|320:192,1,35.1058223412525
256,192,97536,2,0,L|320:192,1,35.1058223412525
256,192,97536,2,0,L|320:192,1,35.1058223412525
256,192,97536,2,0,L|320:192,1,35.1058223412525
256,192,97536,2,0,L|320:192,1,35.1058223412525
256,192,97536,2,0,L|320:192,1,35.1058223412525
256,192,97536,2,0,L|320:192,1,35.1058223412525
256,192,97536,2,0,L|320:192,1,35.1058223412525
256,192,97536,2,0,L|320:192,1,35.1058223412525
256,192,97536,2,0,L|320:192,1,35.1058223412525
256,192,97536,2,0,L|320:192,1,35.1058223412525
256,192,97556,2,0,L|320:192,1,35.1058223412525
256,192,97556,2,0,L|320:192,1,35.1058223412525
256,192,97556,2,0,L|320:192,1,35.1058223412525
256,192,97556,2,0,L|320:192,1,35.1058223412525
256,192,97556,2,0,L|320:192,1,35.1058223412525
256,192,97556,2,0,L|320:192,1,35.1058223412525
256,192,97556,2,0,L|320:192,1,35.1058223412525
256,192,97556,2,0,L|320:192,1,35.1058223412525
256,192,97556,2,0,L|320:192,1,35.1058223412525
256,192,97556,2,0,L|320:192,1,35.1058223412525
256,192,97556,2,0,L|320:192,1,35.1058223412525
256,192,97556,2,0,L|320:192,1,35.1058223412525
256,192,97556,2,0,L|320:192,1,35.1058223412525
256,192,97556,2,0,L|320:192,1,35.1058223412525
256,192,97556,2,0,L|320:192,1,35.1058223412525
256,192,97556,2,0,L|320:192,1,35.1058223412525
256,192,97556,2,0,L|320:192,1,35.1058223412525
256,192,97557,2,0,L|320:192,1,35.1058223412525
256,192,97576,2,0,L|320:192,1,35.1058223412525
256,192,97576,2,0,L|320:192,1,35.1058223412525
256,192,97576,2,0,L|320:192,1,35.1058223412525
256,192,97576,2,0,L|320:192,1,35.1058223412525
256,192,97576,2,0,L|320:192,1,35.1058223412525
256,192,97576,2,0,L|320:192,1,35.1058223412525
256,192,97576,2,0,L|320:192,1,35.1058223412525
256,192,97576,2,0,L|320:192,1,35.1058223412525
256,192,97577,2,0,L|320:192,1,35.1058223412525
256,192,97577,2,0,L|320:192,1,35.1058223412525
256,192,97577,2,0,L|320:192,1,35.1058223412525
256,192,97577,2,0,L|320:192,1,35.1058223412525
256,192,97577,2,0,L|320:192,1,35.1058223412525
256,192,97577,2,0,L|320:192,1,35.1058223412525
256,192,97577,2,0,L|320:192,1,35.1058223412525
256,192,97577,2,0,L|320:192,1,35.1058223412525
256,192,97577,2,0,L|320:192,1,35.1058223412525
256,192,97577,2,0,L|320:192,1,35.1058223412525
256,192,97596,2,0,L|320:192,1,35.1058223412525
256,192,97596,2,0,L|320:192,1,35.1058223412525
256,192,97596,2,0,L|320:192,1,35.1058223412525
256,192,97597,2,0,L|320:192,1,35.1058223412525
256,192,97597,2,0,L|320:192,1,35.1058223412525
256,192,97597,2,0,L|320:192,1,35.1058223412525
256,192,97597,2,0,L|320:192,1,35.1058223412525
256,192,97597,2,0,L|320:192,1,35.1058223412525
256,192,97597,2,0,L|320:192,1,35.1058223412525
256,192,97597,2,0,L|320:192,1,35.1058223412525
256,192,97597,2,0,L|320:192,1,35.1058223412525
256,192,97597,2,0,L|320:192,1,35.1058223412525
256,192,97597,2,0,L|320:192,1,35.1058223412525
256,192,97597,2,0,L|320:192,1,35.1058223412525
256,192,97597,2,0,L|320:192,1,35.1058223412525
256,192,97597,2,0,L|320:192,1,35.1058223412525
256,192,97597,2,0,L|320:192,1,35.1058223412525
256,192,97597,2,0,L|320:192,1,35.1058223412525
256,192,97616,2,0,L|320:192,1,35.1058223412525
256,192,97617,2,0,L|320:192,1,35.1058223412525
256,192,97617,2,0,L|320:192,1,35.1058223412525
256,192,97617,2,0,L|320:192,1,35.1058223412525
256,192,97617,2,0,L|320:192,1,35.1058223412525
256,192,97617,2,0,L|320:192,1,35.1058223412525
256,192,97617,2,0,L|320:192,1,35.1058223412525
256,192,97617,2,0,L|320:192,1,35.1058223412525
256,192,97617,2,0,L|320:192,1,35.1058223412525
256,192,97617,2,0,L|320:192,1,35.1058223412525
256,192,97617,2,0,L|320:192,1,35.1058223412525
256,192,97617,2,0,L|320:192,1,35.1058223412525
256,192,97617,2,0,L|320:192,1,35.1058223412525
256,192,97617,2,0,L|320:192,1,35.1058223412525
256,192,97617,2,0,L|320:192,1,35.1058223412525
256,192,97617,2,0,L|320:192,1,35.1058223412525
256,192,97617,2,0,L|320:192,1,35.1058223412525
256,192,97617,2,0,L|320:192,1,35.1058223412525
256,192,97637,2,0,L|320:192,1,35.1058223412525
256,192,97637,2,0,L|320:192,1,35.1058223412525
256,192,97637,2,0,L|320:192,1,35.1058223412525
256,192,97637,2,0,L|320:192,1,35.1058223412525
256,192,97637,2,0,L|320:192,1,35.1058223412525
256,192,97637,2,0,L|320:192,1,35.1058223412525
256,192,97637,2,0,L|320:192,1,35.1058223412525
256,192,97637,2,0,L|320:192,1,35.1058223412525
256,192,97637,2,0,L|320:192,1,35.1058223412525
256,192,97637,2,0,L|320:192,1,35.1058223412525
256,192,97637,2,0,L|320:192,1,35.1058223412525
256,192,97637,2,0,L|320:192,1,35.1058223412525
256,192,97637,2,0,L|320:192,1,35.1058223412525
256,192,97637,2,0,L|320:192,1,35.1058223412525
256,192,97637,2,0,L|320:192,1,35.1058223412525
256,192,97637,2,0,L|320:192,1,35.1058223412525
256,192,97637,2,0,L|320:192,1,35.1058223412525
256,192,97638,2,0,L|320:192,1,35.1058223412525
256,192,97657,2,0,L|320:192,1,35.1058223412525
256,192,97657,2,0,L|320:192,1,35.1058223412525
256,192,97657,2,0,L|320:192,1,35.1058223412525
256,192,97657,2,0,L|320:192,1,35.1058223412525
256,192,97657,2,0,L|320:192,1,35.1058223412525
256,192,97657,2,0,L|320:192,1,35.1058223412525
256,192,97657,2,0,L|320:192,1,35.1058223412525
256,192,97657,2,0,L|320:192,1,35.1058223412525
256,192,97658,2,0,L|320:192,1,35.1058223412525
256,192,97658,2,0,L|320:192,1,35.1058223412525
256,192,97658,2,0,L|320:192,1,35.1058223412525
256,192,97658,2,0,L|320:192,1,35.1058223412525
256,192,97658,2,0,L|320:192,1,35.1058223412525
256,192,97658,2,0,L|320:192,1,35.1058223412525
256,192,97658,2,0,L|320:192,1,35.1058223412525
256,192,97658,2,0,L|320:192,1,35.1058223412525
256,192,97658,2,0,L|320:192,1,35.1058223412525
256,192,97658,2,0,L|320:192,1,35.1058223412525
256,192,97677,2,0,L|320:192,1,35.1058223412525
256,192,97677,2,0,L|320:192,1,35.1058223412525
256,192,97677,2,0,L|320:192,1,35.1058223412525
256,192,97678,2,0,L|320:192,1,35.1058223412525
256,192,97678,2,0,L|320:192,1,35.1058223412525
256,192,97678,2,0,L|320:192,1,35.1058223412525
256,192,97678,2,0,L|320:192,1,35.1058223412525
256,192,97678,2,0,L|320:192,1,35.1058223412525
256,192,97678,2,0,L|320:192,1,35.1058223412525
256,192,97678,2,0,L|320:192,1,35.1058223412525
256,192,97678,2,0,L|320:192,1,35.1058223412525
256,192,97678,2,0,L|320:192,1,35.1058223412525
256,192,97678,2,0,L|320:192,1,35.1058223412525
256,192,97678,2,0,L|320:192,1,35.1058223412525
256,192,97678,2,0,L|320:192,1,35.1058223412525
256,192,97678,2,0,L|320:192,1,35.1058223412525
256,192,97678,2,0,L|320:192,1,35.1058223412525
256,192,97678,2,0,L|320:192,1,35.1058223412525
256,192,97698,2,0,L|320:192,1,35.1058223412525
256,192,97698,2,0,L|320:192,1,35.1058223412525
256,192,97698,2,0,L|320:192,1,35.1058223412525
256,192,97698,2,0,L|320:192,1,35.1058223412525
256,192,97698,2,0,L|320:192,1,35.1058223412525
256,192,97698,2,0,L|320:192,1,35.1058223412525
256,192,97698,2,0,L|320:192,1,35.1058223412525
256,192,97698,2,0,L|320:192,1,35.1058223412525
256,192,97698,2,0,L|320:192,1,35.1058223412525
256,192,97698,2,0,L|320:192,1,35.1058223412525
256,192,97698,2,0,L|320:192,1,35.1058223412525
256,192,97698,2,0,L|320:192,1,35.1058223412525
256,192,97698,2,0,L|320:192,1,35.1058223412525
256,192,97698,2,0,L|320:192,1,35.1058223412525
256,192,97698,2,0,L|320:192,1,35.1058223412525
256,192,97698,2,0,L|320:192,1,35.1058223412525
256,192,97698,2,0,L|320:192,1,35.1058223412525
256,192,97699,2,0,L|320:192,1,35.1058223412525
256,192,97718,2,0,L|320:192,1,35.1058223412525
256,192,97718,2,0,L|320:192,1,35.1058223412525
256,192,97718,2,0,L|320:192,1,35.1058223412525
256,192,97718,2,0,L|320:192,1,35.1058223412525
256,192,97718,2,0,L|320:192,1,35.1058223412525
256,192,97718,2,0,L|320:192,1,35.1058223412525
256,192,97718,2,0,L|320:192,1,35.1058223412525
256,192,97718,2,0,L|320:192,1,35.1058223412525
256,192,97719,2,0,L|320:192,1,35.1058223412525
256,192,97719,2,0,L|320:192,1,35.1058223412525
256,192,97719,2,0,L|320:192,1,35.1058223412525
256,192,97719,2,0,L|320:192,1,35.1058223412525
256,192,97719,2,0,L|320:192,1,35.1058223412525
256,192,97719,2,0,L|320:192,1,35.1058223412525
256,192,97719,2,0,L|320:192,1,35.1058223412525
256,192,97719,2,0,L|320:192,1,35.1058223412525
256,192,97719,2,0,L|320:192,1,35.1058223412525
256,192,97719,2,0,L|320:192,1,35.1058223412525
256,192,97738,2,0,L|320:192,1,35.1058223412525
256,192,97738,2,0,L|320:192,1,35.1058223412525
256,192,97738,2,0,L|320:192,1,35.1058223412525
256,192,97739,2,0,L|320:192,1,35.1058223412525
256,192,97739,2,0,L|320:192,1,35.1058223412525
256,192,97739,2,0,L|320:192,1,35.1058223412525
256,192,97739,2,0,L|320:192,1,35.1058223412525
256,192,97739,2,0,L|320:192,1,35.1058223412525
256,192,97739,2,0,L|320:192,1,35.1058223412525
256,192,97739,2,0,L|320:192,1,35.1058223412525
256,192,97739,2,0,L|320:192,1,35.1058223412525
256,192,97739,2,0,L|320:192,1,35.1058223412525
256,192,97739,2,0,L|320:192,1,35.1058223412525
256,192,97739,2,0,L|320:192,1,35.1058223412525
256,192,97739,2,0,L|320:192,1,35.1058223412525
256,192,97739,2,0,L|320:192,1,35.1058223412525
256,192,97739,2,0,L|320:192,1,35.1058223412525
256,192,97739,2,0,L|320:192,1,35.1058223412525
256,192,97758,2,0,L|320:192,1,35.1058223412525
256,192,97759,2,0,L|320:192,1,35.1058223412525
256,192,97759,2,0,L|320:192,1,35.1058223412525
256,192,97759,2,0,L|320:192,1,35.1058223412525
256,192,97759,2,0,L|320:192,1,35.1058223412525
256,192,97759,2,0,L|320:192,1,35.1058223412525
256,192,97759,2,0,L|320:192,1,35.1058223412525
256,192,97759,2,0,L|320:192,1,35.1058223412525
256,192,97759,2,0,L|320:192,1,35.1058223412525
256,192,97759,2,0,L|320:192,1,35.1058223412525
256,192,97759,2,0,L|320:192,1,35.1058223412525
256,192,97759,2,0,L|320:192,1,35.1058223412525
256,192,97759,2,0,L|320:192,1,35.1058223412525
256,192,97759,2,0,L|320:192,1,35.1058223412525
256,192,97759,2,0,L|320:192,1,35.1058223412525
256,192,97759,2,0,L|320:192,1,35.1058223412525
256,192,97759,2,0,L|320:192,1,35.1058223412525
256,192,97759,2,0,L|320:192,1,35.1058223412525
256,192,97779,2,0,L|320:192,1,35.1058223412525
256,192,97779,2,0,L|320:192,1,35.1058223412525
256,192,97779,2,0,L|320:192,1,35.1058223412525
256,192,97779,2,0,L|320:192,1,35.1058223412525
256,192,97779,2,0,L|320:192,1,35.1058223412525
256,192,97779,2,0,L|320:192,1,35.1058223412525
256,192,97779,2,0,L|320:192,1,35.1058223412525
256,192,97779,2,0,L|320:192,1,35.1058223412525
256,192,97779,2,0,L|320:192,1,35.1058223412525
256,192,97779,2,0,L|320:192,1,35.1058223412525
256,192,97779,2,0,L|320:192,1,35.1058223412525
256,192,97779,2,0,L|320:192,1,35.1058223412525
256,192,97779,2,0,L|320:192,1,35.1058223412525
256,192,97779,2,0,L|320:192,1,35.1058223412525
256,192,97779,2,0,L|320:192,1,35.1058223412525
256,192,97779,2,0,L|320:192,1,35.1058223412525
256,192,97779,2,0,L|320:192,1,35.1058223412525
256,192,97780,2,0,L|320:192,1,35.1058223412525
256,192,97799,2,0,L|320:192,1,35.1058223412525
256,192,97799,2,0,L|320:192,1,35.1058223412525
256,192,97799,2,0,L|320:192,1,35.1058223412525
256,192,97799,2,0,L|320:192,1,35.1058223412525
256,192,97799,2,0,L|320:192,1,35.1058223412525
256,192,97799,2,0,L|320:192,1,35.1058223412525
256,192,97799,2,0,L|320:192,1,35.1058223412525
256,192,97799,2,0,L|320:192,1,35.1058223412525
256,192,97800,2,0,L|320:192,1,35.1058223412525
256,192,97800,2,0,L|320:192,1,35.1058223412525
256,192,97800,2,0,L|320:192,1,35.1058223412525
256,192,97800,2,0,L|320:192,1,35.1058223412525
256,192,97800,2,0,L|320:192,1,35.1058223412525
256,192,97800,2,0,L|320:192,1,35.1058223412525
256,192,97800,2,0,L|320:192,1,35.1058223412525
256,192,97800,2,0,L|320:192,1,35.1058223412525
256,192,97800,2,0,L|320:192,1,35.1058223412525
256,192,97800,2,0,L|320:192,1,35.1058223412525
256,192,97819,2,0,L|320:192,1,35.1058223412525
256,192,97819,2,0,L|320:192,1,35.1058223412525
256,192,97819,2,0,L|320:192,1,35.1058223412525
256,192,97820,2,0,L|320:192,1,35.1058223412525
256,192,97820,2,0,L|320:192,1,35.1058223412525
256,192,97820,2,0,L|320:192,1,35.1058223412525
256,192,97820,2,0,L|320:192,1,35.1058223412525
256,192,97820,2,0,L|320:192,1,35.1058223412525
256,192,97820,2,0,L|320:192,1,35.1058223412525
256,192,97820,2,0,L|320:192,1,35.1058223412525
256,192,97820,2,0,L|320:192,1,35.1058223412525
256,192,97820,2,0,L|320:192,1,35.1058223412525
256,192,97820,2,0,L|320:192,1,35.1058223412525
256,192,97820,2,0,L|320:192,1,35.1058223412525
256,192,97820,2,0,L|320:192,1,35.1058223412525
256,192,97820,2,0,L|320:192,1,35.1058223412525
256,192,97820,2,0,L|320:192,1,35.1058223412525
256,192,97820,2,0,L|320:192,1,35.1058223412525
256,192,97839,2,0,L|320:192,1,35.1058223412525
256,192,97840,2,0,L|320:192,1,35.1058223412525
256,192,97840,2,0,L|320:192,1,35.1058223412525
256,192,97840,2,0,L|320:192,1,35.1058223412525
256,192,97840,2,0,L|320:192,1,35.1058223412525
256,192,97840,2,0,L|320:192,1,35.1058223412525
256,192,97840,2,0,L|320:192,1,35.1058223412525
256,192,97840,2,0,L|320:192,1,35.1058223412525
256,192,97840,2,0,L|320:192,1,35.1058223412525
256,192,97840,2,0,L|320:192,1,35.1058223412525
256,192,97840,2,0,L|320:192,1,35.1058223412525
256,192,97840,2,0,L|320:192,1,35.1058223412525
256,192,97840,2,0,L|320:192,1,35.1058223412525
256,192,97840,2,0,L|320:192,1,35.1058223412525
256,192,97840,2,0,L|320:192,1,35.1058223412525
256,192,97840,2,0,L|320:192,1,35.1058223412525
256,192,97840,2,0,L|320:192,1,35.1058223412525
256,192,97840,2,0,L|320:192,1,35.1058223412525
256,192,97859,2,0,L|320:192,1,35.1058223412525
256,192,97860,2,0,L|320:192,1,35.1058223412525
256,192,97860,2,0,L|320:192,1,35.1058223412525
256,192,97860,2,0,L|320:192,1,35.1058223412525
256,192,97860,2,0,L|320:192,1,35.1058223412525
256,192,97860,2,0,L|320:192,1,35.1058223412525
256,192,97860,2,0,L|320:192,1,35.1058223412525
256,192,97860,2,0,L|320:192,1,35.1058223412525
256,192,97860,2,0,L|320:192,1,35.1058223412525
256,192,97860,2,0,L|320:192,1,35.1058223412525
256,192,97860,2,0,L|320:192,1,35.1058223412525
256,192,97860,2,0,L|320:192,1,35.1058223412525
256,192,97860,2,0,L|320:192,1,35.1058223412525
256,192,97860,2,0,L|320:192,1,35.1058223412525
256,192,97860,2,0,L|320:192,1,35.1058223412525
256,192,97860,2,0,L|320:192,1,35.1058223412525
256,192,97860,2,0,L|320:192,1,35.1058223412525
256,192,97860,2,0,L|320:192,1,35.1058223412525
256,192,97879,2,0,L|320:192,1,35.1058223412525
256,192,97880,2,0,L|320:192,1,35.1058223412525
256,192,97880,2,0,L|320:192,1,35.1058223412525
256,192,97880,2,0,L|320:192,1,35.1058223412525
256,192,97880,2,0,L|320:192,1,35.1058223412525
256,192,97880,2,0,L|320:192,1,35.1058223412525
256,192,97880,2,0,L|320:192,1,35.1058223412525
256,192,97880,2,0,L|320:192,1,35.1058223412525
256,192,97880,2,0,L|320:192,1,35.1058223412525
256,192,97880,2,0,L|320:192,1,35.1058223412525
256,192,97880,2,0,L|320:192,1,35.1058223412525
256,192,97880,2,0,L|320:192,1,35.1058223412525
256,192,97880,2,0,L|320:192,1,35.1058223412525
256,192,97880,2,0,L|320:192,1,35.1058223412525
256,192,97880,2,0,L|320:192,1,35.1058223412525
256,192,97880,2,0,L|320:192,1,35.1058223412525
256,192,97880,2,0,L|320:192,1,35.1058223412525
256,192,97880,2,0,L|320:192,1,35.1058223412525
256,192,97899,2,0,L|320:192,1,35.1058223412525
256,192,97900,2,0,L|320:192,1,35.1058223412525
256,192,97900,2,0,L|320:192,1,35.1058223412525
256,192,97900,2,0,L|320:192,1,35.1058223412525
256,192,97900,2,0,L|320:192,1,35.1058223412525
256,192,97900,2,0,L|320:192,1,35.1058223412525
256,192,97900,2,0,L|320:192,1,35.1058223412525
256,192,97900,2,0,L|320:192,1,35.1058223412525
256,192,97900,2,0,L|320:192,1,35.1058223412525
256,192,97900,2,0,L|320:192,1,35.1058223412525
256,192,97900,2,0,L|320:192,1,35.1058223412525
256,192,97900,2,0,L|320:192,1,35.1058223412525
256,192,97900,2,0,L|320:192,1,35.1058223412525
256,192,97900,2,0,L|320:192,1,35.1058223412525
256,192,97900,2,0,L|320:192,1,35.1058223412525
256,192,97900,2,0,L|320:192,1,35.1058223412525
256,192,97900,2,0,L|320:192,1,35.1058223412525
256,192,97900,2,0,L|320:192,1,35.1058223412525
256,192,97920,2,0,L|320:192,1,35.1058223412525
256,192,97920,2,0,L|320:192,1,35.1058223412525
256,192,97920,2,0,L|320:192,1,35.1058223412525
256,192,97920,2,0,L|320:192,1,35.1058223412525
256,192,97920,2,0,L|320:192,1,35.1058223412525
256,192,97920,2,0,L|320:192,1,35.1058223412525
256,192,97920,2,0,L|320:192,1,35.1058223412525
256,192,97920,2,0,L|320:192,1,35.1058223412525
256,192,97920,2,0,L|320:192,1,35.1058223412525
256,192,97920,2,0,L|320:192,1,35.1058223412525
256,192,97920,2,0,L|320:192,1,35.1058223412525
256,192,97920,2,0,L|320:192,1,35.1058223412525
256,192,97920,2,0,L|320:192,1,35.1058223412525
256,192,97920,2,0,L|320:192,1,35.1058223412525
256,192,97920,2,0,L|320:192,1,35.1058223412525
256,192,97920,2,0,L|320:192,1,35.1058223412525
256,192,97920,2,0,L|320:192,1,35.1058223412525
256,192,97921,2,0,L|320:192,1,35.1058223412525
256,192,97940,2,0,L|320:192,1,35.1058223412525
256,192,97940,2,0,L|320:192,1,35.1058223412525
256,192,97940,2,0,L|320:192,1,35.1058223412525
256,192,97940,2,0,L|320:192,1,35.1058223412525
256,192,97940,2,0,L|320:192,1,35.1058223412525
256,192,97940,2,0,L|320:192,1,35.1058223412525
256,192,97940,2,0,L|320:192,1,35.1058223412525
256,192,97940,2,0,L|320:192,1,35.1058223412525
256,192,97941,2,0,L|320:192,1,35.1058223412525
256,192,97941,2,0,L|320:192,1,35.1058223412525
256,192,97941,2,0,L|320:192,1,35.1058223412525
256,192,97941,2,0,L|320:192,1,35.1058223412525
256,192,97941,2,0,L|320:192,1,35.1058223412525
256,192,97941,2,0,L|320:192,1,35.1058223412525
256,192,97941,2,0,L|320:192,1,35.1058223412525
256,192,97941,2,0,L|320:192,1,35.1058223412525
256,192,97941,2,0,L|320:192,1,35.1058223412525
256,192,97941,2,0,L|320:192,1,35.1058223412525
256,192,97960,2,0,L|320:192,1,35.1058223412525
256,192,97960,2,0,L|320:192,1,35.1058223412525
256,192,97960,2,0,L|320:192,1,35.1058223412525
256,192,97961,2,0,L|320:192,1,35.1058223412525
256,192,97961,2,0,L|320:192,1,35.1058223412525
256,192,97961,2,0,L|320:192,1,35.1058223412525
256,192,97961,2,0,L|320:192,1,35.1058223412525
256,192,97961,2,0,L|320:192,1,35.1058223412525
256,192,97961,2,0,L|320:192,1,35.1058223412525
256,192,97961,2,0,L|320:192,1,35.1058223412525
256,192,97961,2,0,L|320:192,1,35.1058223412525
256,192,97961,2,0,L|320:192,1,35.1058223412525
256,192,97961,2,0,L|320:192,1,35.1058223412525
256,192,97961,2,0,L|320:192,1,35.1058223412525
256,192,97961,2,0,L|320:192,1,35.1058223412525
256,192,97961,2,0,L|320:192,1,35.1058223412525
256,192,97961,2,0,L|320:192,1,35.1058223412525
256,192,97961,2,0,L|320:192,1,35.1058223412525
256,192,97981,2,0,L|320:192,1,35.1058223412525
256,192,97981,2,0,L|320:192,1,35.1058223412525
256,192,97981,2,0,L|320:192,1,35.1058223412525
256,192,97981,2,0,L|320:192,1,35.1058223412525
256,192,97981,2,0,L|320:192,1,35.1058223412525
256,192,97981,2,0,L|320:192,1,35.1058223412525
256,192,97981,2,0,L|320:192,1,35.1058223412525
256,192,97981,2,0,L|320:192,1,35.1058223412525
256,192,97981,2,0,L|320:192,1,35.1058223412525
256,192,97981,2,0,L|320:192,1,35.1058223412525
256,192,97981,2,0,L|320:192,1,35.1058223412525
256,192,97981,2,0,L|320:192,1,35.1058223412525
256,192,97981,2,0,L|320:192,1,35.1058223412525
256,192,97981,2,0,L|320:192,1,35.1058223412525
256,192,97981,2,0,L|320:192,1,35.1058223412525
256,192,97981,2,0,L|320:192,1,35.1058223412525
256,192,97981,2,0,L|320:192,1,35.1058223412525
256,192,97982,2,0,L|320:192,1,35.1058223412525
256,192,98001,2,0,L|320:192,1,35.1058223412525
256,192,98001,2,0,L|320:192,1,35.1058223412525
256,192,98001,2,0,L|320:192,1,35.1058223412525
256,192,98001,2,0,L|320:192,1,35.1058223412525
256,192,98001,2,0,L|320:192,1,35.1058223412525
256,192,98001,2,0,L|320:192,1,35.1058223412525
256,192,98001,2,0,L|320:192,1,35.1058223412525
256,192,98001,2,0,L|320:192,1,35.1058223412525
256,192,98002,2,0,L|320:192,1,35.1058223412525
256,192,98002,2,0,L|320:192,1,35.1058223412525
256,192,98002,2,0,L|320:192,1,35.1058223412525
256,192,98002,2,0,L|320:192,1,35.1058223412525
256,192,98002,2,0,L|320:192,1,35.1058223412525
256,192,98002,2,0,L|320:192,1,35.1058223412525
256,192,98002,2,0,L|320:192,1,35.1058223412525
256,192,98002,2,0,L|320:192,1,35.1058223412525
256,192,98002,2,0,L|320:192,1,35.1058223412525
256,192,98002,2,0,L|320:192,1,35.1058223412525
256,192,98021,2,0,L|320:192,1,35.1058223412525
256,192,98021,2,0,L|320:192,1,35.1058223412525
256,192,98021,2,0,L|320:192,1,35.1058223412525
256,192,98022,2,0,L|320:192,1,35.1058223412525
256,192,98022,2,0,L|320:192,1,35.1058223412525
256,192,98022,2,0,L|320:192,1,35.1058223412525
256,192,98022,2,0,L|320:192,1,35.1058223412525
256,192,98022,2,0,L|320:192,1,35.1058223412525
256,192,98022,2,0,L|320:192,1,35.1058223412525
256,192,98022,2,0,L|320:192,1,35.1058223412525
256,192,98022,2,0,L|320:192,1,35.1058223412525
256,192,98022,2,0,L|320:192,1,35.1058223412525
256,192,98022,2,0,L|320:192,1,35.1058223412525
256,192,98022,2,0,L|320:192,1,35.1058223412525
256,192,98022,2,0,L|320:192,1,35.1058223412525
256,192,98022,2,0,L|320:192,1,35.1058223412525
256,192,98022,2,0,L|320:192,1,35.1058223412525
256,192,98022,2,0,L|320:192,1,35.1058223412525
256,192,98041,2,0,L|320:192,1,35.1058223412525
256,192,98042,2,0,L|320:192,1,35.1058223412525
256,192,98042,2,0,L|320:192,1,35.1058223412525
256,192,98042,2,0,L|320:192,1,35.1058223412525
256,192,98042,2,0,L|320:192,1,35.1058223412525
256,192,98042,2,0,L|320:192,1,35.1058223412525
256,192,98042,2,0,L|320:192,1,35.1058223412525
256,192,98042,2,0,L|320:192,1,35.1058223412525
256,192,98042,2,0,L|320:192,1,35.1058223412525
256,192,98042,2,0,L|320:192,1,35.1058223412525
256,192,98042,2,0,L|320:192,1,35.1058223412525
256,192,98042,2,0,L|320:192,1,35.1058223412525
256,192,98042,2,0,L|320:192,1,35.1058223412525
256,192,98042,2,0,L|320:192,1,35.1058223412525
256,192,98042,2,0,L|320:192,1,35.1058223412525
256,192,98042,2,0,L|320:192,1,35.1058223412525
256,192,98042,2,0,L|320:192,1,35.1058223412525
256,192,98042,2,0,L|320:192,1,35.1058223412525
256,192,98062,2,0,L|320:192,1,35.1058223412525
256,192,98062,2,0,L|320:192,1,35.1058223412525
256,192,98062,2,0,L|320:192,1,35.1058223412525
256,192,98062,2,0,L|320:192,1,35.1058223412525
256,192,98062,2,0,L|320:192,1,35.1058223412525
256,192,98062,2,0,L|320:192,1,35.1058223412525
256,192,98062,2,0,L|320:192,1,35.1058223412525
256,192,98062,2,0,L|320:192,1,35.1058223412525
256,192,98062,2,0,L|320:192,1,35.1058223412525
256,192,98062,2,0,L|320:192,1,35.1058223412525
256,192,98062,2,0,L|320:192,1,35.1058223412525
256,192,98062,2,0,L|320:192,1,35.1058223412525
256,192,98062,2,0,L|320:192,1,35.1058223412525
256,192,98062,2,0,L|320:192,1,35.1058223412525
256,192,98062,2,0,L|320:192,1,35.1058223412525
256,192,98062,2,0,L|320:192,1,35.1058223412525
256,192,98062,2,0,L|320:192,1,35.1058223412525
256,192,98063,2,0,L|320:192,1,35.1058223412525
256,192,98082,2,0,L|320:192,1,35.1058223412525
256,192,98082,2,0,L|320:192,1,35.1058223412525
256,192,98082,2,0,L|320:192,1,35.1058223412525
256,192,98082,2,0,L|320:192,1,35.1058223412525
256,192,98082,2,0,L|320:192,1,35.1058223412525
256,192,98082,2,0,L|320:192,1,35.1058223412525
256,192,98082,2,0,L|320:192,1,35.1058223412525
256,192,98082,2,0,L|320:192,1,35.1058223412525
256,192,98083,2,0,L|320:192,1,35.1058223412525
256,192,98083,2,0,L|320:192,1,35.1058223412525
256,192,98083,2,0,L|320:192,1,35.1058223412525
256,192,98083,2,0,L|320:192,1,35.1058223412525
256,192,98083,2,0,L|320:192,1,35.1058223412525
256,192,98083,2,0,L|320:192,1,35.1058223412525
256,192,98083,2,0,L|320:192,1,35.1058223412525
256,192,98083,2,0,L|320:192,1,35.1058223412525
256,192,98083,2,0,L|320:192,1,35.1058223412525
256,192,98083,2,0,L|320:192,1,35.1058223412525
256,192,98102,2,0,L|320:192,1,35.1058223412525
256,192,98102,2,0,L|320:192,1,35.1058223412525
256,192,98102,2,0,L|320:192,1,35.1058223412525
256,192,98103,2,0,L|320:192,1,35.1058223412525
256,192,98103,2,0,L|320:192,1,35.1058223412525
256,192,98103,2,0,L|320:192,1,35.1058223412525
256,192,98103,2,0,L|320:192,1,35.1058223412525
256,192,98103,2,0,L|320:192,1,35.1058223412525
256,192,98103,2,0,L|320:192,1,35.1058223412525
256,192,98103,2,0,L|320:192,1,35.1058223412525
256,192,98103,2,0,L|320:192,1,35.1058223412525
256,192,98103,2,0,L|320:192,1,35.1058223412525
256,192,98103,2,0,L|320:192,1,35.1058223412525
256,192,98103,2,0,L|320:192,1,35.1058223412525
256,192,98103,2,0,L|320:192,1,35.1058223412525
256,192,98103,2,0,L|320:192,1,35.1058223412525
256,192,98103,2,0,L|320:192,1,35.1058223412525
256,192,98103,2,0,L|320:192,1,35.1058223412525
256,192,98122,2,0,L|320:192,1,35.1058223412525
256,192,98123,2,0,L|320:192,1,35.1058223412525
256,192,98123,2,0,L|320:192,1,35.1058223412525
256,192,98123,2,0,L|320:192,1,35.1058223412525
256,192,98123,2,0,L|320:192,1,35.1058223412525
256,192,98123,2,0,L|320:192,1,35.1058223412525
256,192,98123,2,0,L|320:192,1,35.1058223412525
256,192,98123,2,0,L|320:192,1,35.1058223412525
256,192,98123,2,0,L|320:192,1,35.1058223412525
256,192,98123,2,0,L|320:192,1,35.1058223412525
256,192,98123,2,0,L|320:192,1,35.1058223412525
256,192,98123,2,0,L|320:192,1,35.1058223412525
256,192,98123,2,0,L|320:192,1,35.1058223412525
256,192,98123,2,0,L|320:192,1,35.1058223412525
256,192,98123,2,0,L|320:192,1,35.1058223412525
256,192,98123,2,0,L|320:192,1,35.1058223412525
256,192,98123,2,0,L|320:192,1,35.1058223412525
256,192,98123,2,0,L|320:192,1,35.1058223412525
256,192,98143,2,0,L|320:192,1,35.1058223412525
256,192,98143,2,0,L|320:192,1,35.1058223412525
256,192,98143,2,0,L|320:192,1,35.1058223412525
256,192,98143,2,0,L|320:192,1,35.1058223412525
256,192,98143,2,0,L|320:192,1,35.1058223412525
256,192,98143,2,0,L|320:192,1,35.1058223412525
256,192,98143,2,0,L|320:192,1,35.1058223412525
256,192,98143,2,0,L|320:192,1,35.1058223412525
256,192,98143,2,0,L|320:192,1,35.1058223412525
256,192,98143,2,0,L|320:192,1,35.1058223412525
256,192,98143,2,0,L|320:192,1,35.1058223412525
256,192,98143,2,0,L|320:192,1,35.1058223412525
256,192,98143,2,0,L|320:192,1,35.1058223412525
256,192,98143,2,0,L|320:192,1,35.1058223412525
256,192,98143,2,0,L|320:192,1,35.1058223412525
256,192,98143,2,0,L|320:192,1,35.1058223412525
256,192,98143,2,0,L|320:192,1,35.1058223412525
256,192,98144,2,0,L|320:192,1,35.1058223412525
256,192,98163,2,0,L|320:192,1,35.1058223412525
256,192,98163,2,0,L|320:192,1,35.1058223412525
256,192,98163,2,0,L|320:192,1,35.1058223412525
256,192,98163,2,0,L|320:192,1,35.1058223412525
256,192,98163,2,0,L|320:192,1,35.1058223412525
256,192,98163,2,0,L|320:192,1,35.1058223412525
256,192,98163,2,0,L|320:192,1,35.1058223412525
256,192,98163,2,0,L|320:192,1,35.1058223412525
256,192,98164,2,0,L|320:192,1,35.1058223412525
256,192,98164,2,0,L|320:192,1,35.1058223412525
256,192,98164,2,0,L|320:192,1,35.1058223412525
256,192,98164,2,0,L|320:192,1,35.1058223412525
256,192,98164,2,0,L|320:192,1,35.1058223412525
256,192,98164,2,0,L|320:192,1,35.1058223412525
256,192,98164,2,0,L|320:192,1,35.1058223412525
256,192,98164,2,0,L|320:192,1,35.1058223412525
256,192,98164,2,0,L|320:192,1,35.1058223412525
256,192,98164,2,0,L|320:192,1,35.1058223412525
256,192,98183,2,0,L|320:192,1,35.1058223412525
256,192,98183,2,0,L|320:192,1,35.1058223412525
256,192,98183,2,0,L|320:192,1,35.1058223412525
256,192,98184,2,0,L|320:192,1,35.1058223412525
256,192,98184,2,0,L|320:192,1,35.1058223412525
256,192,98184,2,0,L|320:192,1,35.1058223412525
256,192,98184,2,0,L|320:192,1,35.1058223412525
256,192,98184,2,0,L|320:192,1,35.1058223412525
256,192,98184,2,0,L|320:192,1,35.1058223412525
256,192,98184,2,0,L|320:192,1,35.1058223412525
256,192,98184,2,0,L|320:192,1,35.1058223412525
256,192,98184,2,0,L|320:192,1,35.1058223412525
256,192,98184,2,0,L|320:192,1,35.1058223412525
256,192,98184,2,0,L|320:192,1,35.1058223412525
256,192,98184,2,0,L|320:192,1,35.1058223412525
256,192,98184,2,0,L|320:192,1,35.1058223412525
256,192,98184,2,0,L|320:192,1,35.1058223412525
256,192,98184,2,0,L|320:192,1,35.1058223412525
256,192,98204,2,0,L|320:192,1,35.1058223412525
256,192,98204,2,0,L|320:192,1,35.1058223412525
256,192,98204,2,0,L|320:192,1,35.1058223412525
256,192,98204,2,0,L|320:192,1,35.1058223412525
256,192,98204,2,0,L|320:192,1,35.1058223412525
256,192,98204,2,0,L|320:192,1,35.1058223412525
256,192,98204,2,0,L|320:192,1,35.1058223412525
256,192,98204,2,0,L|320:192,1,35.1058223412525
256,192,98204,2,0,L|320:192,1,35.1058223412525
256,192,98204,2,0,L|320:192,1,35.1058223412525
256,192,98204,2,0,L|320:192,1,35.1058223412525
256,192,98204,2,0,L|320:192,1,35.1058223412525
256,192,98204,2,0,L|320:192,1,35.1058223412525
256,192,98204,2,0,L|320:192,1,35.1058223412525
256,192,98204,2,0,L|320:192,1,35.1058223412525
256,192,98204,2,0,L|320:192,1,35.1058223412525
256,192,98204,2,0,L|320:192,1,35.1058223412525
256,192,98205,2,0,L|320:192,1,35.1058223412525
256,192,98224,2,0,L|320:192,1,35.1058223412525
256,192,98224,2,0,L|320:192,1,35.1058223412525
256,192,98224,2,0,L|320:192,1,35.1058223412525
256,192,98224,2,0,L|320:192,1,35.1058223412525
256,192,98224,2,0,L|320:192,1,35.1058223412525
256,192,98224,2,0,L|320:192,1,35.1058223412525
256,192,98224,2,0,L|320:192,1,35.1058223412525
256,192,98224,2,0,L|320:192,1,35.1058223412525
256,192,98225,2,0,L|320:192,1,35.1058223412525
256,192,98225,2,0,L|320:192,1,35.1058223412525
256,192,98225,2,0,L|320:192,1,35.1058223412525
256,192,98225,2,0,L|320:192,1,35.1058223412525
256,192,98225,2,0,L|320:192,1,35.1058223412525
256,192,98225,2,0,L|320:192,1,35.1058223412525
256,192,98225,2,0,L|320:192,1,35.1058223412525
256,192,98225,2,0,L|320:192,1,35.1058223412525
256,192,98225,2,0,L|320:192,1,35.1058223412525
256,192,98225,2,0,L|320:192,1,35.1058223412525
256,192,98244,2,0,L|320:192,1,35.1058223412525
256,192,98244,2,0,L|320:192,1,35.1058223412525
256,192,98244,2,0,L|320:192,1,35.1058223412525
256,192,98245,2,0,L|320:192,1,35.1058223412525
256,192,98245,2,0,L|320:192,1,35.1058223412525
256,192,98245,2,0,L|320:192,1,35.1058223412525
256,192,98245,2,0,L|320:192,1,35.1058223412525
256,192,98245,2,0,L|320:192,1,35.1058223412525
256,192,98245,2,0,L|320:192,1,35.1058223412525
256,192,98245,2,0,L|320:192,1,35.1058223412525
256,192,98245,2,0,L|320:192,1,35.1058223412525
256,192,98245,2,0,L|320:192,1,35.1058223412525
256,192,98245,2,0,L|320:192,1,35.1058223412525
256,192,98245,2,0,L|320:192,1,35.1058223412525
256,192,98245,2,0,L|320:192,1,35.1058223412525
256,192,98245,2,0,L|320:192,1,35.1058223412525
256,192,98245,2,0,L|320:192,1,35.1058223412525
256,192,98245,2,0,L|320:192,1,35.1058223412525
256,192,98264,2,0,L|320:192,1,35.1058223412525
256,192,98265,2,0,L|320:192,1,35.1058223412525
256,192,98265,2,0,L|320:192,1,35.1058223412525
256,192,98265,2,0,L|320:192,1,35.1058223412525
256,192,98265,2,0,L|320:192,1,35.1058223412525
256,192,98265,2,0,L|320:192,1,35.1058223412525
256,192,98265,2,0,L|320:192,1,35.1058223412525
256,192,98265,2,0,L|320:192,1,35.1058223412525
256,192,98265,2,0,L|320:192,1,35.1058223412525
256,192,98265,2,0,L|320:192,1,35.1058223412525
256,192,98265,2,0,L|320:192,1,35.1058223412525
256,192,98265,2,0,L|320:192,1,35.1058223412525
256,192,98265,2,0,L|320:192,1,35.1058223412525
256,192,98265,2,0,L|320:192,1,35.1058223412525
256,192,98265,2,0,L|320:192,1,35.1058223412525
256,192,98265,2,0,L|320:192,1,35.1058223412525
256,192,98265,2,0,L|320:192,1,35.1058223412525
256,192,98265,2,0,L|320:192,1,35.1058223412525
256,192,98285,2,0,L|320:192,1,35.1058223412525
256,192,98285,2,0,L|320:192,1,35.1058223412525
256,192,98285,2,0,L|320:192,1,35.1058223412525
256,192,98285,2,0,L|320:192,1,35.1058223412525
256,192,98285,2,0,L|320:192,1,35.1058223412525
256,192,98285,2,0,L|320:192,1,35.1058223412525
256,192,98285,2,0,L|320:192,1,35.1058223412525
256,192,98285,2,0,L|320:192,1,35.1058223412525
256,192,98285,2,0,L|320:192,1,35.1058223412525
256,192,98285,2,0,L|320:192,1,35.1058223412525
256,192,98285,2,0,L|320:192,1,35.1058223412525
256,192,98285,2,0,L|320:192,1,35.1058223412525
256,192,98285,2,0,L|320:192,1,35.1058223412525
256,192,98285,2,0,L|320:192,1,35.1058223412525
256,192,98285,2,0,L|320:192,1,35.1058223412525
256,192,98285,2,0,L|320:192,1,35.1058223412525
256,192,98285,2,0,L|320:192,1,35.1058223412525
256,192,98286,2,0,L|320:192,1,35.1058223412525
256,192,98305,2,0,L|320:192,1,35.1058223412525
256,192,98305,2,0,L|320:192,1,35.1058223412525
256,192,98305,2,0,L|320:192,1,35.1058223412525
256,192,98305,2,0,L|320:192,1,35.1058223412525
256,192,98305,2,0,L|320:192,1,35.1058223412525
256,192,98305,2,0,L|320:192,1,35.1058223412525
256,192,98305,2,0,L|320:192,1,35.1058223412525
256,192,98305,2,0,L|320:192,1,35.1058223412525
256,192,98306,2,0,L|320:192,1,35.1058223412525
256,192,98306,2,0,L|320:192,1,35.1058223412525
256,192,98306,2,0,L|320:192,1,35.1058223412525
256,192,98306,2,0,L|320:192,1,35.1058223412525
256,192,98306,2,0,L|320:192,1,35.1058223412525
256,192,98306,2,0,L|320:192,1,35.1058223412525
256,192,98306,2,0,L|320:192,1,35.1058223412525
256,192,98306,2,0,L|320:192,1,35.1058223412525
256,192,98306,2,0,L|320:192,1,35.1058223412525
256,192,98306,2,0,L|320:192,1,35.1058223412525
256,192,98325,2,0,L|320:192,1,35.1058223412525
256,192,98325,2,0,L|320:192,1,35.1058223412525
256,192,98325,2,0,L|320:192,1,35.1058223412525
256,192,98326,2,0,L|320:192,1,35.1058223412525
256,192,98326,2,0,L|320:192,1,35.1058223412525
256,192,98326,2,0,L|320:192,1,35.1058223412525
256,192,98326,2,0,L|320:192,1,35.1058223412525
256,192,98326,2,0,L|320:192,1,35.1058223412525
256,192,98326,2,0,L|320:192,1,35.1058223412525
256,192,98326,2,0,L|320:192,1,35.1058223412525
256,192,98326,2,0,L|320:192,1,35.1058223412525
256,192,98326,2,0,L|320:192,1,35.1058223412525
256,192,98326,2,0,L|320:192,1,35.1058223412525
256,192,98326,2,0,L|320:192,1,35.1058223412525
256,192,98326,2,0,L|320:192,1,35.1058223412525
256,192,98326,2,0,L|320:192,1,35.1058223412525
256,192,98326,2,0,L|320:192,1,35.1058223412525
256,192,98326,2,0,L|320:192,1,35.1058223412525
256,192,98346,2,0,L|320:192,1,35.1058223412525
256,192,98346,2,0,L|320:192,1,35.1058223412525
256,192,98346,2,0,L|320:192,1,35.1058223412525
256,192,98346,2,0,L|320:192,1,35.1058223412525
256,192,98346,2,0,L|320:192,1,35.1058223412525
256,192,98346,2,0,L|320:192,1,35.1058223412525
256,192,98346,2,0,L|320:192,1,35.1058223412525
256,192,98346,2,0,L|320:192,1,35.1058223412525
256,192,98346,2,0,L|320:192,1,35.1058223412525
256,192,98346,2,0,L|320:192,1,35.1058223412525
256,192,98346,2,0,L|320:192,1,35.1058223412525
256,192,98346,2,0,L|320:192,1,35.1058223412525
256,192,98346,2,0,L|320:192,1,35.1058223412525
256,192,98346,2,0,L|320:192,1,35.1058223412525
256,192,98346,2,0,L|320:192,1,35.1058223412525
256,192,98346,2,0,L|320:192,1,35.1058223412525
256,192,98366,2,0,L|320:192,1,35.1058223412525
256,192,98366,2,0,L|320:192,1,35.1058223412525
256,192,98366,2,0,L|320:192,1,35.1058223412525
256,192,98366,2,0,L|320:192,1,35.1058223412525
256,192,98366,2,0,L|320:192,1,35.1058223412525
256,192,98366,2,0,L|320:192,1,35.1058223412525
256,192,98366,2,0,L|320:192,1,35.1058223412525
256,192,98386,2,0,L|320:192,1,35.1058223412525
256,192,98386,2,0,L|320:192,1,35.1058223412525
