osu file format v14

[General]
AudioFilename: audio.mp3
AudioLeadIn: 0
PreviewTime: 61617
Countdown: 0
SampleSet: Soft
StackLeniency: 0.2
Mode: 2
LetterboxInBreaks: 0
WidescreenStoryboard: 1

[Editor]
Bookmarks: 11023,22455,70861
DistanceSpacing: 1
BeatDivisor: 4
GridSize: 4
TimelineZoom: 1.900005

[Metadata]
Title:TSLove
TitleUnicode:TSLove
Artist:O2i3
ArtistUnicode:O2i3
Creator:[_Chichinya_]
Version:CyoLove
Source:
Tags:Melanie Friggy-chan kqrth DDM Hi_Hello 404 AccNotFound FlamingRok Dargin Cyoris210 BlackWolf159 Yuno Taikocracy Prancer agu gamerock Nifty Lno Nepuri Raphalge frukoyurdakul Cyssel Unmei Muma Q____X Vulkin JessiChan iContol Chocola_2287 AezLack _yu68 zigizigiefe Grimbow
BeatmapID:1260805
BeatmapSetID:549370

[Difficulty]
HPDrainRate:6
CircleSize:4
OverallDifficulty:9
ApproachRate:9.2
SliderMultiplier:1.49630096761494
SliderTickRate:1

[Events]
//Background and Video events
0,0,"CyoLove.jpg",0,0
//Break Periods
//Storyboard Layer 0 (Background)
//Storyboard Layer 1 (Fail)
//Storyboard Layer 2 (Pass)
//Storyboard Layer 3 (Foreground)
//Storyboard Sound Samples

[TimingPoints]
645,324.324324324324,4,2,0,100,1,0
21401,-66.6666666666667,4,2,0,100,0,1
31780,-66.6666666666667,4,2,0,100,0,1
42158,-100,4,2,0,100,0,0
62915,-66.6666666666667,4,2,0,100,0,1
73293,-66.6666666666667,4,2,0,100,0,1
83672,-100,4,2,0,100,0,0
91455,-66.6666666666667,4,2,0,100,0,0
93726,-133.333333333333,4,2,0,100,0,0

[Colours]
Combo1 : 133,24,82
Combo2 : 96,61,99
Combo3 : 252,143,143
Combo4 : 234,69,21

[HitObjects]
112,244,645,5,0,0:0:0:0:
180,204,807,1,0,0:0:0:0:
232,144,969,1,0,0:0:0:0:
180,80,1131,1,0,0:0:0:0:
448,96,1293,1,0,0:0:0:0:
376,148,1455,1,0,0:0:0:0:
328,224,1617,1,0,0:0:0:0:
368,288,1780,1,0,0:0:0:0:
88,300,1942,6,0,L|176:280,1,74.815048380747
72,196,2266,2,0,L|108:112,1,74.815048380747
368,288,2590,2,0,L|460:264,1,74.815048380747
312,188,2915,2,0,L|348:104,1,74.815048380747
80,188,3239,5,0,0:0:0:0:
188,188,3401,1,0,0:0:0:0:
456,188,3563,1,0,0:0:0:0:
320,188,3726,1,0,0:0:0:0:
180,272,3888,2,0,L|280:248,1,74.815048380747
80,172,4212,2,0,L|48:84,1,74.815048380747
328,256,4536,6,0,L|228:228,1,74.815048380747
424,176,4861,2,0,L|464:88,1,74.815048380747
156,192,5185,1,0,0:0:0:0:
292,192,5347,1,0,0:0:0:0:
156,192,5509,1,0,0:0:0:0:
292,192,5672,1,0,0:0:0:0:
348,292,5834,5,0,0:0:0:0:
392,232,5996,1,0,0:0:0:0:
412,144,6158,1,0,0:0:0:0:
392,68,6320,1,0,0:0:0:0:
128,276,6482,2,0,L|24:268,1,74.815048380747
208,188,6807,2,0,L|124:180,1,74.815048380747
400,300,7131,5,0,0:0:0:0:
340,220,7293,1,0,0:0:0:0:
320,128,7455,1,0,0:0:0:0:
416,76,7617,1,0,0:0:0:0:
248,280,7780,2,0,L|140:260,1,74.815048380747
56,168,8104,2,0,L|148:156,1,74.815048380747
440,288,8428,6,0,L|408:212,1,74.815048380747
304,300,8753,2,0,L|272:220,1,74.815048380747
184,296,9077,2,0,L|156:224,1,74.815048380747
80,56,9401,2,0,L|172:52,1,74.815048380747
408,208,9726,6,0,L|300:208,3,74.815048380747
68,196,10374,1,0,0:0:0:0:
208,192,10536,1,0,0:0:0:0:
76,196,10699,1,0,0:0:0:0:
200,192,10861,1,0,0:0:0:0:
56,284,11023,5,0,0:0:0:0:
168,264,11185,1,0,0:0:0:0:
296,240,11347,2,0,L|392:220,2,74.815048380747
88,168,11834,2,0,L|180:164,2,74.815048380747
364,296,12320,5,0,0:0:0:0:
448,216,12482,1,0,0:0:0:0:
312,212,12644,1,0,0:0:0:0:
188,212,12807,1,0,0:0:0:0:
312,212,12969,1,0,0:0:0:0:
188,212,13131,1,0,0:0:0:0:
48,212,13293,1,0,0:0:0:0:
312,212,13455,1,0,0:0:0:0:
48,212,13617,6,0,L|128:188,1,74.815048380747
376,148,13942,2,0,L|296:140,1,74.815048380747
136,148,14266,2,0,L|232:140,1,74.815048380747
348,268,14590,2,0,L|456:248,1,74.815048380747
52,272,14915,6,0,L|84:168,1,74.815048380747
292,296,15239,2,0,L|276:196,1,74.815048380747
104,304,15563,2,0,L|112:224,1,74.815048380747
400,320,15888,2,0,L|392:240,1,74.815048380747
88,280,16212,5,0,0:0:0:0:
152,228,16374,1,0,0:0:0:0:
80,184,16536,1,0,0:0:0:0:
184,188,16699,1,0,0:0:0:0:
440,300,16861,2,0,L|356:292,1,74.815048380747
412,188,17185,1,0,0:0:0:0:
292,192,17347,1,0,0:0:0:0:
80,288,17509,6,0,L|172:264,1,74.815048380747
72,172,17834,2,0,L|164:156,1,74.815048380747
336,284,18158,2,0,L|432:272,3,74.815048380747
120,320,18807,5,0,0:0:0:0:
96,280,18847,1,0,0:0:0:0:
76,232,18888,1,0,0:0:0:0:
64,184,18928,1,0,0:0:0:0:
72,128,18969,1,0,0:0:0:0:
100,88,19009,1,0,0:0:0:0:
128,48,19050,1,0,0:0:0:0:
364,320,19131,5,0,0:0:0:0:
380,284,19172,1,0,0:0:0:0:
392,232,19212,1,0,0:0:0:0:
392,160,19253,1,0,0:0:0:0:
380,88,19293,1,0,0:0:0:0:
320,60,19334,1,0,0:0:0:0:
112,204,19455,6,0,L|136:200,14,18.7037620951868
256,192,20104,12,0,21239,0:0:0:0:
132,232,21401,6,0,L|144:208,4,18.7037620951868
256,228,21726,1,0,0:0:0:0:
348,228,21888,1,0,0:0:0:0:
284,160,21969,1,0,0:0:0:0:
216,104,22050,2,0,L|128:100,1,74.815048380747
248,288,22374,1,0,0:0:0:0:
164,272,22455,1,0,0:0:0:0:
92,244,22536,1,0,0:0:0:0:
56,168,22617,1,0,0:0:0:0:
212,152,22699,6,0,L|300:148,1,74.815048380747
148,304,23023,1,0,0:0:0:0:
220,304,23185,1,0,0:0:0:0:
188,240,23347,1,0,0:0:0:0:
384,204,23672,1,0,0:0:0:0:
64,192,23996,6,0,L|92:152,4,37.4075241903735
180,272,24320,1,0,0:0:0:0:
288,212,24482,1,0,0:0:0:0:
404,172,24644,1,0,0:0:0:0:
328,104,24807,1,0,0:0:0:0:
456,100,24969,1,0,0:0:0:0:
364,264,25131,1,0,0:0:0:0:
248,240,25293,5,0,0:0:0:0:
360,260,25455,1,0,0:0:0:0:
248,240,25617,1,0,0:0:0:0:
124,204,25780,1,0,0:0:0:0:
236,144,25942,1,0,0:0:0:0:
140,336,26104,2,0,L|116:296,1,37.4075241903735
320,336,26266,2,0,L|348:304,1,37.4075241903735
84,168,26590,6,0,L|112:140,4,37.4075241903735
288,232,26915,1,0,0:0:0:0:
196,232,27077,1,0,0:0:0:0:
240,160,27158,1,0,0:0:0:0:
288,84,27239,2,0,L|212:144,1,56.111288426036
116,256,27563,1,0,0:0:0:0:
220,232,27644,1,0,0:0:0:0:
332,204,27725,1,0,0:0:0:0:
428,128,27806,1,0,0:0:0:0:
456,316,27888,6,0,L|336:304,1,112.222576852072
320,184,28212,1,0,0:0:0:0:
88,192,28374,1,0,0:0:0:0:
204,192,28536,1,0,0:0:0:0:
256,192,28861,1,0,0:0:0:0:
256,192,29185,5,0,0:0:0:0:
172,68,29509,1,0,0:0:0:0:
120,132,29590,1,0,0:0:0:0:
76,208,29672,1,0,0:0:0:0:
152,280,29753,1,0,0:0:0:0:
236,292,29834,1,0,0:0:0:0:
312,160,29996,2,0,L|384:152,2,56.111288426036
96,168,30320,1,0,0:0:0:0:
96,292,30482,6,0,L|80:232,1,37.4075241903735
204,284,30807,2,0,L|192:248,1,37.4075241903735
360,280,31131,2,0,L|376:240,1,37.4075241903735
128,280,31293,2,0,L|108:240,1,37.4075241903735
440,288,31455,2,0,L|464:248,1,37.4075241903735
204,284,31617,2,0,L|192:248,1,37.4075241903735
340,208,31780,6,0,P|416:136|312:60,1,224.445153704144
164,180,32266,2,0,L|104:184,2,56.111288426036
304,188,32590,1,0,0:0:0:0:
208,288,32753,1,0,0:0:0:0:
148,260,32834,1,0,0:0:0:0:
88,224,32915,1,0,0:0:0:0:
80,152,32996,1,0,0:0:0:0:
112,92,33077,5,0,0:0:0:0:
352,192,33239,2,0,L|408:172,2,56.111288426036
112,168,33563,1,0,0:0:0:0:
392,176,33726,1,0,0:0:0:0:
112,168,33888,1,0,0:0:0:0:
392,176,34049,1,0,0:0:0:0:
164,196,34374,6,0,L|24:196,2,112.222576852072
72,312,34861,2,0,L|96:248,1,56.111288426036
216,144,35023,2,0,L|236:92,1,56.111288426036
324,300,35185,1,0,0:0:0:0:
336,208,35347,2,0,P|372:152|308:80,1,168.333865278108
136,216,35672,6,0,P|84:148|136:72,1,168.333865278108
248,288,35996,2,0,L|272:264,1,28.055644213018
344,232,36158,2,0,L|368:208,1,28.055644213018
440,188,36320,2,0,L|460:164,1,28.055644213018
336,120,36482,2,0,L|312:104,1,28.055644213018
200,48,36644,1,0,0:0:0:0:
328,272,36969,5,0,0:0:0:0:
344,224,37050,1,0,0:0:0:0:
368,176,37131,1,0,0:0:0:0:
388,128,37212,1,0,0:0:0:0:
416,176,37293,1,0,0:0:0:0:
368,176,37374,1,0,0:0:0:0:
316,176,37455,1,0,0:0:0:0:
288,216,37536,1,0,0:0:0:0:
244,208,37617,1,0,0:0:0:0:
184,188,37699,1,0,0:0:0:0:
128,176,37780,1,0,0:0:0:0:
64,184,37861,1,0,0:0:0:0:
128,140,37942,1,0,0:0:0:0:
200,104,38023,1,0,0:0:0:0:
172,244,38104,1,0,0:0:0:0:
104,304,38185,1,0,0:0:0:0:
208,276,38266,6,0,L|232:232,1,37.4075241903735
372,232,38428,2,0,L|384:188,1,37.4075241903735
200,168,38590,1,0,0:0:0:0:
140,160,38672,1,0,0:0:0:0:
80,148,38753,1,0,0:0:0:0:
48,204,38834,1,0,0:0:0:0:
88,252,38915,1,0,0:0:0:0:
336,256,39239,2,0,P|404:180|356:80,1,224.445153704144
168,140,39888,6,0,L|140:92,4,37.4075241903735
292,144,40212,1,0,0:0:0:0:
384,252,40374,2,0,L|348:208,1,37.4075241903735
180,212,40536,2,0,L|220:176,1,37.4075241903735
432,212,40699,2,0,L|408:176,1,37.4075241903735
64,220,40861,6,0,L|104:180,1,37.4075241903735
352,208,41023,2,0,L|340:160,1,37.4075241903735
164,296,41185,2,0,L|164:192,1,56.111288426036
288,212,41509,2,0,L|288:140,1,56.111288426036
424,156,41834,2,0,L|424:84,1,56.111288426036
144,176,42158,5,0,0:0:0:0:
80,116,42320,1,0,0:0:0:0:
136,264,42482,1,0,0:0:0:0:
224,176,42644,1,0,0:0:0:0:
136,264,42807,1,0,0:0:0:0:
224,176,42969,1,0,0:0:0:0:
320,96,43131,1,0,0:0:0:0:
368,200,43293,1,0,0:0:0:0:
452,96,43455,5,0,0:0:0:0:
368,200,43617,1,0,0:0:0:0:
452,288,43780,1,0,0:0:0:0:
268,284,43942,1,0,0:0:0:0:
68,204,44104,2,0,L|144:196,4,74.815048380747
192,280,44915,5,0,0:0:0:0:
320,276,45077,1,0,0:0:0:0:
384,200,45239,1,0,0:0:0:0:
252,184,45401,1,0,0:0:0:0:
136,128,45563,2,0,L|72:112,6,37.4075241903735
224,264,46212,5,0,0:0:0:0:
296,200,46374,1,0,0:0:0:0:
224,144,46536,1,0,0:0:0:0:
296,84,46699,1,0,0:0:0:0:
184,264,46861,1,0,0:0:0:0:
332,200,47023,1,0,0:0:0:0:
184,264,47185,1,0,0:0:0:0:
304,276,47347,6,0,L|368:228,1,74.815048380747
192,224,47672,2,0,L|264:192,1,74.815048380747
116,208,47996,2,0,L|176:152,1,74.815048380747
48,216,48320,2,0,L|52:132,1,74.815048380747
188,220,48644,6,0,L|112:152,1,74.815048380747
296,220,48969,2,0,L|252:152,1,74.815048380747
408,220,49293,2,0,L|376:144,1,74.815048380747
476,216,49617,2,0,L|476:136,1,74.815048380747
288,208,49942,6,0,L|320:204,4,18.7037620951868
168,204,50266,2,0,L|200:200,4,18.7037620951868
344,280,50590,1,0,0:0:0:0:
368,224,50631,1,0,0:0:0:0:
384,172,50672,1,0,0:0:0:0:
360,120,50712,1,0,0:0:0:0:
328,64,50753,1,0,0:0:0:0:
160,280,50915,1,0,0:0:0:0:
124,224,50955,1,0,0:0:0:0:
104,168,50996,1,0,0:0:0:0:
100,116,51036,1,0,0:0:0:0:
116,76,51077,1,0,0:0:0:0:
140,276,51239,6,0,L|204:216,1,74.815048380747
416,280,51563,2,0,L|380:204,1,74.815048380747
184,280,51888,2,0,L|140:196,1,74.815048380747
340,280,52212,2,0,L|392:204,1,74.815048380747
260,216,52536,5,0,0:0:0:0:
108,196,52699,1,0,0:0:0:0:
376,156,52861,2,0,L|400:96,4,37.4075241903735
148,172,53347,1,0,0:0:0:0:
372,216,53509,2,0,L|392:176,4,37.4075241903735
248,140,53996,5,0,0:0:0:0:
160,148,54158,2,0,L|136:180,4,37.4075241903735
344,196,54644,1,0,0:0:0:0:
116,256,54807,1,0,0:0:0:0:
68,196,54888,1,0,0:0:0:0:
40,108,54969,1,0,0:0:0:0:
88,32,55050,1,0,0:0:0:0:
168,32,55131,5,0,0:0:0:0:
268,172,55293,1,0,0:0:0:0:
384,160,55455,1,0,0:0:0:0:
268,172,55617,1,0,0:0:0:0:
384,160,55780,1,0,0:0:0:0:
120,224,55942,2,0,L|208:192,1,74.815048380747
424,232,56266,2,0,L|340:204,1,74.815048380747
192,256,56590,6,0,L|136:200,1,74.815048380747
368,244,56915,2,0,L|312:180,1,74.815048380747
80,248,57239,2,0,L|140:192,1,74.815048380747
228,288,57563,2,0,L|328:280,1,74.815048380747
392,240,57888,5,0,0:0:0:0:
432,176,58050,1,0,0:0:0:0:
392,108,58212,1,0,0:0:0:0:
168,304,58374,2,0,L|88:256,1,74.815048380747
60,176,58699,2,0,L|128:96,1,74.815048380747
236,248,59023,6,0,L|256:168,1,74.815048380747
448,196,59347,2,0,L|344:176,1,74.815048380747
64,192,59672,2,0,L|156:188,1,74.815048380747
420,192,59996,2,0,L|332:192,1,74.815048380747
112,180,60320,6,0,L|140:180,12,18.7037620951868
296,184,60969,2,0,L|324:184,4,18.7037620951868
340,212,61172,1,0,0:0:0:0:
356,256,61212,1,0,0:0:0:0:
340,304,61253,1,0,0:0:0:0:
296,320,61293,1,0,0:0:0:0:
248,312,61334,1,0,0:0:0:0:
204,296,61374,1,0,0:0:0:0:
160,288,61415,1,0,0:0:0:0:
112,284,61455,1,0,0:0:0:0:
444,248,61617,5,0,0:0:0:0:
104,172,62915,6,0,L|136:172,4,28.055644213018
376,292,63239,1,0,0:0:0:0:
400,216,63320,1,0,0:0:0:0:
428,152,63401,1,0,0:0:0:0:
404,96,63482,1,0,0:0:0:0:
372,40,63563,1,0,0:0:0:0:
88,232,63726,2,0,L|64:184,1,28.055644213018
312,232,63888,1,0,0:0:0:0:
340,184,63969,1,0,0:0:0:0:
308,140,64050,1,0,0:0:0:0:
340,92,64131,1,0,0:0:0:0:
308,44,64212,5,0,0:0:0:0:
112,296,64374,2,0,L|152:236,2,56.111288426036
216,168,64699,2,0,L|260:124,1,56.111288426036
372,256,64861,2,0,L|420:212,1,56.111288426036
200,260,65185,6,0,P|88:176|148:104,2,224.445153704144
264,208,65996,5,0,0:0:0:0:
404,148,66158,1,0,0:0:0:0:
244,136,66320,1,0,0:0:0:0:
432,272,66482,1,0,0:0:0:0:
136,216,66644,1,0,0:0:0:0:
116,160,66807,2,0,L|92:132,1,28.055644213018
324,172,66969,2,0,L|352:136,1,28.055644213018
444,240,67131,1,0,0:0:0:0:
296,236,67293,1,0,0:0:0:0:
192,236,67455,1,0,0:0:0:0:
352,208,67617,2,0,L|376:176,1,28.055644213018
136,256,67780,6,0,B|56:212|112:168|112:168|60:120|152:80,2,224.445153704144
216,212,68590,5,0,0:0:0:0:
292,184,68672,1,0,0:0:0:0:
360,148,68753,1,0,0:0:0:0:
428,112,68834,1,0,0:0:0:0:
452,200,68915,1,0,0:0:0:0:
228,288,69077,2,0,L|196:200,1,56.111288426036
408,292,69239,2,0,L|428:236,1,56.111288426036
192,284,69401,6,0,L|120:240,1,56.111288426036
432,296,69563,2,0,L|480:252,1,56.111288426036
264,208,69726,1,0,0:0:0:0:
380,188,69888,1,0,0:0:0:0:
124,200,70050,1,0,0:0:0:0:
212,200,70212,1,0,0:0:0:0:
416,256,70374,2,0,P|340:160|412:84,1,224.445153704144
272,260,71023,6,0,L|344:156,1,112.222576852072
164,232,71347,2,0,L|228:124,1,112.222576852072
96,160,71672,1,0,0:0:0:0:
264,168,71834,1,0,0:0:0:0:
376,224,71996,6,0,L|412:208,4,28.055644213018
168,232,72320,2,0,L|136:180,1,56.111288426036
308,228,72482,2,0,L|336:176,1,56.111288426036
112,248,72644,2,0,L|72:228,1,28.055644213018
288,256,72807,2,0,L|316:232,1,28.055644213018
204,240,72969,2,0,L|172:208,1,28.055644213018
392,240,73131,2,0,L|408:216,1,28.055644213018
276,236,73293,6,0,L|328:160,1,56.111288426036
376,276,73617,1,0,0:0:0:0:
412,216,73699,1,0,0:0:0:0:
440,144,73780,1,0,0:0:0:0:
400,72,73861,1,0,0:0:0:0:
336,120,73942,1,0,0:0:0:0:
232,200,74104,1,0,0:0:0:0:
344,288,74266,2,0,L|392:216,3,56.111288426036
180,268,74590,5,0,0:0:0:0:
96,192,74753,2,0,L|172:168,1,56.111288426036
240,156,74915,1,0,0:0:0:0:
332,156,75077,2,0,L|444:128,2,112.222576852072
176,288,75563,2,0,L|292:284,1,112.222576852072
140,192,75888,6,0,P|64:116|136:40,1,224.445153704144
368,268,76374,1,0,0:0:0:0:
448,268,76536,1,0,0:0:0:0:
368,268,76699,1,0,0:0:0:0:
260,268,76861,1,0,0:0:0:0:
368,268,77023,1,0,0:0:0:0:
448,268,77185,6,0,L|448:224,1,28.055644213018
176,268,77347,2,0,L|176:228,1,28.055644213018
104,228,77509,2,0,L|216:184,1,112.222576852072
320,280,77834,2,0,L|424:228,1,112.222576852072
200,300,78158,6,0,P|60:300|144:300,2,224.445153704144
448,312,78969,5,0,0:0:0:0:
404,260,79050,1,0,0:0:0:0:
448,204,79131,1,0,0:0:0:0:
216,96,79293,1,0,0:0:0:0:
448,312,79454,1,0,0:0:0:0:
412,260,79536,1,0,0:0:0:0:
448,204,79617,1,0,0:0:0:0:
412,148,79698,1,0,0:0:0:0:
448,96,79779,5,0,0:0:0:0:
312,304,79942,2,0,L|204:256,1,112.222576852072
88,240,80266,2,0,L|196:176,1,112.222576852072
44,92,80753,2,0,L|76:92,4,28.055644213018
176,192,81077,6,0,L|208:192,4,28.055644213018
340,280,81401,6,0,L|372:280,4,28.055644213018
152,188,81726,2,0,L|124:160,1,28.055644213018
296,188,81888,2,0,L|328:168,1,28.055644213018
196,192,82050,2,0,L|176:160,1,28.055644213018
380,196,82212,2,0,L|400:176,1,28.055644213018
48,308,82374,2,0,L|168:312,1,112.222576852072
256,308,82699,1,0,0:0:0:0:
356,308,83023,1,0,0:0:0:0:
448,308,83347,1,0,0:0:0:0:
76,296,83672,5,0,0:0:0:0:
120,240,83753,1,0,0:0:0:0:
156,180,83834,1,0,0:0:0:0:
192,120,83915,1,0,0:0:0:0:
148,64,83996,1,0,0:0:0:0:
100,116,84077,1,0,0:0:0:0:
148,168,84158,1,0,0:0:0:0:
208,204,84239,1,0,0:0:0:0:
280,196,84320,1,0,0:0:0:0:
348,176,84401,1,0,0:0:0:0:
304,120,84482,1,0,0:0:0:0:
360,80,84563,1,0,0:0:0:0:
412,128,84644,1,0,0:0:0:0:
368,184,84726,1,0,0:0:0:0:
312,228,84807,1,0,0:0:0:0:
224,232,84888,1,0,0:0:0:0:
272,304,84969,5,0,0:0:0:0:
316,256,85050,1,0,0:0:0:0:
260,208,85131,1,0,0:0:0:0:
204,164,85212,1,0,0:0:0:0:
144,204,85293,1,0,0:0:0:0:
88,248,85374,1,0,0:0:0:0:
144,204,85455,1,0,0:0:0:0:
204,164,85536,1,0,0:0:0:0:
172,112,85617,1,0,0:0:0:0:
220,72,85699,1,0,0:0:0:0:
292,80,85780,1,0,0:0:0:0:
76,168,85861,2,0,L|120:140,1,37.4075241903735
368,320,86266,6,0,L|332:272,1,37.4075241903735
428,216,86428,2,0,L|452:176,1,37.4075241903735
368,152,86590,2,0,L|344:112,1,37.4075241903735
424,72,86753,2,0,L|452:44,1,37.4075241903735
368,152,86915,2,0,L|320:180,1,37.4075241903735
264,200,87077,2,0,L|208:196,1,37.4075241903735
184,140,87239,2,0,L|156:100,1,37.4075241903735
100,152,87401,2,0,L|72:192,1,37.4075241903735
208,312,87563,5,0,0:0:0:0:
260,288,87644,1,0,0:0:0:0:
312,268,87726,1,0,0:0:0:0:
364,240,87807,1,0,0:0:0:0:
312,268,87888,1,0,0:0:0:0:
260,288,87969,1,0,0:0:0:0:
208,312,88050,1,0,0:0:0:0:
260,288,88131,1,0,0:0:0:0:
312,268,88212,1,0,0:0:0:0:
256,192,88293,1,0,0:0:0:0:
200,128,88374,1,0,0:0:0:0:
132,192,88455,1,0,0:0:0:0:
192,244,88536,1,0,0:0:0:0:
396,260,88861,6,0,L|340:256,3,37.4075241903735
196,248,89185,2,0,L|248:248,3,37.4075241903735
328,164,89509,2,0,L|372:164,3,37.4075241903735
76,144,89834,2,0,L|124:144,3,37.4075241903735
288,320,90158,2,0,L|236:304,1,37.4075241903735
184,276,90320,2,0,L|144:256,1,37.4075241903735
188,176,90482,2,0,L|228:156,1,37.4075241903735
292,128,90644,2,0,L|332:104,1,37.4075241903735
384,196,90807,2,0,L|320:216,1,37.4075241903735
276,244,90969,2,0,L|220:260,1,37.4075241903735
428,288,91131,1,0,0:0:0:0:
208,304,91455,6,0,L|96:260,3,112.222576852072
208,180,92104,2,0,L|340:140,1,112.222576852072
408,248,92428,2,0,L|372:180,3,56.111288426036
128,256,92753,6,0,L|56:208,3,56.111288426036
128,256,93077,2,0,L|184:224,3,56.111288426036
232,232,93401,2,0,L|279:231,6,28.055644213018
336,268,93726,6,0,B|368:288|416:304|456:260|464:236|456:168|408:128|344:96|304:92|248:80|200:92|132:128|112:156|88:212,1,561.11288426036
