osu file format v14

[General]
AudioFilename: audio.mp3
AudioLeadIn: 0
PreviewTime: 61597
Countdown: 0
SampleSet: Normal
StackLeniency: 0.7
Mode: 1
LetterboxInBreaks: 0
WidescreenStoryboard: 0

[Editor]
DistanceSpacing: 1
BeatDivisor: 8
GridSize: 32
TimelineZoom: 2.200005

[Metadata]
Title:TSLove
TitleUnicode:TSLove
Artist:O2i3
ArtistUnicode:O2i3
Creator:[_Chichinya_]
Version:ChocoLove <3
Source:
Tags:Melanie Friggy-chan kqrth DDM Hi_Hello 404 AccNotFound FlamingRok Dargin Cyoris210 BlackWolf159 Yuno Taikocracy Prancer agu gamerock Nifty Lno Nepuri Raphalge frukoyurdakul Cyssel Unmei Muma Q____X Vulkin JessiChan iContol Chocola_2287 AezLack _yu68 zigizigiefe Grimbow
BeatmapID:1177841
BeatmapSetID:549370

[Difficulty]
HPDrainRate:7
CircleSize:2
OverallDifficulty:6.9
ApproachRate:9
SliderMultiplier:1.39592601524643
SliderTickRate:1

[Events]
//Background and Video events
0,0,"yande.re 226629 sample akemi_homura dress kaname_madoka moritan puella_magi_madoka_magica yuri.jpg",0,50
//Break Periods
//Storyboard Layer 0 (Background)
//Storyboard Layer 1 (Fail)
//Storyboard Layer 2 (Pass)
//Storyboard Layer 3 (Foreground)
//Storyboard Sound Samples

[TimingPoints]
645,324.324324324324,4,1,0,80,1,0
21401,-100,4,1,0,100,0,1
42158,-100,4,1,0,80,0,0
62915,-100,4,1,0,100,0,1
83023,-100,4,1,0,80,0,0

[Colours]
Combo1 : 133,24,82
Combo2 : 96,61,99
Combo3 : 252,143,143
Combo4 : 234,69,21

[HitObjects]
224,224,645,5,0,0:0:0:0:
224,224,969,1,8,0:0:0:0:
224,224,1455,1,0,0:0:0:0:
224,224,1617,1,8,0:0:0:0:
224,224,1942,1,0,0:0:0:0:
224,224,2266,1,8,0:0:0:0:
224,224,2753,1,0,0:0:0:0:
224,224,2915,1,8,0:0:0:0:
224,224,3077,1,0,0:0:0:0:
224,224,3239,1,0,0:0:0:0:
224,224,3563,1,8,0:0:0:0:
224,224,4050,1,0,0:0:0:0:
224,224,4212,1,8,0:0:0:0:
224,224,4536,1,0,0:0:0:0:
224,224,4861,1,8,0:0:0:0:
224,224,5347,1,0,0:0:0:0:
224,224,5509,1,8,0:0:0:0:
224,224,5672,1,0,0:0:0:0:
224,224,5834,1,0,0:0:0:0:
224,192,6158,1,8,0:0:0:0:
224,192,6644,1,0,0:0:0:0:
224,192,6807,1,8,0:0:0:0:
224,192,7131,1,0,0:0:0:0:
224,192,7455,1,8,0:0:0:0:
224,192,7942,1,0,0:0:0:0:
224,192,8104,1,8,0:0:0:0:
224,192,8266,1,0,0:0:0:0:
224,192,8428,1,0,0:0:0:0:
224,192,8753,1,8,0:0:0:0:
224,192,9239,1,0,0:0:0:0:
224,192,9401,1,8,0:0:0:0:
224,192,9726,1,0,0:0:0:0:
224,192,10050,1,8,0:0:0:0:
224,192,10536,1,0,0:0:0:0:
224,192,10699,1,8,0:0:0:0:
224,192,10861,1,0,0:0:0:0:
224,192,11023,1,0,0:0:0:0:
224,192,11347,1,8,0:0:0:0:
224,192,11672,1,0,0:0:0:0:
224,192,11834,1,8,0:0:0:0:
224,192,11996,1,0,0:0:0:0:
224,192,12158,1,0,0:0:0:0:
224,192,12320,1,8,0:0:0:0:
224,192,12644,1,8,0:0:0:0:
224,192,12969,1,0,0:0:0:0:
224,192,13131,1,8,0:0:0:0:
224,192,13293,1,8,0:0:0:0:
224,192,13455,1,0,0:0:0:0:
224,192,13617,1,8,0:0:0:0:
224,192,13942,1,8,0:0:0:0:
224,192,14266,1,0,0:0:0:0:
224,192,14428,1,8,0:0:0:0:
224,192,14590,1,0,0:0:0:0:
224,192,14753,1,0,0:0:0:0:
224,192,14915,1,8,0:0:0:0:
224,192,15239,1,8,0:0:0:0:
224,192,15563,1,0,0:0:0:0:
224,192,15726,1,8,0:0:0:0:
224,192,15888,1,8,0:0:0:0:
224,192,16050,1,0,0:0:0:0:
224,192,16212,1,0,0:0:0:0:
224,192,16536,1,0,0:0:0:0:
224,192,16861,1,0,0:0:0:0:
224,192,17185,1,0,0:0:0:0:
224,192,17347,1,0,0:0:0:0:
224,192,17509,1,0,0:0:0:0:
224,192,17834,1,0,0:0:0:0:
224,192,18158,1,0,0:0:0:0:
224,192,18482,1,0,0:0:0:0:
224,192,18644,1,0,0:0:0:0:
224,192,18807,1,0,0:0:0:0:
224,192,18888,1,0,0:0:0:0:
224,192,18969,1,0,0:0:0:0:
224,192,19050,1,0,0:0:0:0:
224,192,19131,1,0,0:0:0:0:
224,192,19212,1,0,0:0:0:0:
224,192,19293,1,0,0:0:0:0:
192,192,19347,1,0,0:0:0:0:
224,192,19401,1,0,0:0:0:0:
224,192,19455,1,0,0:0:0:0:
192,160,19536,1,0,0:0:0:0:
192,160,19617,1,0,0:0:0:0:
192,160,19699,1,0,0:0:0:0:
192,160,19780,1,0,0:0:0:0:
192,160,19861,1,0,0:0:0:0:
192,160,19942,1,0,0:0:0:0:
192,160,20023,1,0,0:0:0:0:
256,192,20104,12,0,21077,0:0:0:0:
192,192,21401,5,0,0:0:0:0:
192,192,21644,1,0,0:0:0:0:
192,192,21726,1,8,0:0:0:0:
192,224,21888,1,0,0:0:0:0:
192,224,21942,1,0,0:0:0:0:
192,224,21996,1,0,0:0:0:0:
192,224,22050,1,8,0:0:0:0:
128,128,22131,1,8,0:0:0:0:
192,224,22212,1,0,0:0:0:0:
128,128,22374,1,8,0:0:0:0:
128,128,22455,1,8,0:0:0:0:
128,128,22536,1,0,0:0:0:0:
128,128,22699,1,8,0:0:0:0:
128,128,22780,1,0,0:0:0:0:
128,128,22861,1,8,0:0:0:0:
128,128,22942,1,0,0:0:0:0:
128,128,23023,1,8,0:0:0:0:
128,128,23104,1,8,0:0:0:0:
128,128,23185,1,0,0:0:0:0:
128,128,23266,1,8,0:0:0:0:
128,128,23347,1,0,0:0:0:0:
128,128,23672,1,12,0:0:0:0:
192,128,23996,1,0,0:0:0:0:
192,128,24239,1,0,0:0:0:0:
192,128,24320,1,8,0:0:0:0:
256,128,24482,1,8,0:0:0:0:
256,128,24536,1,0,0:0:0:0:
256,128,24590,1,0,0:0:0:0:
256,128,24644,1,8,0:0:0:0:
160,96,24726,1,8,0:0:0:0:
256,128,24807,1,0,0:0:0:0:
192,128,24969,1,8,0:0:0:0:
192,128,25050,1,0,0:0:0:0:
192,128,25131,1,8,0:0:0:0:
192,128,25293,1,0,0:0:0:0:
192,128,25374,1,8,0:0:0:0:
192,128,25455,1,8,0:0:0:0:
192,128,25536,1,0,0:0:0:0:
192,128,25617,1,8,0:0:0:0:
192,128,25699,1,8,0:0:0:0:
192,128,25780,1,0,0:0:0:0:
192,128,25861,1,0,0:0:0:0:
192,128,25942,1,8,0:0:0:0:
192,128,26023,1,8,0:0:0:0:
192,128,26104,1,0,0:0:0:0:
192,128,26185,1,0,0:0:0:0:
192,128,26266,1,8,0:0:0:0:
192,128,26590,1,0,0:0:0:0:
192,128,26834,1,0,0:0:0:0:
192,128,26915,1,8,0:0:0:0:
160,160,27077,1,0,0:0:0:0:
160,160,27131,1,0,0:0:0:0:
160,160,27185,1,8,0:0:0:0:
160,160,27239,1,8,0:0:0:0:
160,160,27320,1,0,0:0:0:0:
160,160,27401,1,8,0:0:0:0:
192,160,27563,1,8,0:0:0:0:
192,160,27644,1,8,0:0:0:0:
192,160,27726,1,0,0:0:0:0:
192,160,27888,1,8,0:0:0:0:
192,160,27969,1,0,0:0:0:0:
192,160,28050,1,0,0:0:0:0:
192,160,28131,1,8,0:0:0:0:
192,160,28212,1,8,0:0:0:0:
192,160,28293,1,0,0:0:0:0:
192,160,28374,1,8,0:0:0:0:
192,160,28455,1,0,0:0:0:0:
192,160,28536,1,8,0:0:0:0:
192,160,28861,1,12,0:0:0:0:
256,128,29185,1,0,0:0:0:0:
160,192,29428,1,8,0:0:0:0:
160,192,29509,1,0,0:0:0:0:
192,160,29672,1,8,0:0:0:0:
192,160,29726,1,8,0:0:0:0:
192,160,29780,1,0,0:0:0:0:
192,160,29834,1,0,0:0:0:0:
192,160,29915,1,8,0:0:0:0:
192,160,29996,1,0,0:0:0:0:
160,96,30158,1,8,0:0:0:0:
160,96,30239,1,0,0:0:0:0:
160,96,30320,1,0,0:0:0:0:
160,96,30482,1,8,0:0:0:0:
160,96,30563,1,0,0:0:0:0:
160,96,30644,1,8,0:0:0:0:
160,96,30726,1,8,0:0:0:0:
128,128,30807,1,0,0:0:0:0:
128,128,30888,1,8,0:0:0:0:
160,96,30969,1,0,0:0:0:0:
192,160,31131,1,4,0:0:0:0:
192,160,31293,1,4,0:0:0:0:
192,160,31455,1,12,0:0:0:0:
192,160,31617,1,12,0:0:0:0:
224,128,31780,1,0,0:0:0:0:
224,128,32023,1,0,0:0:0:0:
224,128,32104,1,8,0:0:0:0:
224,128,32266,1,0,0:0:0:0:
256,192,32320,1,0,0:0:0:0:
256,192,32374,1,0,0:0:0:0:
256,192,32428,1,8,0:0:0:0:
256,192,32509,1,8,0:0:0:0:
256,192,32590,1,0,0:0:0:0:
160,128,32753,1,8,0:0:0:0:
160,128,32834,1,0,0:0:0:0:
160,128,32915,1,8,0:0:0:0:
160,128,33077,1,8,0:0:0:0:
160,128,33158,1,8,0:0:0:0:
192,160,33239,1,8,0:0:0:0:
160,128,33320,1,0,0:0:0:0:
160,128,33401,1,8,0:0:0:0:
160,128,33482,1,8,0:0:0:0:
160,128,33563,1,0,0:0:0:0:
160,128,33644,1,0,0:0:0:0:
160,128,33726,1,8,0:0:0:0:
160,128,33888,1,8,0:0:0:0:
160,128,34050,1,12,0:0:0:0:
192,224,34373,1,0,0:0:0:0:
192,224,34617,1,0,0:0:0:0:
192,224,34698,1,8,0:0:0:0:
224,192,34861,1,8,0:0:0:0:
224,192,34915,1,0,0:0:0:0:
224,192,34969,1,0,0:0:0:0:
224,192,35023,1,8,0:0:0:0:
224,192,35104,1,0,0:0:0:0:
224,192,35185,1,8,0:0:0:0:
224,192,35347,1,0,0:0:0:0:
224,192,35428,1,8,0:0:0:0:
224,192,35509,1,8,0:0:0:0:
224,192,35672,1,8,0:0:0:0:
224,192,35753,1,0,0:0:0:0:
224,192,35834,1,8,0:0:0:0:
224,192,35915,1,8,0:0:0:0:
224,192,35996,1,0,0:0:0:0:
224,192,36077,1,0,0:0:0:0:
224,192,36158,1,8,0:0:0:0:
224,192,36239,1,0,0:0:0:0:
224,192,36320,1,8,0:0:0:0:
224,192,36401,1,8,0:0:0:0:
224,192,36482,1,0,0:0:0:0:
224,192,36563,1,8,0:0:0:0:
224,192,36644,1,0,0:0:0:0:
160,160,36969,1,0,0:0:0:0:
160,160,37212,1,0,0:0:0:0:
160,160,37293,1,8,0:0:0:0:
160,160,37455,1,0,0:0:0:0:
160,128,37509,1,0,0:0:0:0:
160,128,37563,1,8,0:0:0:0:
160,128,37617,1,8,0:0:0:0:
160,128,37699,1,0,0:0:0:0:
160,128,37780,1,8,0:0:0:0:
160,128,37942,1,0,0:0:0:0:
160,128,38023,1,0,0:0:0:0:
160,128,38104,1,8,0:0:0:0:
160,192,38266,1,8,0:0:0:0:
160,192,38347,1,0,0:0:0:0:
160,192,38428,1,8,0:0:0:0:
160,192,38509,1,8,0:0:0:0:
160,192,38590,1,0,0:0:0:0:
160,192,38672,1,0,0:0:0:0:
160,192,38753,1,8,0:0:0:0:
160,192,38834,1,8,0:0:0:0:
160,192,38915,1,0,0:0:0:0:
192,160,39077,1,0,0:0:0:0:
64,160,39239,1,12,0:0:0:0:
160,128,39563,1,0,0:0:0:0:
160,128,39726,1,8,0:0:0:0:
160,128,39807,1,8,0:0:0:0:
160,128,39888,1,0,0:0:0:0:
160,128,40050,1,8,0:0:0:0:
160,128,40104,1,8,0:0:0:0:
160,128,40158,1,8,0:0:0:0:
160,128,40212,1,0,0:0:0:0:
160,128,40293,1,0,0:0:0:0:
160,128,40374,1,8,0:0:0:0:
160,128,40536,1,0,0:0:0:0:
160,128,40617,1,8,0:0:0:0:
160,128,40699,1,8,0:0:0:0:
160,128,40861,1,0,0:0:0:0:
160,128,40901,1,0,0:0:0:0:
160,128,41023,1,8,0:0:0:0:
160,128,41063,1,8,0:0:0:0:
160,128,41185,1,0,0:0:0:0:
160,128,41226,1,0,0:0:0:0:
160,128,41347,1,8,0:0:0:0:
160,128,41388,1,8,0:0:0:0:
256,192,41509,12,0,41834,0:0:0:0:
192,96,42158,5,4,0:0:0:0:
192,96,42320,1,8,0:0:0:0:
192,96,42644,1,8,0:0:0:0:
192,96,42969,1,8,0:0:0:0:
192,96,43293,1,8,0:0:0:0:
192,96,43455,1,0,0:0:0:0:
192,96,43617,1,8,0:0:0:0:
192,96,43942,1,8,0:0:0:0:
192,96,44266,1,8,0:0:0:0:
192,96,44428,1,0,0:0:0:0:
192,96,44590,1,0,0:0:0:0:
192,96,44753,1,0,0:0:0:0:
192,96,44915,1,8,0:0:0:0:
192,96,45239,1,8,0:0:0:0:
192,96,45563,1,8,0:0:0:0:
192,96,45888,1,8,0:0:0:0:
192,96,46050,1,0,0:0:0:0:
192,96,46212,1,8,0:0:0:0:
192,96,46536,1,8,0:0:0:0:
192,96,46861,1,8,0:0:0:0:
192,96,47023,1,0,0:0:0:0:
192,96,47185,1,0,0:0:0:0:
192,96,47347,1,0,0:0:0:0:
192,96,47509,1,8,0:0:0:0:
192,96,47834,1,8,0:0:0:0:
192,96,48158,1,8,0:0:0:0:
192,96,48482,1,8,0:0:0:0:
192,96,48644,1,0,0:0:0:0:
192,96,48807,1,8,0:0:0:0:
192,96,49131,1,8,0:0:0:0:
192,96,49455,1,8,0:0:0:0:
192,96,49617,1,0,0:0:0:0:
192,96,49780,1,0,0:0:0:0:
192,96,49942,1,0,0:0:0:0:
192,96,50104,1,8,0:0:0:0:
192,96,50428,1,8,0:0:0:0:
192,96,50753,1,8,0:0:0:0:
128,96,51077,1,8,0:0:0:0:
128,96,51239,1,0,0:0:0:0:
128,96,51401,1,8,0:0:0:0:
0,64,51726,1,8,0:0:0:0:
0,64,52050,1,8,0:0:0:0:
0,64,52212,1,0,0:0:0:0:
0,64,52374,1,0,0:0:0:0:
0,64,52536,1,0,0:0:0:0:
256,192,52699,1,8,0:0:0:0:
256,192,52780,1,8,0:0:0:0:
256,192,53023,1,8,0:0:0:0:
256,192,53185,1,0,0:0:0:0:
256,192,53347,1,8,0:0:0:0:
256,192,53428,1,8,0:0:0:0:
256,192,53672,1,8,0:0:0:0:
256,192,53834,1,0,0:0:0:0:
256,192,53996,1,8,0:0:0:0:
256,192,54077,1,8,0:0:0:0:
256,192,54320,1,8,0:0:0:0:
256,192,54482,1,0,0:0:0:0:
256,192,54644,1,8,0:0:0:0:
96,128,54807,1,0,0:0:0:0:
160,128,54888,1,0,0:0:0:0:
256,192,54969,1,8,0:0:0:0:
256,192,55131,1,0,0:0:0:0:
256,192,55293,1,8,0:0:0:0:
256,192,55374,1,8,0:0:0:0:
256,192,55617,1,8,0:0:0:0:
256,192,55780,1,0,0:0:0:0:
256,192,55942,1,8,0:0:0:0:
256,192,56023,1,8,0:0:0:0:
256,192,56266,1,8,0:0:0:0:
256,192,56428,1,0,0:0:0:0:
256,192,56590,1,8,0:0:0:0:
256,192,56753,1,0,0:0:0:0:
192,96,56834,1,0,0:0:0:0:
256,192,56915,1,8,0:0:0:0:
256,192,57077,1,0,0:0:0:0:
192,96,57239,1,8,0:0:0:0:
192,96,57320,1,8,0:0:0:0:
256,192,57401,1,0,0:0:0:0:
256,192,57563,1,8,0:0:0:0:
256,192,57726,1,4,0:0:0:0:
160,192,57888,1,8,0:0:0:0:
160,192,57969,1,0,0:0:0:0:
160,192,58050,1,8,0:0:0:0:
160,192,58212,1,8,0:0:0:0:
160,192,58374,1,0,0:0:0:0:
160,192,58536,1,8,0:0:0:0:
160,192,58617,1,0,0:0:0:0:
160,192,58699,1,8,0:0:0:0:
160,192,58861,1,8,0:0:0:0:
160,192,59023,1,0,0:0:0:0:
160,192,59185,1,8,0:0:0:0:
160,192,59266,1,8,0:0:0:0:
160,192,59347,1,8,0:0:0:0:
160,192,59509,1,8,0:0:0:0:
160,192,59672,1,0,0:0:0:0:
160,192,59834,1,8,0:0:0:0:
160,192,59915,1,8,0:0:0:0:
160,192,59996,1,8,0:0:0:0:
160,192,60158,1,8,0:0:0:0:
160,192,60320,1,0,0:0:0:0:
160,192,60401,1,0,0:0:0:0:
160,192,60482,1,8,0:0:0:0:
160,192,60563,1,8,0:0:0:0:
160,192,60644,1,0,0:0:0:0:
160,192,60726,1,0,0:0:0:0:
160,192,60807,1,8,0:0:0:0:
160,192,60888,1,8,0:0:0:0:
160,192,60969,1,0,0:0:0:0:
160,192,61023,1,0,0:0:0:0:
160,192,61077,1,0,0:0:0:0:
160,192,61131,1,8,0:0:0:0:
192,160,61212,1,8,0:0:0:0:
192,160,61293,1,0,0:0:0:0:
192,160,61374,1,0,0:0:0:0:
192,160,61455,1,8,0:0:0:0:
192,160,61536,1,8,0:0:0:0:
256,192,61617,12,0,62590,0:0:0:0:
224,192,62915,5,0,0:0:0:0:
224,192,63077,1,8,0:0:0:0:
224,192,63158,1,0,0:0:0:0:
224,192,63239,1,8,0:0:0:0:
224,192,63401,1,8,0:0:0:0:
224,192,63563,1,0,0:0:0:0:
224,160,63726,1,8,0:0:0:0:
224,160,63780,1,8,0:0:0:0:
224,160,63834,1,8,0:0:0:0:
224,160,63888,1,0,0:0:0:0:
224,160,63969,1,0,0:0:0:0:
224,160,64050,1,8,0:0:0:0:
224,160,64212,1,0,0:0:0:0:
224,160,64266,1,0,0:0:0:0:
224,160,64320,1,0,0:0:0:0:
224,160,64374,1,8,0:0:0:0:
224,160,64455,1,8,0:0:0:0:
224,160,64536,1,0,0:0:0:0:
224,160,64590,1,0,0:0:0:0:
224,160,64644,1,0,0:0:0:0:
224,160,64699,1,8,0:0:0:0:
224,160,64780,1,8,0:0:0:0:
224,160,64861,1,0,0:0:0:0:
192,96,65185,1,12,0:0:0:0:
256,160,65509,1,0,0:0:0:0:
256,160,65672,1,0,0:0:0:0:
256,160,65753,1,8,0:0:0:0:
256,160,65834,1,0,0:0:0:0:
256,160,65996,1,0,0:0:0:0:
256,160,66158,1,8,0:0:0:0:
96,160,66320,1,0,0:0:0:0:
96,160,66374,1,0,0:0:0:0:
96,160,66428,1,0,0:0:0:0:
96,160,66482,1,8,0:0:0:0:
224,128,66563,1,8,0:0:0:0:
224,128,66644,1,0,0:0:0:0:
256,160,66807,1,8,0:0:0:0:
256,160,66861,1,8,0:0:0:0:
256,160,66915,1,8,0:0:0:0:
256,160,66969,1,0,0:0:0:0:
256,160,67050,1,0,0:0:0:0:
256,160,67131,1,8,0:0:0:0:
256,160,67185,1,8,0:0:0:0:
256,160,67239,1,8,0:0:0:0:
256,160,67293,1,0,0:0:0:0:
256,160,67374,1,0,0:0:0:0:
256,160,67455,1,8,0:0:0:0:
256,160,67536,1,0,0:0:0:0:
256,160,67617,1,8,0:0:0:0:
256,160,67699,1,0,0:0:0:0:
256,160,67780,1,8,0:0:0:0:
224,192,68104,1,0,0:0:0:0:
224,192,68266,1,8,0:0:0:0:
224,192,68347,1,0,0:0:0:0:
224,192,68428,1,8,0:0:0:0:
224,192,68590,1,8,0:0:0:0:
224,192,68753,1,0,0:0:0:0:
192,160,68915,1,8,0:0:0:0:
192,160,68969,1,8,0:0:0:0:
192,160,69023,1,8,0:0:0:0:
192,160,69077,1,0,0:0:0:0:
128,160,69158,1,0,0:0:0:0:
128,160,69239,1,8,0:0:0:0:
192,192,69401,1,0,0:0:0:0:
192,192,69455,1,0,0:0:0:0:
128,192,69509,1,8,0:0:0:0:
192,192,69563,1,8,0:0:0:0:
224,192,69644,1,8,0:0:0:0:
128,192,69726,1,0,0:0:0:0:
192,192,69780,1,0,0:0:0:0:
192,192,69834,1,8,0:0:0:0:
192,192,69888,1,8,0:0:0:0:
224,192,69969,1,8,0:0:0:0:
224,192,70050,1,0,0:0:0:0:
224,192,70374,1,12,0:0:0:0:
224,192,70699,1,0,0:0:0:0:
224,192,70861,1,0,0:0:0:0:
224,192,70942,1,8,0:0:0:0:
224,192,71023,1,0,0:0:0:0:
224,192,71185,1,0,0:0:0:0:
224,192,71347,1,8,0:0:0:0:
224,192,71509,1,0,0:0:0:0:
224,192,71563,1,0,0:0:0:0:
224,192,71617,1,0,0:0:0:0:
224,192,71672,1,8,0:0:0:0:
224,192,71753,1,8,0:0:0:0:
224,192,71834,1,0,0:0:0:0:
192,192,71996,1,0,0:0:0:0:
224,192,72036,1,0,0:0:0:0:
224,192,72158,1,8,0:0:0:0:
224,192,72199,1,8,0:0:0:0:
224,192,72320,1,0,0:0:0:0:
224,192,72361,1,0,0:0:0:0:
224,192,72482,1,8,0:0:0:0:
224,192,72523,1,8,0:0:0:0:
224,192,72644,1,4,0:0:0:0:
224,192,72807,1,4,0:0:0:0:
224,192,72969,1,12,0:0:0:0:
224,192,73131,1,12,0:0:0:0:
128,160,73293,1,0,0:0:0:0:
128,160,73455,1,0,0:0:0:0:
128,160,73536,1,8,0:0:0:0:
128,160,73617,1,0,0:0:0:0:
128,160,73699,1,0,0:0:0:0:
128,160,73780,1,8,0:0:0:0:
192,160,73941,1,0,0:0:0:0:
192,160,73982,1,0,0:0:0:0:
192,160,74104,1,8,0:0:0:0:
192,160,74266,1,0,0:0:0:0:
192,160,74307,1,0,0:0:0:0:
192,160,74428,1,8,0:0:0:0:
192,160,74590,1,0,0:0:0:0:
192,160,74672,1,8,0:0:0:0:
192,160,74753,1,8,0:0:0:0:
192,160,74834,1,0,0:0:0:0:
192,160,74915,1,0,0:0:0:0:
192,160,74996,1,8,0:0:0:0:
192,160,75077,1,0,0:0:0:0:
192,160,75158,1,8,0:0:0:0:
192,160,75239,1,0,0:0:0:0:
192,160,75563,1,12,0:0:0:0:
192,128,75888,1,0,0:0:0:0:
192,128,76050,1,8,0:0:0:0:
192,128,76131,1,0,0:0:0:0:
192,128,76212,1,8,0:0:0:0:
192,128,76293,1,8,0:0:0:0:
192,128,76374,1,0,0:0:0:0:
192,128,76536,1,8,0:0:0:0:
192,128,76577,1,8,0:0:0:0:
192,128,76699,1,0,0:0:0:0:
192,128,76861,1,8,0:0:0:0:
192,128,76901,1,8,0:0:0:0:
192,128,77023,1,0,0:0:0:0:
192,160,77185,1,0,0:0:0:0:
192,160,77239,1,0,0:0:0:0:
192,160,77293,1,0,0:0:0:0:
192,160,77347,1,8,0:0:0:0:
192,160,77428,1,8,0:0:0:0:
192,160,77509,1,0,0:0:0:0:
192,160,77563,1,8,0:0:0:0:
192,160,77617,1,8,0:0:0:0:
192,160,77672,1,8,0:0:0:0:
192,160,77753,1,8,0:0:0:0:
192,160,77834,1,0,0:0:0:0:
192,160,77915,1,8,0:0:0:0:
192,160,77996,1,0,0:0:0:0:
192,160,78077,1,8,0:0:0:0:
192,160,78158,1,0,0:0:0:0:
192,160,78482,1,0,0:0:0:0:
192,160,78644,1,0,0:0:0:0:
192,160,78726,1,8,0:0:0:0:
192,160,78807,1,0,0:0:0:0:
192,160,78888,1,0,0:0:0:0:
192,160,78969,1,8,0:0:0:0:
128,160,79131,1,0,0:0:0:0:
128,160,79172,1,0,0:0:0:0:
128,160,79293,1,8,0:0:0:0:
128,160,79455,1,0,0:0:0:0:
128,160,79496,1,0,0:0:0:0:
128,160,79617,1,8,0:0:0:0:
128,160,79780,1,0,0:0:0:0:
128,160,79861,1,0,0:0:0:0:
128,160,79942,1,8,0:0:0:0:
128,160,80023,1,0,0:0:0:0:
128,160,80104,1,0,0:0:0:0:
160,160,80158,1,0,0:0:0:0:
128,160,80212,1,0,0:0:0:0:
128,160,80266,1,8,0:0:0:0:
128,160,80347,1,8,0:0:0:0:
128,160,80428,1,8,0:0:0:0:
128,160,80509,1,0,0:0:0:0:
128,160,80753,1,8,0:0:0:0:
128,160,80834,1,8,0:0:0:0:
128,160,80915,1,8,0:0:0:0:
128,160,80996,1,8,0:0:0:0:
128,160,81077,1,0,0:0:0:0:
128,160,81239,1,8,0:0:0:0:
128,160,81320,1,0,0:0:0:0:
128,160,81401,1,8,0:0:0:0:
128,160,81482,1,8,0:0:0:0:
128,160,81563,1,0,0:0:0:0:
128,160,81725,1,8,0:0:0:0:
128,160,81766,1,8,0:0:0:0:
128,160,81888,1,0,0:0:0:0:
128,160,82050,1,8,0:0:0:0:
128,160,82090,1,8,0:0:0:0:
128,160,82212,1,0,0:0:0:0:
128,160,82374,1,0,0:0:0:0:
128,160,82415,1,0,0:0:0:0:
128,160,82537,1,8,0:0:0:0:
128,160,82577,1,8,0:0:0:0:
128,160,82699,1,0,0:0:0:0:
128,160,82739,1,0,0:0:0:0:
128,160,82861,1,8,0:0:0:0:
128,160,82901,1,8,0:0:0:0:
256,192,83023,12,0,83509,0:0:0:0:
192,192,83672,5,0,0:0:0:0:
192,192,83753,1,8,0:0:0:0:
192,192,83834,1,0,0:0:0:0:
192,192,83915,1,0,0:0:0:0:
192,192,83996,1,8,0:0:0:0:
192,192,84077,1,0,0:0:0:0:
192,192,84158,1,8,0:0:0:0:
192,192,84239,1,8,0:0:0:0:
192,192,84320,1,0,0:0:0:0:
192,192,84401,1,8,0:0:0:0:
192,192,84482,1,8,0:0:0:0:
192,192,84563,1,0,0:0:0:0:
192,192,84644,1,8,0:0:0:0:
192,192,84726,1,8,0:0:0:0:
192,192,84807,1,0,0:0:0:0:
192,192,84888,1,8,0:0:0:0:
192,192,84969,1,0,0:0:0:0:
192,192,85050,1,8,0:0:0:0:
192,192,85131,1,8,0:0:0:0:
192,192,85212,1,8,0:0:0:0:
192,192,85293,1,0,0:0:0:0:
192,192,85374,1,0,0:0:0:0:
192,192,85455,1,8,0:0:0:0:
192,192,85536,1,8,0:0:0:0:
192,192,85617,1,0,0:0:0:0:
192,192,85699,1,0,0:0:0:0:
192,192,85780,1,0,0:0:0:0:
192,192,85861,1,0,0:0:0:0:
192,192,85942,1,8,0:0:0:0:
192,192,86266,1,0,0:0:0:0:
192,192,86347,1,8,0:0:0:0:
192,192,86428,1,8,0:0:0:0:
192,192,86509,1,0,0:0:0:0:
192,192,86590,1,8,0:0:0:0:
192,192,86672,1,0,0:0:0:0:
192,192,86753,1,0,0:0:0:0:
192,192,86834,1,8,0:0:0:0:
192,192,86915,1,8,0:0:0:0:
192,192,86996,1,8,0:0:0:0:
192,192,87077,1,8,0:0:0:0:
192,192,87158,1,0,0:0:0:0:
192,192,87239,1,8,0:0:0:0:
192,192,87320,1,0,0:0:0:0:
192,192,87401,1,8,0:0:0:0:
192,192,87482,1,0,0:0:0:0:
192,192,87563,1,8,0:0:0:0:
192,192,87644,1,8,0:0:0:0:
192,192,87726,1,0,0:0:0:0:
192,192,87807,1,0,0:0:0:0:
192,192,87888,1,8,0:0:0:0:
192,192,87969,1,8,0:0:0:0:
192,192,88050,1,0,0:0:0:0:
192,192,88131,1,8,0:0:0:0:
192,192,88212,1,0,0:0:0:0:
192,192,88293,1,8,0:0:0:0:
192,192,88374,1,0,0:0:0:0:
192,192,88455,1,0,0:0:0:0:
192,192,88536,1,8,0:0:0:0:
224,192,88861,1,0,0:0:0:0:
224,192,88942,1,8,0:0:0:0:
224,192,89023,1,8,0:0:0:0:
224,192,89104,1,0,0:0:0:0:
224,192,89185,1,0,0:0:0:0:
224,192,89266,1,8,0:0:0:0:
224,192,89347,1,8,0:0:0:0:
224,192,89428,1,0,0:0:0:0:
224,192,89509,1,8,0:0:0:0:
224,192,89590,1,0,0:0:0:0:
224,192,89672,1,8,0:0:0:0:
224,192,89753,1,8,0:0:0:0:
224,192,89834,1,0,0:0:0:0:
224,192,89915,1,8,0:0:0:0:
224,192,89996,1,0,0:0:0:0:
224,192,90077,1,8,0:0:0:0:
224,192,90158,1,0,0:0:0:0:
224,192,90239,1,0,0:0:0:0:
224,192,90320,1,8,0:0:0:0:
224,192,90401,1,8,0:0:0:0:
224,192,90482,1,0,0:0:0:0:
224,192,90563,1,0,0:0:0:0:
224,192,90644,1,8,0:0:0:0:
224,192,90726,1,0,0:0:0:0:
224,192,90807,1,8,0:0:0:0:
224,192,90888,1,0,0:0:0:0:
224,192,90969,1,0,0:0:0:0:
224,192,91050,1,8,0:0:0:0:
128,64,91131,1,0,0:0:0:0:
288,192,91455,1,0,0:0:0:0:
288,192,91536,1,0,0:0:0:0:
288,192,91617,1,0,0:0:0:0:
288,192,91699,1,8,0:0:0:0:
288,192,91780,1,8,0:0:0:0:
288,192,91861,1,8,0:0:0:0:
288,192,91942,1,0,0:0:0:0:
288,192,92023,1,0,0:0:0:0:
288,192,92104,1,8,0:0:0:0:
288,192,92185,1,8,0:0:0:0:
288,192,92266,1,0,0:0:0:0:
288,192,92347,1,0,0:0:0:0:
288,192,92428,1,8,0:0:0:0:
256,192,92482,1,8,0:0:0:0:
288,192,92536,1,8,0:0:0:0:
288,192,92590,1,0,0:0:0:0:
288,192,92672,1,0,0:0:0:0:
288,192,92753,1,8,0:0:0:0:
288,192,92834,1,8,0:0:0:0:
288,192,92915,1,8,0:0:0:0:
288,192,92996,1,0,0:0:0:0:
288,192,93077,1,0,0:0:0:0:
288,192,93158,1,0,0:0:0:0:
288,192,93239,1,8,0:0:0:0:
288,192,93320,1,8,0:0:0:0:
224,160,93401,1,0,0:0:0:0:
224,160,93442,1,0,0:0:0:0:
224,160,93482,1,0,0:0:0:0:
256,192,93726,8,0,95347,0:0:0:0:
