osu file format v14

[General]
AudioFilename: audio.mp3
AudioLeadIn: 0
PreviewTime: 61597
Countdown: 0
SampleSet: Normal
StackLeniency: 0.7
Mode: 1
LetterboxInBreaks: 0
WidescreenStoryboard: 1

[Editor]
DistanceSpacing: 1
BeatDivisor: 6
GridSize: 4
TimelineZoom: 2

[Metadata]
Title:TSLove
TitleUnicode:TSLove
Artist:O2i3
ArtistUnicode:O2i3
Creator:[_Chichinya_]
Version:Aveyona Loyvea
Source:
Tags:Melanie Friggy-chan kqrth DDM Hi_Hello 404 AccNotFound FlamingRok Dargin Cyoris210 BlackWolf159 Yuno Taikocracy Prancer agu gamerock Nifty Lno Nepuri Raphalge frukoyurdakul Cyssel Unmei Muma Q____X Vulkin JessiChan iContol Chocola_2287 AezLack _yu68 zigizigiefe Grimbow
BeatmapID:1191292
BeatmapSetID:549370

[Difficulty]
HPDrainRate:9
CircleSize:0
OverallDifficulty:9
ApproachRate:0
SliderMultiplier:1.5
SliderTickRate:7.14

[Events]
//Background and Video events
0,0,"LVVBG.png",0,0
//Break Periods
//Storyboard Layer 0 (Background)
//Storyboard Layer 1 (Fail)
//Storyboard Layer 2 (Pass)
//Storyboard Layer 3 (Foreground)
//Storyboard Sound Samples

[TimingPoints]
645,324.324324324324,4,1,0,80,1,0
21401,-100,4,1,0,80,0,1
23672,5,4,1,0,80,1,1
23673,325,4,1,0,80,1,1
23996,324.324324324324,4,1,0,80,1,1
26104,5,4,1,0,80,1,1
26105,325,4,1,0,80,1,1
26266,5,4,1,0,80,1,1
26267,325,4,1,0,80,1,1
26590,324.324324324324,4,1,0,80,1,1
28861,5,4,1,0,80,1,1
28862,325,4,1,0,80,1,1
29185,324.324324324324,4,1,0,80,1,1
30482,5,4,1,0,80,1,1
30483,325,4,1,0,80,1,1
30807,5,4,1,0,80,1,1
30808,325,4,1,0,80,1,1
31131,5,4,1,0,80,1,1
31132,325,4,1,0,80,1,1
31293,5,4,1,0,80,1,1
31294,325,4,1,0,80,1,1
31455,5,4,1,0,80,1,1
31456,325,4,1,0,80,1,1
31617,5,4,1,0,80,1,1
31618,325,4,1,0,80,1,1
31780,324.324324324324,4,1,0,80,1,1
34051,5,4,1,0,80,1,1
34052,325,4,1,0,80,1,1
34374,324.324324324324,4,1,0,80,1,1
36483,5,4,1,0,80,1,1
36484,325,4,1,0,80,1,1
36645,5,4,1,0,80,1,1
36646,325,4,1,0,80,1,1
36969,324.324324324324,4,1,0,80,1,1
39240,5,4,1,0,80,1,1
39241,325,4,1,0,80,1,1
39563,324.324324324324,4,1,0,80,1,1
40861,5,4,1,0,80,1,1
40862,325,4,1,0,80,1,1
41186,5,4,1,0,80,1,1
41187,325,4,1,0,80,1,1
42158,324.324324324324,4,1,0,80,1,0
62915,-100,4,1,0,80,0,1
65186,5,4,1,0,80,1,1
65187,325,4,1,0,80,1,1
65509,324.324324324324,4,1,0,80,1,1
67618,5,4,1,0,80,1,1
67619,325,4,1,0,80,1,1
67780,5,4,1,0,80,1,1
67781,325,4,1,0,80,1,1
68104,324.324324324324,4,1,0,80,1,1
70375,5,4,1,0,80,1,1
70376,325,4,1,0,80,1,1
70699,324.324324324324,4,1,0,80,1,1
71996,5,4,1,0,80,1,1
71997,325,4,1,0,80,1,1
72321,5,4,1,0,80,1,1
72322,325,4,1,0,80,1,1
72645,5,4,1,0,80,1,1
72646,325,4,1,0,80,1,1
72807,5,4,1,0,80,1,1
72808,325,4,1,0,80,1,1
72969,5,4,1,0,80,1,1
72970,325,4,1,0,80,1,1
73131,5,4,1,0,80,1,1
73132,325,4,1,0,80,1,1
73293,324.324324324324,4,1,0,80,1,1
75565,5,4,1,0,80,1,1
75566,325,4,1,0,80,1,1
75888,324.324324324324,4,1,0,80,1,1
77997,5,4,1,0,80,1,1
77998,325,4,1,0,80,1,1
78159,5,4,1,0,80,1,1
78160,325,4,1,0,80,1,1
78482,324.324324324324,4,1,0,80,1,1
80754,5,4,1,0,80,1,1
80755,325,4,1,0,80,1,1
81077,324.324324324324,4,1,0,80,1,1
82375,5,4,1,0,80,1,1
82376,325,4,1,0,80,1,1
82700,5,4,1,0,80,1,1
82701,325,4,1,0,80,1,1
83672,324.324324324324,4,1,0,80,1,0

[Colours]
Combo1 : 133,24,82
Combo2 : 96,61,99
Combo3 : 252,143,143
Combo4 : 234,69,21

[HitObjects]
256,192,11023,5,0,0:0:0:0:
256,192,11347,1,8,0:0:0:0:
256,192,11672,1,0,0:0:0:0:
256,192,11996,1,8,0:0:0:0:
256,192,12158,1,0,0:0:0:0:
256,192,12320,1,0,0:0:0:0:
256,192,12644,1,8,0:0:0:0:
256,192,12969,1,0,0:0:0:0:
256,192,13131,1,0,0:0:0:0:
256,192,13212,1,0,0:0:0:0:
256,192,13293,1,8,0:0:0:0:
256,192,13455,1,8,0:0:0:0:
256,192,13617,1,0,0:0:0:0:
256,192,13942,1,8,0:0:0:0:
256,192,14266,1,0,0:0:0:0:
256,192,14590,1,8,0:0:0:0:
256,192,14753,1,0,0:0:0:0:
256,192,14915,1,0,0:0:0:0:
256,192,15239,1,8,0:0:0:0:
256,192,15563,1,0,0:0:0:0:
256,192,15726,1,0,0:0:0:0:
256,192,15807,1,0,0:0:0:0:
256,192,15888,1,8,0:0:0:0:
256,192,16050,1,8,0:0:0:0:
256,192,16212,1,0,0:0:0:0:
256,192,16374,1,8,0:0:0:0:
256,192,16536,1,0,0:0:0:0:
256,192,16617,1,0,0:0:0:0:
256,192,16699,1,8,0:0:0:0:
256,192,16861,1,0,0:0:0:0:
256,192,17023,1,8,0:0:0:0:
256,192,17185,1,0,0:0:0:0:
256,192,17266,1,0,0:0:0:0:
256,192,17347,1,8,0:0:0:0:
256,192,17509,1,0,0:0:0:0:
256,192,17672,1,8,0:0:0:0:
256,192,17834,1,0,0:0:0:0:
256,192,17915,1,8,0:0:0:0:
256,192,17996,1,8,0:0:0:0:
256,192,18158,1,0,0:0:0:0:
256,192,18320,1,8,0:0:0:0:
256,192,18482,1,0,0:0:0:0:
256,192,18563,1,8,0:0:0:0:
256,192,18644,1,8,0:0:0:0:
256,192,18807,1,0,0:0:0:0:
256,192,18888,1,0,0:0:0:0:
256,192,18969,1,8,0:0:0:0:
256,192,19050,1,8,0:0:0:0:
256,192,19131,1,0,0:0:0:0:
256,192,19212,1,0,0:0:0:0:
256,192,19293,1,8,0:0:0:0:
256,192,19374,1,8,0:0:0:0:
256,192,19455,1,0,0:0:0:0:
256,192,19509,1,0,0:0:0:0:
256,192,19563,1,0,0:0:0:0:
256,192,19617,1,8,0:0:0:0:
256,192,19699,1,8,0:0:0:0:
256,192,19780,1,0,0:0:0:0:
256,192,19861,1,0,0:0:0:0:
256,192,19942,1,8,0:0:0:0:
256,192,20023,1,8,0:0:0:0:
256,192,21401,1,4,0:0:0:0:
256,192,21563,1,8,0:0:0:0:
256,192,21644,1,8,0:0:0:0:
256,192,21726,1,0,0:0:0:0:
256,192,21807,1,0,0:0:0:0:
256,192,21888,1,8,0:0:0:0:
256,192,21969,1,8,0:0:0:0:
256,192,22050,1,0,0:0:0:0:
256,192,22131,1,8,0:0:0:0:
256,192,22212,1,0,0:0:0:0:
256,192,22293,1,0,0:0:0:0:
256,192,22374,1,8,0:0:0:0:
256,192,22455,1,8,0:0:0:0:
256,192,22536,1,0,0:0:0:0:
256,192,22617,1,0,0:0:0:0:
256,192,22699,1,8,0:0:0:0:
256,192,22780,1,0,0:0:0:0:
256,192,22861,1,8,0:0:0:0:
256,192,22942,1,8,0:0:0:0:
256,192,23023,1,0,0:0:0:0:
256,192,23104,1,8,0:0:0:0:
256,192,23185,1,0,0:0:0:0:
256,192,23266,1,0,0:0:0:0:
256,192,23347,1,0,0:0:0:0:
256,192,23672,1,12,0:0:0:0:
256,192,23996,1,4,0:0:0:0:
256,192,24158,1,8,0:0:0:0:
256,192,24239,1,8,0:0:0:0:
256,192,24320,1,0,0:0:0:0:
256,192,24401,1,8,0:0:0:0:
256,192,24482,1,0,0:0:0:0:
256,192,24563,1,0,0:0:0:0:
256,192,24644,1,8,0:0:0:0:
256,192,24726,1,8,0:0:0:0:
256,192,24807,1,0,0:0:0:0:
256,192,24888,1,8,0:0:0:0:
256,192,24969,1,0,0:0:0:0:
256,192,25050,1,0,0:0:0:0:
256,192,25131,1,8,0:0:0:0:
256,192,25212,1,0,0:0:0:0:
256,192,25293,1,8,0:0:0:0:
256,192,25374,1,8,0:0:0:0:
256,192,25455,1,0,0:0:0:0:
256,192,25536,1,0,0:0:0:0:
256,192,25617,1,8,0:0:0:0:
256,192,25699,1,8,0:0:0:0:
256,192,25780,1,0,0:0:0:0:
256,192,25861,1,8,0:0:0:0:
256,192,25942,1,0,0:0:0:0:
256,192,26104,1,12,0:0:0:0:
256,192,26266,1,12,0:0:0:0:
256,192,26590,1,4,0:0:0:0:
256,192,26753,1,8,0:0:0:0:
256,192,26834,1,8,0:0:0:0:
256,192,26915,1,0,0:0:0:0:
256,192,26996,1,8,0:0:0:0:
256,192,27077,1,0,0:0:0:0:
256,192,27158,1,0,0:0:0:0:
256,192,27239,1,8,0:0:0:0:
256,192,27320,1,8,0:0:0:0:
256,192,27401,1,0,0:0:0:0:
256,192,27482,1,0,0:0:0:0:
256,192,27563,1,8,0:0:0:0:
256,192,27644,1,8,0:0:0:0:
256,192,27726,1,8,0:0:0:0:
256,192,27807,1,8,0:0:0:0:
256,192,27888,1,0,0:0:0:0:
256,192,27969,1,0,0:0:0:0:
256,192,28050,1,8,0:0:0:0:
256,192,28131,1,8,0:0:0:0:
256,192,28212,1,0,0:0:0:0:
256,192,28293,1,0,0:0:0:0:
256,192,28374,1,8,0:0:0:0:
256,192,28455,1,8,0:0:0:0:
256,192,28536,1,0,0:0:0:0:
256,192,28861,1,12,0:0:0:0:
256,192,29185,1,4,0:0:0:0:
256,192,29347,1,8,0:0:0:0:
256,192,29428,1,8,0:0:0:0:
256,192,29509,1,0,0:0:0:0:
256,192,29590,1,0,0:0:0:0:
256,192,29672,1,8,0:0:0:0:
256,192,29753,1,0,0:0:0:0:
256,192,29834,1,8,0:0:0:0:
256,192,29915,1,8,0:0:0:0:
256,192,29996,1,0,0:0:0:0:
256,192,30077,1,8,0:0:0:0:
256,192,30158,1,0,0:0:0:0:
256,192,30239,1,0,0:0:0:0:
256,192,30320,1,8,0:0:0:0:
256,192,30482,1,12,0:0:0:0:
256,192,30807,1,12,0:0:0:0:
256,192,31131,1,12,0:0:0:0:
256,192,31293,1,12,0:0:0:0:
256,192,31455,1,12,0:0:0:0:
256,192,31617,1,12,0:0:0:0:
256,192,31780,1,4,0:0:0:0:
256,192,31942,1,8,0:0:0:0:
256,192,32023,1,8,0:0:0:0:
256,192,32105,1,0,0:0:0:0:
256,192,32186,1,8,0:0:0:0:
256,192,32267,1,0,0:0:0:0:
256,192,32348,1,0,0:0:0:0:
256,192,32429,1,8,0:0:0:0:
256,192,32510,1,8,0:0:0:0:
256,192,32591,1,0,0:0:0:0:
256,192,32672,1,8,0:0:0:0:
256,192,32753,1,0,0:0:0:0:
256,192,32834,1,0,0:0:0:0:
256,192,32915,1,8,0:0:0:0:
256,192,32996,1,0,0:0:0:0:
256,192,33078,1,8,0:0:0:0:
256,192,33159,1,8,0:0:0:0:
256,192,33240,1,0,0:0:0:0:
256,192,33321,1,8,0:0:0:0:
256,192,33402,1,0,0:0:0:0:
256,192,33483,1,0,0:0:0:0:
256,192,33564,1,8,0:0:0:0:
256,192,33644,1,8,0:0:0:0:
256,192,33726,1,0,0:0:0:0:
256,192,34051,1,12,0:0:0:0:
256,192,34375,1,4,0:0:0:0:
256,192,34537,1,0,0:0:0:0:
256,192,34618,1,0,0:0:0:0:
256,192,34699,1,8,0:0:0:0:
256,192,34780,1,8,0:0:0:0:
256,192,34861,1,0,0:0:0:0:
256,192,34942,1,8,0:0:0:0:
256,192,35023,1,0,0:0:0:0:
256,192,35105,1,0,0:0:0:0:
256,192,35186,1,8,0:0:0:0:
256,192,35267,1,8,0:0:0:0:
256,192,35348,1,0,0:0:0:0:
256,192,35429,1,8,0:0:0:0:
256,192,35510,1,0,0:0:0:0:
256,192,35591,1,0,0:0:0:0:
256,192,35672,1,8,0:0:0:0:
256,192,35753,1,8,0:0:0:0:
256,192,35834,1,8,0:0:0:0:
256,192,35915,1,8,0:0:0:0:
256,192,35996,1,0,0:0:0:0:
256,192,36078,1,0,0:0:0:0:
256,192,36159,1,8,0:0:0:0:
256,192,36240,1,0,0:0:0:0:
256,192,36321,1,8,0:0:0:0:
256,192,36483,1,12,0:0:0:0:
256,192,36645,1,12,0:0:0:0:
256,192,36969,1,4,0:0:0:0:
256,192,37132,1,8,0:0:0:0:
256,192,37213,1,8,0:0:0:0:
256,192,37294,1,0,0:0:0:0:
256,192,37375,1,0,0:0:0:0:
256,192,37456,1,8,0:0:0:0:
256,192,37537,1,0,0:0:0:0:
256,192,37618,1,8,0:0:0:0:
256,192,37699,1,8,0:0:0:0:
256,192,37780,1,0,0:0:0:0:
256,192,37861,1,0,0:0:0:0:
256,192,37942,1,8,0:0:0:0:
256,192,38023,1,8,0:0:0:0:
256,192,38105,1,0,0:0:0:0:
256,192,38186,1,0,0:0:0:0:
256,192,38267,1,8,0:0:0:0:
256,192,38348,1,0,0:0:0:0:
256,192,38429,1,8,0:0:0:0:
256,192,38510,1,8,0:0:0:0:
256,192,38591,1,0,0:0:0:0:
256,192,38672,1,8,0:0:0:0:
256,192,38753,1,0,0:0:0:0:
256,192,38834,1,0,0:0:0:0:
256,192,38915,1,8,0:0:0:0:
256,192,39240,1,12,0:0:0:0:
256,192,39564,1,4,0:0:0:0:
256,192,39726,1,0,0:0:0:0:
256,192,39807,1,0,0:0:0:0:
256,192,39888,1,8,0:0:0:0:
256,192,39969,1,8,0:0:0:0:
256,192,40051,1,0,0:0:0:0:
256,192,40132,1,0,0:0:0:0:
256,192,40213,1,8,0:0:0:0:
256,192,40294,1,8,0:0:0:0:
256,192,40375,1,0,0:0:0:0:
256,192,40456,1,8,0:0:0:0:
256,192,40537,1,8,0:0:0:0:
256,192,40618,1,0,0:0:0:0:
256,192,40699,1,8,0:0:0:0:
256,192,40861,1,12,0:0:0:0:
256,192,41186,1,12,0:0:0:0:
256,192,41510,1,4,0:0:0:0:
256,192,41834,1,4,0:0:0:0:
256,192,42158,1,0,0:0:0:0:
256,192,42320,1,8,0:0:0:0:
256,192,42644,1,8,0:0:0:0:
256,192,42969,1,8,0:0:0:0:
256,192,43293,1,8,0:0:0:0:
256,192,43455,1,0,0:0:0:0:
256,192,43617,1,8,0:0:0:0:
256,192,43942,1,8,0:0:0:0:
256,192,44266,1,8,0:0:0:0:
256,192,44428,1,0,0:0:0:0:
256,192,44590,1,8,0:0:0:0:
256,192,44753,1,0,0:0:0:0:
256,192,44915,1,8,0:0:0:0:
256,192,45239,1,8,0:0:0:0:
256,192,45563,1,8,0:0:0:0:
256,192,45888,1,8,0:0:0:0:
256,192,46050,1,0,0:0:0:0:
256,192,46212,1,8,0:0:0:0:
256,192,46536,1,8,0:0:0:0:
256,192,46861,1,8,0:0:0:0:
256,192,47023,1,0,0:0:0:0:
256,192,47185,1,8,0:0:0:0:
256,192,47347,1,0,0:0:0:0:
256,192,47509,1,8,0:0:0:0:
256,192,47834,1,8,0:0:0:0:
256,192,48158,1,8,0:0:0:0:
256,192,48482,1,8,0:0:0:0:
256,192,48644,1,0,0:0:0:0:
256,192,48807,1,8,0:0:0:0:
256,192,49131,1,8,0:0:0:0:
256,192,49455,1,8,0:0:0:0:
256,192,49617,1,0,0:0:0:0:
256,192,49780,1,8,0:0:0:0:
256,192,49942,1,0,0:0:0:0:
256,192,50104,1,8,0:0:0:0:
256,192,50428,1,8,0:0:0:0:
256,192,50753,1,8,0:0:0:0:
256,192,51077,1,8,0:0:0:0:
256,192,51239,1,0,0:0:0:0:
256,192,51401,1,8,0:0:0:0:
256,192,51726,1,8,0:0:0:0:
256,192,52050,1,8,0:0:0:0:
256,192,52212,1,0,0:0:0:0:
256,192,52374,1,8,0:0:0:0:
256,192,52536,1,4,0:0:0:0:
256,192,52780,1,0,0:0:0:0:
256,192,52861,1,8,0:0:0:0:
256,192,53023,1,0,0:0:0:0:
256,192,53104,1,0,0:0:0:0:
256,192,53185,1,0,0:0:0:0:
256,192,53347,1,0,0:0:0:0:
256,192,53509,1,8,0:0:0:0:
256,192,53834,1,0,0:0:0:0:
256,192,53996,1,0,0:0:0:0:
256,192,54077,1,0,0:0:0:0:
256,192,54158,1,8,0:0:0:0:
256,192,54320,1,0,0:0:0:0:
256,192,54482,1,0,0:0:0:0:
256,192,54644,1,0,0:0:0:0:
256,192,54726,1,8,0:0:0:0:
256,192,54807,1,8,0:0:0:0:
256,192,54969,1,8,0:0:0:0:
256,192,55131,1,0,0:0:0:0:
258,188,55374,1,0,0:0:0:0:
256,192,55455,1,8,0:0:0:0:
256,192,55617,1,0,0:0:0:0:
256,192,55699,1,0,0:0:0:0:
256,192,55780,1,0,0:0:0:0:
256,192,55942,1,0,0:0:0:0:
256,192,56023,1,0,0:0:0:0:
256,192,56104,1,8,0:0:0:0:
258,188,56266,1,8,0:0:0:0:
256,192,56428,1,0,0:0:0:0:
256,192,56590,1,0,0:0:0:0:
256,192,56753,1,8,0:0:0:0:
256,192,56915,1,0,0:0:0:0:
256,192,56996,1,0,0:0:0:0:
256,192,57077,1,0,0:0:0:0:
256,192,57239,1,0,0:0:0:0:
256,192,57320,1,0,0:0:0:0:
256,192,57401,1,8,0:0:0:0:
256,192,57563,1,8,0:0:0:0:
256,192,57726,1,0,0:0:0:0:
256,192,57969,1,0,0:0:0:0:
256,192,58050,1,8,0:0:0:0:
256,192,58212,1,0,0:0:0:0:
256,192,58293,1,0,0:0:0:0:
256,192,58374,1,0,0:0:0:0:
256,192,58536,1,0,0:0:0:0:
256,192,58699,1,8,0:0:0:0:
256,192,58861,1,8,0:0:0:0:
256,192,58942,1,8,0:0:0:0:
256,192,59023,1,0,0:0:0:0:
256,192,59185,1,0,0:0:0:0:
256,192,59347,1,8,0:0:0:0:
256,192,59509,1,0,0:0:0:0:
256,192,59590,1,0,0:0:0:0:
256,192,59672,1,0,0:0:0:0:
256,192,59753,1,0,0:0:0:0:
256,192,59834,1,0,0:0:0:0:
256,192,59996,1,8,0:0:0:0:
256,192,60158,1,0,0:0:0:0:
256,192,60320,1,0,0:0:0:0:
256,192,60401,1,0,0:0:0:0:
256,192,60482,1,8,0:0:0:0:
256,192,60563,1,8,0:0:0:0:
256,192,60644,1,0,0:0:0:0:
256,192,60726,1,0,0:0:0:0:
256,192,60807,1,8,0:0:0:0:
256,192,60888,1,8,0:0:0:0:
256,192,60969,1,0,0:0:0:0:
256,192,61023,1,0,0:0:0:0:
256,192,61077,1,0,0:0:0:0:
256,192,61131,1,8,0:0:0:0:
256,192,61212,1,8,0:0:0:0:
256,192,61293,1,0,0:0:0:0:
256,192,61374,1,0,0:0:0:0:
256,192,61455,1,8,0:0:0:0:
256,192,61536,1,8,0:0:0:0:
256,192,62915,1,4,0:0:0:0:
256,192,63077,1,8,0:0:0:0:
256,192,63158,1,8,0:0:0:0:
256,192,63240,1,0,0:0:0:0:
256,192,63321,1,0,0:0:0:0:
256,192,63402,1,8,0:0:0:0:
256,192,63483,1,8,0:0:0:0:
256,192,63564,1,0,0:0:0:0:
256,192,63645,1,8,0:0:0:0:
256,192,63726,1,0,0:0:0:0:
256,192,63807,1,0,0:0:0:0:
256,192,63888,1,8,0:0:0:0:
256,192,63969,1,8,0:0:0:0:
256,192,64050,1,0,0:0:0:0:
256,192,64131,1,0,0:0:0:0:
256,192,64213,1,8,0:0:0:0:
256,192,64294,1,0,0:0:0:0:
256,192,64375,1,8,0:0:0:0:
256,192,64456,1,8,0:0:0:0:
256,192,64537,1,0,0:0:0:0:
256,192,64618,1,8,0:0:0:0:
256,192,64699,1,0,0:0:0:0:
256,192,64780,1,0,0:0:0:0:
256,192,64861,1,0,0:0:0:0:
256,192,65186,1,12,0:0:0:0:
256,192,65510,1,4,0:0:0:0:
256,192,65672,1,8,0:0:0:0:
256,192,65753,1,8,0:0:0:0:
256,192,65834,1,0,0:0:0:0:
256,192,65915,1,8,0:0:0:0:
256,192,65996,1,0,0:0:0:0:
256,192,66077,1,0,0:0:0:0:
256,192,66158,1,8,0:0:0:0:
256,192,66240,1,8,0:0:0:0:
256,192,66321,1,0,0:0:0:0:
256,192,66402,1,8,0:0:0:0:
256,192,66483,1,0,0:0:0:0:
256,192,66564,1,0,0:0:0:0:
256,192,66645,1,8,0:0:0:0:
256,192,66726,1,0,0:0:0:0:
256,192,66807,1,8,0:0:0:0:
256,192,66888,1,8,0:0:0:0:
256,192,66969,1,0,0:0:0:0:
256,192,67050,1,0,0:0:0:0:
256,192,67131,1,8,0:0:0:0:
256,192,67213,1,8,0:0:0:0:
256,192,67294,1,0,0:0:0:0:
256,192,67375,1,8,0:0:0:0:
256,192,67456,1,0,0:0:0:0:
256,192,67618,1,12,0:0:0:0:
256,192,67780,1,12,0:0:0:0:
256,192,68104,1,4,0:0:0:0:
256,192,68267,1,8,0:0:0:0:
256,192,68348,1,8,0:0:0:0:
256,192,68429,1,0,0:0:0:0:
256,192,68510,1,8,0:0:0:0:
256,192,68591,1,0,0:0:0:0:
256,192,68672,1,0,0:0:0:0:
256,192,68753,1,8,0:0:0:0:
256,192,68834,1,8,0:0:0:0:
256,192,68915,1,0,0:0:0:0:
256,192,68996,1,0,0:0:0:0:
256,192,69077,1,8,0:0:0:0:
256,192,69158,1,8,0:0:0:0:
256,192,69240,1,8,0:0:0:0:
256,192,69321,1,8,0:0:0:0:
256,192,69402,1,0,0:0:0:0:
256,192,69483,1,0,0:0:0:0:
256,192,69564,1,8,0:0:0:0:
256,192,69645,1,8,0:0:0:0:
256,192,69726,1,0,0:0:0:0:
256,192,69807,1,0,0:0:0:0:
256,192,69888,1,8,0:0:0:0:
256,192,69969,1,8,0:0:0:0:
256,192,70050,1,0,0:0:0:0:
256,192,70375,1,12,0:0:0:0:
256,192,70699,1,4,0:0:0:0:
256,192,70861,1,8,0:0:0:0:
256,192,70942,1,8,0:0:0:0:
256,192,71023,1,0,0:0:0:0:
256,192,71104,1,0,0:0:0:0:
256,192,71186,1,8,0:0:0:0:
256,192,71267,1,0,0:0:0:0:
256,192,71348,1,8,0:0:0:0:
256,192,71429,1,8,0:0:0:0:
256,192,71510,1,0,0:0:0:0:
256,192,71591,1,8,0:0:0:0:
256,192,71672,1,0,0:0:0:0:
256,192,71753,1,0,0:0:0:0:
256,192,71834,1,8,0:0:0:0:
256,192,71996,1,12,0:0:0:0:
256,192,72321,1,12,0:0:0:0:
256,192,72645,1,12,0:0:0:0:
256,192,72807,1,12,0:0:0:0:
256,192,72969,1,12,0:0:0:0:
256,192,73131,1,12,0:0:0:0:
256,192,73294,1,4,0:0:0:0:
256,192,73456,1,8,0:0:0:0:
256,192,73537,1,8,0:0:0:0:
256,192,73619,1,0,0:0:0:0:
256,192,73700,1,8,0:0:0:0:
256,192,73781,1,0,0:0:0:0:
256,192,73862,1,0,0:0:0:0:
256,192,73943,1,8,0:0:0:0:
256,192,74024,1,8,0:0:0:0:
256,192,74105,1,0,0:0:0:0:
256,192,74186,1,8,0:0:0:0:
256,192,74267,1,0,0:0:0:0:
256,192,74348,1,0,0:0:0:0:
256,192,74429,1,8,0:0:0:0:
256,192,74510,1,0,0:0:0:0:
256,192,74592,1,8,0:0:0:0:
256,192,74673,1,8,0:0:0:0:
256,192,74754,1,0,0:0:0:0:
256,192,74835,1,8,0:0:0:0:
256,192,74916,1,0,0:0:0:0:
256,192,74997,1,0,0:0:0:0:
256,192,75078,1,8,0:0:0:0:
256,192,75158,1,8,0:0:0:0:
256,192,75240,1,0,0:0:0:0:
256,192,75565,1,12,0:0:0:0:
256,192,75889,1,4,0:0:0:0:
256,192,76051,1,0,0:0:0:0:
256,192,76132,1,0,0:0:0:0:
256,192,76213,1,8,0:0:0:0:
256,192,76294,1,8,0:0:0:0:
256,192,76375,1,0,0:0:0:0:
256,192,76456,1,8,0:0:0:0:
256,192,76537,1,0,0:0:0:0:
256,192,76619,1,0,0:0:0:0:
256,192,76700,1,8,0:0:0:0:
256,192,76781,1,8,0:0:0:0:
256,192,76862,1,0,0:0:0:0:
256,192,76943,1,8,0:0:0:0:
256,192,77024,1,0,0:0:0:0:
256,192,77105,1,0,0:0:0:0:
256,192,77186,1,8,0:0:0:0:
256,192,77267,1,8,0:0:0:0:
256,192,77348,1,8,0:0:0:0:
256,192,77429,1,8,0:0:0:0:
256,192,77510,1,0,0:0:0:0:
256,192,77592,1,0,0:0:0:0:
256,192,77673,1,8,0:0:0:0:
256,192,77754,1,0,0:0:0:0:
256,192,77835,1,8,0:0:0:0:
256,192,77997,1,12,0:0:0:0:
256,192,78159,1,12,0:0:0:0:
256,192,78483,1,4,0:0:0:0:
256,192,78646,1,8,0:0:0:0:
256,192,78727,1,8,0:0:0:0:
256,192,78808,1,0,0:0:0:0:
256,192,78889,1,0,0:0:0:0:
256,192,78970,1,8,0:0:0:0:
256,192,79051,1,0,0:0:0:0:
256,192,79132,1,8,0:0:0:0:
256,192,79213,1,8,0:0:0:0:
256,192,79294,1,0,0:0:0:0:
256,192,79375,1,0,0:0:0:0:
256,192,79456,1,8,0:0:0:0:
256,192,79537,1,8,0:0:0:0:
256,192,79619,1,0,0:0:0:0:
256,192,79700,1,0,0:0:0:0:
256,192,79781,1,8,0:0:0:0:
256,192,79862,1,0,0:0:0:0:
256,192,79943,1,8,0:0:0:0:
256,192,80024,1,8,0:0:0:0:
256,192,80105,1,0,0:0:0:0:
256,192,80186,1,8,0:0:0:0:
256,192,80267,1,0,0:0:0:0:
256,192,80348,1,0,0:0:0:0:
256,192,80429,1,8,0:0:0:0:
256,192,80754,1,12,0:0:0:0:
256,192,81078,1,4,0:0:0:0:
256,192,81240,1,0,0:0:0:0:
256,192,81321,1,0,0:0:0:0:
256,192,81402,1,8,0:0:0:0:
256,192,81483,1,8,0:0:0:0:
256,192,81565,1,0,0:0:0:0:
256,192,81646,1,0,0:0:0:0:
256,192,81727,1,8,0:0:0:0:
256,192,81808,1,8,0:0:0:0:
256,192,81889,1,0,0:0:0:0:
256,192,81970,1,8,0:0:0:0:
256,192,82051,1,8,0:0:0:0:
256,192,82132,1,0,0:0:0:0:
256,192,82213,1,8,0:0:0:0:
256,192,82375,1,12,0:0:0:0:
256,192,82700,1,12,0:0:0:0:
256,192,83672,1,8,0:0:0:0:
256,192,83753,1,8,0:0:0:0:
256,192,83834,1,8,0:0:0:0:
256,192,83915,1,8,0:0:0:0:
256,192,83996,1,0,0:0:0:0:
256,192,84158,1,0,0:0:0:0:
256,192,84239,1,0,0:0:0:0:
256,192,84320,1,8,0:0:0:0:
256,192,84482,1,8,0:0:0:0:
256,192,84644,1,0,0:0:0:0:
256,192,84726,1,8,0:0:0:0:
256,192,84807,1,0,0:0:0:0:
256,192,84888,1,0,0:0:0:0:
256,192,84969,1,8,0:0:0:0:
256,192,85131,1,0,0:0:0:0:
256,192,85212,1,8,0:0:0:0:
256,192,85293,1,0,0:0:0:0:
256,192,85374,1,8,0:0:0:0:
256,192,85455,1,8,0:0:0:0:
256,192,85536,1,8,0:0:0:0:
256,192,85617,1,0,0:0:0:0:
256,192,85699,1,0,0:0:0:0:
256,192,85780,1,8,0:0:0:0:
256,192,86266,1,0,0:0:0:0:
256,192,86428,1,0,0:0:0:0:
256,192,86509,1,8,0:0:0:0:
256,192,86590,1,8,0:0:0:0:
256,192,86753,1,0,0:0:0:0:
256,192,86915,1,8,0:0:0:0:
256,192,87077,1,8,0:0:0:0:
256,192,87158,1,0,0:0:0:0:
256,192,87239,1,8,0:0:0:0:
256,192,87320,1,8,0:0:0:0:
256,192,87401,1,0,0:0:0:0:
256,192,87482,1,8,0:0:0:0:
256,192,87563,1,0,0:0:0:0:
256,192,87726,1,0,0:0:0:0:
256,192,87807,1,8,0:0:0:0:
256,192,87969,1,8,0:0:0:0:
256,192,88050,1,0,0:0:0:0:
256,192,88131,1,0,0:0:0:0:
256,192,88212,1,8,0:0:0:0:
256,192,88374,1,8,0:0:0:0:
256,192,88861,1,0,0:0:0:0:
256,192,89023,1,0,0:0:0:0:
256,192,89104,1,8,0:0:0:0:
256,192,89185,1,0,0:0:0:0:
256,192,89347,1,0,0:0:0:0:
256,192,89509,1,8,0:0:0:0:
256,192,89672,1,0,0:0:0:0:
256,192,89753,1,8,0:0:0:0:
256,192,89834,1,0,0:0:0:0:
256,192,89915,1,8,0:0:0:0:
256,192,89996,1,8,0:0:0:0:
256,192,90077,1,0,0:0:0:0:
256,192,90158,1,8,0:0:0:0:
256,192,90320,1,0,0:0:0:0:
256,192,90401,1,8,0:0:0:0:
256,192,90563,1,0,0:0:0:0:
256,192,90644,1,8,0:0:0:0:
256,192,90807,1,8,0:0:0:0:
256,192,90969,1,0,0:0:0:0:
256,192,91455,1,0,0:0:0:0:
256,192,91617,1,8,0:0:0:0:
256,192,91699,1,0,0:0:0:0:
256,192,91861,1,0,0:0:0:0:
256,192,91942,1,8,0:0:0:0:
256,192,92104,1,0,0:0:0:0:
256,192,92185,1,8,0:0:0:0:
256,192,92266,1,0,0:0:0:0:
256,192,92347,1,0,0:0:0:0:
256,192,92428,1,8,0:0:0:0:
256,192,92482,1,8,0:0:0:0:
256,192,92536,1,8,0:0:0:0:
256,192,92590,1,0,0:0:0:0:
256,192,92753,1,0,0:0:0:0:
256,192,92834,1,0,0:0:0:0:
256,192,92915,1,8,0:0:0:0:
256,192,92996,1,8,0:0:0:0:
256,192,93077,1,0,0:0:0:0:
256,192,93158,1,0,0:0:0:0:
256,192,93239,1,8,0:0:0:0:
256,192,93320,1,8,0:0:0:0:
256,192,93401,1,0,0:0:0:0:
256,192,93482,1,0,0:0:0:0:
256,192,93563,1,0,0:0:0:0:
256,192,93644,1,0,0:0:0:0:
256,192,93726,1,8,0:0:0:0:
