osu file format v14

[General]
AudioFilename: O2i3 - Ooi Game Edit.mp3
AudioLeadIn: 0
PreviewTime: 78972
Countdown: 0
SampleSet: Soft
StackLeniency: 0.7
Mode: 3
LetterboxInBreaks: 0
SpecialStyle: 0
WidescreenStoryboard: 1

[Editor]
DistanceSpacing: 1
BeatDivisor: 4
GridSize: 4
TimelineZoom: 3.300001

[Metadata]
Title:Ooi
TitleUnicode:Ooi
Artist:O2i3
ArtistUnicode:O2i3
Creator:Syadow-
Version:Game Over Lv. 17
Source:osu!
Tags:Jaxalate Records disc 2 kantai collection kancolle Happy Hardcore Ilham Hilmi Ghazian Featured Artist
BeatmapID:1068986
BeatmapSetID:502300

[Difficulty]
HPDrainRate:8.5
CircleSize:4
OverallDifficulty:8.5
ApproachRate:5
SliderMultiplier:1.4
SliderTickRate:1

[Events]
//Background and Video events
0,0,"Ooi.jpg",0,0
//Break Periods
//Storyboard Layer 0 (Background)
//Storyboard Layer 1 (Fail)
//Storyboard Layer 2 (Pass)
//Storyboard Layer 3 (Foreground)
//Storyboard Layer 4 (Overlay)
//Storyboard Sound Samples

[TimingPoints]
2306,277.777777777778,4,2,1,35,1,0
2306,-111.111111111111,4,2,1,35,0,0
9111,-100,4,2,1,35,0,0
11194,-33.3333333333333,4,2,1,35,0,0
11212,-250,4,2,1,35,0,0
11281,-166.666666666667,4,2,1,35,0,0
11299,-111.111111111111,4,2,1,35,0,0
11316,-66.6666666666667,4,2,1,35,0,0
11333,-33.3333333333333,4,2,1,35,0,0
11351,-250,4,2,1,35,0,0
11420,-166.666666666667,4,2,1,35,0,0
11438,-111.111111111111,4,2,1,35,0,0
11455,-66.6666666666667,4,2,1,35,0,0
11472,-33.3333333333333,4,2,1,35,0,0
11490,-250,4,2,1,35,0,0
11559,-166.666666666667,4,2,1,35,0,0
11577,-111.111111111111,4,2,1,35,0,0
11594,-66.6666666666667,4,2,1,35,0,0
11611,-33.3333333333333,4,2,1,35,0,0
11629,-250,4,2,1,35,0,0
11698,-166.666666666667,4,2,1,35,0,0
11716,-111.111111111111,4,2,1,35,0,0
11733,-66.6666666666667,4,2,1,35,0,0
11750,-100,4,2,1,35,0,0
13417,-33.3333333333333,4,2,1,35,0,0
13434,-250,4,2,1,35,0,0
13503,-166.666666666667,4,2,1,35,0,0
13521,-111.111111111111,4,2,1,35,0,0
13538,-66.6666666666667,4,2,1,35,0,0
13556,-33.3333333333333,4,2,1,35,0,0
13573,-250,4,2,1,35,0,0
13642,-166.666666666667,4,2,1,35,0,0
13660,-111.111111111111,4,2,1,35,0,0
13677,-66.6666666666667,4,2,1,35,0,0
13694,-33.3333333333333,4,2,1,35,0,0
13712,-250,4,2,1,35,0,0
13781,-166.666666666667,4,2,1,35,0,0
13799,-111.111111111111,4,2,1,35,0,0
13816,-66.6666666666667,4,2,1,35,0,0
13833,-33.3333333333333,4,2,1,35,0,0
13851,-250,4,2,1,35,0,0
13920,-166.666666666667,4,2,1,35,0,0
13937,-111.111111111111,4,2,1,35,0,0
13955,-66.6666666666667,4,2,1,35,0,0
13972,-100,4,2,1,35,0,0
15083,-10,4,2,1,35,0,0
15101,-33.3333333333333,4,2,1,35,0,0
15118,-100,4,2,1,35,0,0
15153,-27.027027027027,4,2,1,35,0,0
15170,-1000,4,2,1,35,0,0
15222,-29.4117647058824,4,2,1,35,0,0
15240,-1000,4,2,1,35,0,0
15292,-32.258064516129,4,2,1,35,0,0
15309,-1000,4,2,1,35,0,0
15361,-35.7142857142857,4,2,1,35,0,0
15378,-1000,4,2,1,35,0,0
15431,-40,4,2,1,35,0,0
15448,-1000,4,2,1,35,0,0
15500,-45.4545454545455,4,2,1,35,0,0
15517,-1000,4,2,1,35,0,0
15569,-52.6315789473684,4,2,1,35,0,0
15587,-1000,4,2,1,35,0,0
15639,-33.3333333333333,4,2,1,35,0,0
15656,-250,4,2,1,35,0,0
15726,-166.666666666667,4,2,1,35,0,0
15743,-111.111111111111,4,2,1,35,0,0
15760,-66.6666666666667,4,2,1,35,0,0
15778,-33.3333333333333,4,2,1,35,0,0
15795,-250,4,2,1,35,0,0
15865,-166.666666666667,4,2,1,35,0,0
15882,-111.111111111111,4,2,1,35,0,0
15899,-66.6666666666667,4,2,1,35,0,0
15917,-33.3333333333333,4,2,1,35,0,0
15934,-250,4,2,1,35,0,0
16003,-166.666666666667,4,2,1,35,0,0
16021,-111.111111111111,4,2,1,35,0,0
16038,-66.6666666666667,4,2,1,35,0,0
16056,-33.3333333333333,4,2,1,35,0,0
16073,-250,4,2,1,35,0,0
16142,-166.666666666667,4,2,1,35,0,0
16160,-111.111111111111,4,2,1,35,0,0
16177,-66.6666666666667,4,2,1,35,0,0
16194,-100,4,2,1,35,0,0
17861,-33.3333333333333,4,2,1,35,0,0
17878,-250,4,2,1,35,0,0
17948,-166.666666666667,4,2,1,35,0,0
17965,-111.111111111111,4,2,1,35,0,0
17983,-66.6666666666667,4,2,1,35,0,0
18000,-33.3333333333333,4,2,1,35,0,0
18017,-250,4,2,1,35,0,0
18087,-166.666666666667,4,2,1,35,0,0
18104,-111.111111111111,4,2,1,35,0,0
18121,-66.6666666666667,4,2,1,35,0,0
18139,-33.3333333333333,4,2,1,35,0,0
18156,-250,4,2,1,35,0,0
18226,-166.666666666667,4,2,1,35,0,0
18243,-111.111111111111,4,2,1,35,0,0
18260,-66.6666666666667,4,2,1,35,0,0
18278,-33.3333333333333,4,2,1,35,0,0
18295,-250,4,2,1,35,0,0
18365,-166.666666666667,4,2,1,35,0,0
18382,-111.111111111111,4,2,1,35,0,0
18399,-66.6666666666667,4,2,1,35,0,0
18417,-100,4,2,1,35,0,0
18972,-33.3333333333333,4,2,1,35,0,0
18990,-250,4,2,1,35,0,0
19059,-166.666666666667,4,2,1,35,0,0
19077,-111.111111111111,4,2,1,35,0,0
19094,-66.6666666666667,4,2,1,35,0,0
19111,-33.3333333333333,4,2,1,35,0,0
19129,-250,4,2,1,35,0,0
19198,-166.666666666667,4,2,1,35,0,0
19216,-111.111111111111,4,2,1,35,0,0
19233,-66.6666666666667,4,2,1,35,0,0
19250,-33.3333333333333,4,2,1,35,0,0
19268,-250,4,2,1,35,0,0
19337,-166.666666666667,4,2,1,35,0,0
19355,-111.111111111111,4,2,1,35,0,0
19372,-66.6666666666667,4,2,1,35,0,0
19389,-33.3333333333333,4,2,1,35,0,0
19407,-250,4,2,1,35,0,0
19476,-166.666666666667,4,2,1,35,0,0
19494,-111.111111111111,4,2,1,35,0,0
19511,-66.6666666666667,4,2,1,35,0,0
19528,-52.6315789473684,4,2,1,35,0,0
19545,-1000,4,2,1,35,0,0
19562,-52.6315789473684,4,2,1,35,0,0
19579,-1000,4,2,1,35,0,0
19597,-52.6315789473684,4,2,1,35,0,0
19614,-1000,4,2,1,35,0,0
19632,-52.6315789473684,4,2,1,35,0,0
19649,-1000,4,2,1,35,0,0
19667,-52.6315789473684,4,2,1,35,0,0
19684,-1000,4,2,1,35,0,0
19701,-52.6315789473684,4,2,1,35,0,0
19718,-1000,4,2,1,35,0,0
19736,-52.6315789473684,4,2,1,35,0,0
19753,-1000,4,2,1,35,0,0
19771,-52.6315789473684,4,2,1,35,0,0
19788,-1000,4,2,1,35,0,0
19806,-52.6315789473684,4,2,1,35,0,0
19823,-1000,4,2,1,35,0,0
19840,-52.6315789473684,4,2,1,35,0,0
19857,-1000,4,2,1,35,0,0
19875,-52.6315789473684,4,2,1,35,0,0
19892,-1000,4,2,1,35,0,0
19910,-52.6315789473684,4,2,1,35,0,0
19927,-1000,4,2,1,35,0,0
19944,-52.6315789473684,4,2,1,35,0,0
19961,-1000,4,2,1,35,0,0
19978,-52.6315789473684,4,2,1,35,0,0
19995,-1000,4,2,1,35,0,0
20013,-52.6315789473684,4,2,1,35,0,0
20030,-1000,4,2,1,35,0,0
20048,-52.6315789473684,4,2,1,35,0,0
20065,-1000,4,2,1,35,0,0
20083,-100,4,2,1,35,0,1
28417,-100,4,2,1,35,0,0
30917,-50,4,2,1,35,0,0
30951,-66.6666666666667,4,2,1,35,0,0
30986,-100,4,2,1,35,0,0
31021,-142.857142857143,4,2,1,35,0,0
31194,-100,4,2,1,35,0,0
32861,-50,4,2,1,35,0,0
32896,-100,4,2,1,35,0,0
32931,-200,4,2,1,35,0,0
33000,-66.6666666666667,4,2,1,35,0,0
33035,-200,4,2,1,35,0,0
33069,-66.6666666666667,4,2,1,35,0,0
33104,-200,4,2,1,35,0,0
33139,-76.9230769230769,4,2,1,35,0,0
33174,-142.857142857143,4,2,1,35,0,0
33243,-76.9230769230769,4,2,1,35,0,0
33312,-142.857142857143,4,2,1,35,0,0
33382,-76.9230769230769,4,2,1,35,0,0
33417,-100,4,2,1,35,0,0
35361,-10,4,2,1,35,0,0
35378,-166.666666666667,4,2,1,35,0,0
35569,-125,4,2,1,35,0,0
35604,-83.3333333333333,4,2,1,35,0,0
35639,-20,4,2,1,35,0,0
35674,-100,4,2,1,35,0,0
35708,-90.9090909090909,4,2,1,35,0,0
35743,-111.111111111111,4,2,1,35,0,0
35778,-86.9565217391304,4,2,1,35,0,0
35812,-117.647058823529,4,2,1,35,0,0
35847,-83.3333333333333,4,2,1,35,0,0
35882,-125,4,2,1,35,0,0
35917,-80,4,2,1,35,0,0
35951,-133.333333333333,4,2,1,35,0,0
35986,-76.9230769230769,4,2,1,35,0,0
36021,-142.857142857143,4,2,1,35,0,0
36056,-74.0740740740741,4,2,1,35,0,0
36090,-153.846153846154,4,2,1,35,0,0
36125,-71.4285714285714,4,2,1,35,0,0
36160,-166.666666666667,4,2,1,35,0,0
36194,-68.9655172413793,4,2,1,35,0,0
36229,-181.818181818182,4,2,1,35,0,0
36264,-66.6666666666667,4,2,1,35,0,0
36299,-200,4,2,1,35,0,0
36333,-64.5161290322581,4,2,1,35,0,0
36368,-222.222222222222,4,2,1,35,0,0
36403,-62.5,4,2,1,35,0,0
36437,-250,4,2,1,35,0,0
36472,-60.6060606060606,4,2,1,35,0,0
36507,-285.714285714286,4,2,1,35,0,0
36542,-58.8235294117647,4,2,1,35,0,0
36576,-333.333333333333,4,2,1,35,0,0
36611,-57.1428571428571,4,2,1,35,0,0
36646,-400,4,2,1,35,0,0
36681,-55.5555555555556,4,2,1,35,0,0
36716,-500,4,2,1,35,0,0
36750,-55.5555555555556,4,2,1,35,0,0
36785,-100,4,2,1,35,0,0
36819,-166.666666666667,4,2,1,35,0,0
36889,-55.5555555555556,4,2,1,35,0,0
36924,-100,4,2,1,35,0,0
36958,-166.666666666667,4,2,1,35,0,0
37028,-55.5555555555556,4,2,1,35,0,0
37063,-100,4,2,1,35,0,0
37097,-166.666666666667,4,2,1,35,0,0
37167,-55.5555555555556,4,2,1,35,0,0
37202,-100,4,2,1,35,0,0
37236,-166.666666666667,4,2,1,35,0,0
37305,-55.5555555555556,4,2,1,35,0,0
37340,-100,4,2,1,35,0,0
37374,-166.666666666667,4,2,1,35,0,0
37444,-55.5555555555556,4,2,1,35,0,0
37479,-100,4,2,1,35,0,0
37513,-166.666666666667,4,2,1,35,0,0
37583,-100,4,2,1,35,0,0
37861,-12.5,4,2,1,35,0,0
37871,-666.666666666667,4,2,1,35,0,0
37931,-14.0845070422535,4,2,1,35,0,0
37940,-666.666666666667,4,2,1,35,0,0
38000,-15.8730158730159,4,2,1,35,0,0
38010,-666.666666666667,4,2,1,35,0,0
38069,-17.8571428571428,4,2,1,35,0,0
38079,-666.666666666667,4,2,1,35,0,0
38139,-19.6078431372549,4,2,1,35,0,0
38149,-666.666666666667,4,2,1,35,0,0
38208,-20.8333333333333,4,2,1,35,0,0
38218,-666.666666666667,4,2,1,35,0,0
38278,-20.8333333333333,4,2,1,35,0,0
38287,-666.666666666667,4,2,1,35,0,0
38347,-22.2222222222222,4,2,1,35,0,0
38357,-666.666666666667,4,2,1,35,0,0
38417,-100,4,2,1,35,0,0
39250,-16.6666666666667,4,2,1,35,0,0
39267,-66.6666666666667,4,2,1,35,0,0
39285,-142.857142857143,4,2,1,35,0,0
39493,-55.5555555555556,4,2,1,35,0,0
39528,-100,4,2,1,35,0,0
39806,-26.3157894736842,4,2,1,35,0,0
39814,-1000,4,2,1,35,0,0
39840,-28.5714285714287,4,2,1,35,0,0
39848,-1000,4,2,1,35,0,0
39875,-31.25,4,2,1,35,0,0
39883,-1000,4,2,1,35,0,0
39910,-34.4827586206897,4,2,1,35,0,0
39918,-1000,4,2,1,35,0,0
39944,-38.4615384615385,4,2,1,35,0,0
39952,-1000,4,2,1,35,0,0
39979,-142.857142857143,4,2,1,35,0,0
40014,-83.3333333333333,4,2,1,35,0,0
40049,-50,4,2,1,35,0,0
40083,-20,4,2,1,35,0,0
40101,-40,4,2,1,35,0,0
40118,-66.6666666666667,4,2,1,35,0,0
40153,-100,4,2,1,35,0,0
40187,-133.333333333333,4,2,1,35,0,0
40222,-200,4,2,1,35,0,0
40361,-100,4,2,1,35,0,0
41056,-18.8679245283019,4,2,1,35,0,0
41063,-1000,4,2,1,35,0,0
41090,-27.7777777777778,4,2,1,35,0,0
41097,-1000,4,2,1,35,0,0
41125,-18.8679245283019,4,2,1,35,0,0
41132,-1000,4,2,1,35,0,0
41159,-27.7777777777778,4,2,1,35,0,0
41166,-1000,4,2,1,35,0,0
41194,-100,4,2,1,35,0,0
41333,-35.7142857142857,4,2,1,35,0,0
41351,-250,4,2,1,35,0,0
41403,-35.7142857142857,4,2,1,35,0,0
41421,-250,4,2,1,35,0,0
41472,-200,4,2,1,35,0,0
41507,-125,4,2,1,35,0,0
41542,-83.3333333333333,4,2,1,35,0,0
41577,-66.6666666666667,4,2,1,35,0,0
41611,-35.7142857142857,4,2,1,35,0,0
41629,-250,4,2,1,35,0,0
41681,-35.7142857142857,4,2,1,35,0,0
41699,-250,4,2,1,35,0,0
41750,-38.4615384615385,4,2,1,35,0,0
41785,-100,4,2,1,35,0,0
41819,-166.666666666667,4,2,1,35,0,0
41958,-38.4615384615385,4,2,1,35,0,0
41993,-100,4,2,1,35,0,0
42028,-166.666666666667,4,2,1,35,0,0
42167,-45.4545454545455,4,2,1,35,0,0
42201,-166.666666666667,4,2,1,35,0,0
42306,-100,4,2,1,35,0,0
45639,-55.5555555555556,4,2,1,35,0,0
45674,-100,4,2,1,35,0,0
45708,-166.666666666667,4,2,1,35,0,0
45778,-55.5555555555556,4,2,1,35,0,0
45813,-100,4,2,1,35,0,0
45847,-166.666666666667,4,2,1,35,0,0
45917,-55.5555555555556,4,2,1,35,0,0
45952,-100,4,2,1,35,0,0
45986,-166.666666666667,4,2,1,35,0,0
46056,-55.5555555555556,4,2,1,35,0,0
46091,-100,4,2,1,35,0,0
46125,-166.666666666667,4,2,1,35,0,0
46194,-55.5555555555556,4,2,1,35,0,0
46229,-100,4,2,1,35,0,0
46263,-166.666666666667,4,2,1,35,0,0
46333,-55.5555555555556,4,2,1,35,0,0
46368,-100,4,2,1,35,0,0
46402,-166.666666666667,4,2,1,35,0,0
46472,-16.6666666666667,4,2,1,35,0,0
46483,-1000,4,2,1,35,0,0
46518,-25,4,2,1,35,0,0
46529,-1000,4,2,1,35,0,0
46565,-31.25,4,2,1,35,0,0
46576,-1000,4,2,1,35,0,0
46611,-33.3333333333333,4,2,1,35,0,0
46622,-1000,4,2,1,35,0,0
46657,-33.3333333333333,4,2,1,35,0,0
46668,-1000,4,2,1,35,0,0
46704,-33.3333333333333,4,2,1,35,0,0
46715,-1000,4,2,1,35,0,0
46750,-33.3333333333333,4,2,1,35,0,0
46785,-50,4,2,1,35,0,0
46819,-66.6666666666667,4,2,1,35,0,0
46854,-100,4,2,1,35,0,0
47861,-125,4,2,1,35,0,0
47983,-41.6666666666667,4,2,1,35,0,0
48017,-125,4,2,1,35,0,0
48139,-16.6666666666667,4,2,1,35,0,0
48156,-66.6666666666667,4,2,1,35,0,0
48174,-142.857142857143,4,2,1,35,0,0
48382,-55.5555555555556,4,2,1,35,0,0
48417,-100,4,2,1,35,0,0
48694,-37.037037037037,4,2,1,35,0,0
48718,-1000,4,2,1,35,0,0
48741,-43.4782608695652,4,2,1,35,0,0
48764,-1000,4,2,1,35,0,0
48787,-52.6315789473684,4,2,1,35,0,0
48810,-1000,4,2,1,35,0,0
48833,-66.6666666666667,4,2,1,35,0,0
48856,-1000,4,2,1,35,0,0
48880,-90.9090909090909,4,2,1,35,0,0
48903,-1000,4,2,1,35,0,0
48926,-100,4,2,1,35,0,0
48972,-20,4,2,1,35,0,0
48990,-40,4,2,1,35,0,0
49007,-66.6666666666667,4,2,1,35,0,0
49042,-100,4,2,1,35,0,0
49076,-133.333333333333,4,2,1,35,0,0
49111,-200,4,2,1,35,0,0
49250,-40,4,2,1,35,0,0
49267,-100,4,2,1,35,0,0
49284,-333.333333333333,4,2,1,35,0,0
49319,-200,4,2,1,35,0,0
49354,-142.857142857143,4,2,1,35,0,0
49389,-100,4,2,1,35,0,0
49806,-40,4,2,1,35,0,0
49823,-100,4,2,1,35,0,0
49840,-333.333333333333,4,2,1,35,0,0
49875,-200,4,2,1,35,0,0
49910,-142.857142857143,4,2,1,35,0,0
49945,-100,4,2,1,35,0,0
50361,-40,4,2,1,35,0,0
50378,-100,4,2,1,35,0,0
50395,-333.333333333333,4,2,1,35,0,0
50430,-200,4,2,1,35,0,0
50465,-142.857142857143,4,2,1,35,0,0
50500,-100,4,2,1,35,0,0
50639,-38.4615384615385,4,2,1,35,0,0
50674,-100,4,2,1,35,0,0
50708,-166.666666666667,4,2,1,35,0,0
50847,-38.4615384615385,4,2,1,35,0,0
50882,-100,4,2,1,35,0,0
50917,-166.666666666667,4,2,1,35,0,0
51056,-45.4545454545455,4,2,1,35,0,0
51090,-166.666666666667,4,2,1,35,0,0
51194,-100,4,2,1,35,0,0
51750,-48.780487804878,4,2,1,35,0,0
51785,-153.846153846154,4,2,1,35,0,0
51889,-48.780487804878,4,2,1,35,0,0
51924,-153.846153846154,4,2,1,35,0,0
52028,-48.780487804878,4,2,1,35,0,0
52062,-153.846153846154,4,2,1,35,0,0
52167,-48.780487804878,4,2,1,35,0,0
52201,-153.846153846154,4,2,1,35,0,0
52306,-100,4,2,1,35,0,0
52583,-20.4081632653061,4,2,1,35,0,0
52592,-1000,4,2,1,35,0,0
52618,-20.4081632653061,4,2,1,35,0,0
52627,-1000,4,2,1,35,0,0
52653,-20.4081632653061,4,2,1,35,0,0
52662,-1000,4,2,1,35,0,0
52722,-20.4081632653061,4,2,1,35,0,0
52731,-1000,4,2,1,35,0,0
52757,-20.4081632653061,4,2,1,35,0,0
52766,-1000,4,2,1,35,0,0
52792,-20.4081632653061,4,2,1,35,0,0
52801,-1000,4,2,1,35,0,0
52861,-100,4,2,1,35,0,0
53278,-200,4,2,1,35,0,0
53347,-100,4,2,1,35,0,0
53382,-50,4,2,1,35,0,0
53417,-125,4,2,1,35,0,0
54528,-200,4,2,1,35,0,0
55083,-166.666666666667,4,2,1,35,0,0
55222,-136.986301369863,4,2,1,35,0,0
55361,-114.942528735632,4,2,1,35,0,0
55500,-100,4,2,1,35,0,0
55639,-33.3333333333333,4,2,1,35,0,0
55657,-250,4,2,1,35,0,0
55726,-166.666666666667,4,2,1,35,0,0
55744,-111.111111111111,4,2,1,35,0,0
55761,-66.6666666666667,4,2,1,35,0,0
55778,-33.3333333333333,4,2,1,35,0,0
55796,-250,4,2,1,35,0,0
55865,-166.666666666667,4,2,1,35,0,0
55883,-111.111111111111,4,2,1,35,0,0
55900,-66.6666666666667,4,2,1,35,0,0
55917,-33.3333333333333,4,2,1,35,0,0
55935,-250,4,2,1,35,0,0
56004,-166.666666666667,4,2,1,35,0,0
56022,-111.111111111111,4,2,1,35,0,0
56039,-66.6666666666667,4,2,1,35,0,0
56056,-105.263157894737,4,2,1,35,0,0
57861,-33.3333333333333,4,2,1,35,0,0
57879,-250,4,2,1,35,0,0
57948,-166.666666666667,4,2,1,35,0,0
57966,-111.111111111111,4,2,1,35,0,0
57983,-66.6666666666667,4,2,1,35,0,0
58000,-33.3333333333333,4,2,1,35,0,0
58018,-250,4,2,1,35,0,0
58087,-166.666666666667,4,2,1,35,0,0
58105,-111.111111111111,4,2,1,35,0,0
58122,-66.6666666666667,4,2,1,35,0,0
58139,-33.3333333333333,4,2,1,35,0,0
58157,-250,4,2,1,35,0,0
58226,-166.666666666667,4,2,1,35,0,0
58244,-111.111111111111,4,2,1,35,0,0
58261,-66.6666666666667,4,2,1,35,0,0
58278,-105.263157894737,4,2,1,35,0,0
59528,-50,4,2,1,35,0,0
59551,-166.666666666667,4,2,1,35,0,0
59620,-105.263157894737,4,2,1,35,0,0
60083,-33.3333333333333,4,2,1,35,0,0
60101,-250,4,2,1,35,0,0
60170,-166.666666666667,4,2,1,35,0,0
60188,-111.111111111111,4,2,1,35,0,0
60205,-66.6666666666667,4,2,1,35,0,0
60222,-33.3333333333333,4,2,1,35,0,0
60240,-250,4,2,1,35,0,0
60309,-166.666666666667,4,2,1,35,0,0
60327,-111.111111111111,4,2,1,35,0,0
60344,-66.6666666666667,4,2,1,35,0,0
60361,-33.3333333333333,4,2,1,35,0,0
60379,-250,4,2,1,35,0,0
60448,-166.666666666667,4,2,1,35,0,0
60466,-111.111111111111,4,2,1,35,0,0
60483,-66.6666666666667,4,2,1,35,0,0
60500,-105.263157894737,4,2,1,35,0,0
62306,-33.3333333333333,4,2,1,35,0,0
62324,-250,4,2,1,35,0,0
62393,-166.666666666667,4,2,1,35,0,0
62411,-111.111111111111,4,2,1,35,0,0
62428,-66.6666666666667,4,2,1,35,0,0
62445,-33.3333333333333,4,2,1,35,0,0
62463,-250,4,2,1,35,0,0
62532,-166.666666666667,4,2,1,35,0,0
62550,-111.111111111111,4,2,1,35,0,0
62567,-66.6666666666667,4,2,1,35,0,0
62584,-33.3333333333333,4,2,1,35,0,0
62602,-250,4,2,1,35,0,0
62671,-166.666666666667,4,2,1,35,0,0
62689,-111.111111111111,4,2,1,35,0,0
62706,-66.6666666666667,4,2,1,35,0,0
62723,-105.263157894737,4,2,1,35,0,0
63417,-33.3333333333333,4,2,1,35,0,0
63435,-250,4,2,1,35,0,0
63504,-166.666666666667,4,2,1,35,0,0
63522,-111.111111111111,4,2,1,35,0,0
63539,-66.6666666666667,4,2,1,35,0,0
63556,-33.3333333333333,4,2,1,35,0,0
63574,-250,4,2,1,35,0,0
63643,-166.666666666667,4,2,1,35,0,0
63661,-111.111111111111,4,2,1,35,0,0
63678,-66.6666666666667,4,2,1,35,0,0
63695,-33.3333333333333,4,2,1,35,0,0
63713,-250,4,2,1,35,0,0
63782,-166.666666666667,4,2,1,35,0,0
63800,-111.111111111111,4,2,1,35,0,0
63817,-66.6666666666667,4,2,1,35,0,0
63833,-33.3333333333333,4,2,1,35,0,0
63851,-250,4,2,1,35,0,0
63920,-166.666666666667,4,2,1,35,0,0
63938,-111.111111111111,4,2,1,35,0,0
63955,-66.6666666666667,4,2,1,35,0,0
63972,-52.6315789473684,4,2,1,35,0,0
64111,-142.857142857143,4,2,1,35,0,0
64528,-33.3333333333333,4,2,1,35,0,0
64546,-250,4,2,1,35,0,0
64615,-166.666666666667,4,2,1,35,0,0
64633,-111.111111111111,4,2,1,35,0,0
64650,-66.6666666666667,4,2,1,35,0,0
64667,-33.3333333333333,4,2,1,35,0,0
64685,-250,4,2,1,35,0,0
64754,-166.666666666667,4,2,1,35,0,0
64772,-111.111111111111,4,2,1,35,0,0
64789,-66.6666666666667,4,2,1,35,0,0
64806,-33.3333333333333,4,2,1,35,0,0
64824,-250,4,2,1,35,0,0
64893,-166.666666666667,4,2,1,35,0,0
64911,-111.111111111111,4,2,1,35,0,0
64928,-66.6666666666667,4,2,1,35,0,0
64945,-100,4,2,1,35,0,0
65639,-33.3333333333333,4,2,1,35,0,0
65657,-250,4,2,1,35,0,0
65726,-166.666666666667,4,2,1,35,0,0
65744,-111.111111111111,4,2,1,35,0,0
65761,-66.6666666666667,4,2,1,35,0,0
65778,-33.3333333333333,4,2,1,35,0,0
65796,-250,4,2,1,35,0,0
65865,-166.666666666667,4,2,1,35,0,0
65883,-111.111111111111,4,2,1,35,0,0
65900,-66.6666666666667,4,2,1,35,0,0
65917,-33.3333333333333,4,2,1,35,0,0
65935,-250,4,2,1,35,0,0
66004,-166.666666666667,4,2,1,35,0,0
66022,-111.111111111111,4,2,1,35,0,0
66039,-66.6666666666667,4,2,1,35,0,0
66056,-100,4,2,1,35,0,0
66472,-37.037037037037,4,2,1,35,0,0
66507,-71.4285714285714,4,2,1,35,0,0
66542,-111.111111111111,4,2,1,35,0,0
66576,-166.666666666667,4,2,1,35,0,0
66750,-33.3333333333333,4,2,1,35,0,0
66768,-250,4,2,1,35,0,0
66837,-166.666666666667,4,2,1,35,0,0
66855,-111.111111111111,4,2,1,35,0,0
66872,-66.6666666666667,4,2,1,35,0,0
66889,-33.3333333333333,4,2,1,35,0,0
66907,-250,4,2,1,35,0,0
66976,-166.666666666667,4,2,1,35,0,0
66994,-111.111111111111,4,2,1,35,0,0
67011,-66.6666666666667,4,2,1,35,0,0
67028,-33.3333333333333,4,2,1,35,0,0
67046,-250,4,2,1,35,0,0
67115,-166.666666666667,4,2,1,35,0,0
67133,-111.111111111111,4,2,1,35,0,0
67150,-66.6666666666667,4,2,1,35,0,0
67167,-100,4,2,1,35,0,0
67861,-33.3333333333333,4,2,1,35,0,0
67879,-250,4,2,1,35,0,0
67948,-166.666666666667,4,2,1,35,0,0
67966,-111.111111111111,4,2,1,35,0,0
67983,-66.6666666666667,4,2,1,35,0,0
68000,-33.3333333333333,4,2,1,35,0,0
68018,-250,4,2,1,35,0,0
68087,-166.666666666667,4,2,1,35,0,0
68105,-111.111111111111,4,2,1,35,0,0
68122,-66.6666666666667,4,2,1,35,0,0
68139,-33.3333333333333,4,2,1,35,0,0
68157,-250,4,2,1,35,0,0
68226,-166.666666666667,4,2,1,35,0,0
68244,-111.111111111111,4,2,1,35,0,0
68261,-66.6666666666667,4,2,1,35,0,0
68278,-100,4,2,1,35,0,0
68417,-32.258064516129,4,2,1,35,0,0
68434,-333.333333333333,4,2,1,35,0,0
68486,-32.258064516129,4,2,1,35,0,0
68504,-333.333333333333,4,2,1,35,0,0
68556,-32.258064516129,4,2,1,35,0,0
68573,-333.333333333333,4,2,1,35,0,0
68625,-32.258064516129,4,2,1,35,0,0
68643,-333.333333333333,4,2,1,35,0,0
68694,-37.037037037037,4,2,1,35,0,0
68729,-71.4285714285714,4,2,1,35,0,0
68764,-111.111111111111,4,2,1,35,0,0
68798,-166.666666666667,4,2,1,35,0,0
68972,-100,4,2,1,35,0,0
71194,-117.647058823529,4,2,1,35,0,0
73139,-200,4,2,1,35,0,0
73208,-153.846153846154,4,2,1,35,0,0
73278,-105.263157894737,4,2,1,35,0,0
73347,-66.6666666666667,4,2,1,35,0,0
73417,-250,4,2,1,35,0,0
74667,-71.4285714285714,4,2,1,35,0,0
74684,-250,4,2,1,35,0,0
74806,-47.6190476190476,4,2,1,35,0,0
74823,-250,4,2,1,35,0,0
74840,-111.111111111111,4,2,1,35,0,0
74858,-1000,4,2,1,35,0,0
74875,-47.6190476190476,4,2,1,35,0,0
74892,-250,4,2,1,35,0,0
74909,-111.111111111111,4,2,1,35,0,0
74927,-1000,4,2,1,35,0,0
74944,-133.333333333333,4,2,1,35,0,0
75014,-113.636363636364,4,2,1,35,0,0
75083,-100,4,2,1,35,0,0
75176,-200,4,2,1,35,0,0
75338,-142.857142857143,4,2,1,35,0,0
75361,-83.3333333333333,4,2,1,35,0,0
75384,-50,4,2,1,35,0,0
75407,-111.111111111111,4,2,1,35,0,0
75639,-133.333333333333,4,2,1,35,0,0
75778,-111.111111111111,4,2,1,35,0,0
75847,-90.9090909090909,4,2,1,35,0,0
75917,-76.9230769230769,4,2,1,35,0,0
75986,-100,4,2,1,35,0,0
76056,-117.647058823529,4,2,1,35,0,0
76796,-250.000000000001,4,2,1,35,0,0
77097,-222.222222222222,4,2,1,35,0,0
77167,-200,4,2,1,35,0,0
77236,-175.438596491228,4,2,1,35,0,0
77306,-151.515151515152,4,2,1,35,0,0
77375,-128.205128205128,4,2,1,35,0,0
77444,-117.647058823529,4,2,1,35,0,0
77514,-101.010101010101,4,2,1,35,0,0
77583,-90.9090909090909,4,2,1,35,0,0
77653,-83.3333333333333,4,2,1,35,0,0
77722,-78.125,4,2,1,35,0,0
77792,-74.0740740740741,4,2,1,35,0,0
77861,-15.3846153846154,4,2,1,35,0,0
77879,-1000,4,2,1,35,0,0
77931,-43.4782608695652,4,2,1,35,0,0
77948,-1000,4,2,1,35,0,0
78000,-43.4782608695652,4,2,1,35,0,0
78018,-1000,4,2,1,35,0,0
78069,-43.4782608695652,4,2,1,35,0,0
78087,-1000,4,2,1,35,0,0
78139,-25,4,2,1,35,0,0
78156,-42.9184549356223,4,2,1,35,0,0
78174,-75.187969924812,4,2,1,35,0,0
78208,-100,4,2,1,35,0,0
78243,-120.481927710843,4,2,1,35,0,0
78278,-149.253731343284,4,2,1,35,0,0
78417,-100,4,2,1,35,0,0
78556,-32.258064516129,4,2,1,35,0,0
78574,-333.333333333333,4,2,1,35,0,0
78626,-32.258064516129,4,2,1,35,0,0
78643,-333.333333333333,4,2,1,35,0,0
78694,-25,4,2,1,35,0,0
78711,-42.9184549356223,4,2,1,35,0,0
78729,-75.187969924812,4,2,1,35,0,0
78763,-100,4,2,1,35,0,0
78798,-120.481927710843,4,2,1,35,0,0
78833,-149.253731343284,4,2,1,35,0,0
78972,-100,4,2,1,35,0,1
86194,-52.6315789473684,4,2,1,35,0,0
86212,-142.857142857143,4,2,1,35,0,0
86316,-52.6315789473684,4,2,1,35,0,0
86351,-142.857142857143,4,2,1,35,0,0
86455,-52.6315789473684,4,2,1,35,0,0
86472,-55.5555555555556,4,2,1,35,0,0
86495,-166.666666666667,4,2,1,35,0,0
86542,-55.5555555555556,4,2,1,35,0,0
86565,-166.666666666667,4,2,1,35,0,0
86611,-55.5555555555556,4,2,1,35,0,0
86634,-166.666666666667,4,2,1,35,0,0
86681,-55.5555555555556,4,2,1,35,0,0
86704,-166.666666666667,4,2,1,35,0,0
86750,-100,4,2,1,35,0,1
94528,-43.4782608695652,4,2,1,35,0,1
94545,-200,4,2,1,35,0,1
94597,-43.4782608695652,4,2,1,35,0,1
94614,-200,4,2,1,35,0,1
94667,-43.4782608695652,4,2,1,35,0,1
94684,-200,4,2,1,35,0,1
94736,-43.4782608695652,4,2,1,35,0,1
94753,-200,4,2,1,35,0,1
94806,-43.4782608695652,4,2,1,35,0,1
94823,-200,4,2,1,35,0,1
94875,-43.4782608695652,4,2,1,35,0,1
94892,-200,4,2,1,35,0,1
94944,-43.4782608695652,4,2,1,35,0,1
94961,-200,4,2,1,35,0,1
95014,-43.4782608695652,4,2,1,35,0,1
95031,-200,4,2,1,35,0,1
95083,-52.6315789473684,4,2,1,35,0,0
95101,-142.857142857143,4,2,1,35,0,0
95205,-52.6315789473684,4,2,1,35,0,0
95240,-142.857142857143,4,2,1,35,0,0
95344,-52.6315789473684,4,2,1,35,0,0
95396,-66.6666666666667,4,2,1,35,0,0
95431,-100,4,2,1,35,0,0
95465,-142.857142857143,4,2,1,35,0,0
95639,-41.6666666666667,4,2,1,35,0,1
95674,-100,4,2,1,35,0,1
103972,-55.5555555555556,4,2,1,35,0,0
104007,-100,4,2,1,35,0,0
104041,-166.666666666667,4,2,1,35,0,0
104111,-55.5555555555556,4,2,1,35,0,0
104146,-100,4,2,1,35,0,0
104180,-166.666666666667,4,2,1,35,0,0
104249,-55.5555555555556,4,2,1,35,0,0
104284,-100,4,2,1,35,0,0
104318,-166.666666666667,4,2,1,35,0,0
104388,-55.5555555555556,4,2,1,35,0,0
104423,-100,4,2,1,35,0,0
104457,-166.666666666667,4,2,1,35,0,0
104527,-100,4,2,1,35,0,0
106472,-50,4,2,1,35,0,1
106506,-66.6666666666667,4,2,1,35,0,1
106541,-100,4,2,1,35,0,1
106576,-142.857142857143,4,2,1,35,0,1
106749,-100,4,2,1,35,0,1
108417,-50,4,2,1,35,0,0
108452,-100,4,2,1,35,0,0
108487,-200,4,2,1,35,0,0
108556,-66.6666666666667,4,2,1,35,0,0
108591,-200,4,2,1,35,0,0
108625,-66.6666666666667,4,2,1,35,0,0
108660,-200,4,2,1,35,0,0
108695,-76.9230769230769,4,2,1,35,0,0
108730,-142.857142857143,4,2,1,35,0,0
108799,-76.9230769230769,4,2,1,35,0,0
108868,-142.857142857143,4,2,1,35,0,0
108938,-76.9230769230769,4,2,1,35,0,0
108973,-100,4,2,1,35,0,0
110917,-10,4,2,1,35,0,1
110934,-166.666666666667,4,2,1,35,0,1
111125,-100,4,2,1,35,0,1
111160,-55.5555555555556,4,2,1,35,0,1
111194,-20,4,2,1,35,0,0
111229,-100,4,2,1,35,0,0
111263,-90.9090909090909,4,2,1,35,0,0
111298,-111.111111111111,4,2,1,35,0,0
111333,-86.9565217391304,4,2,1,35,0,0
111367,-117.647058823529,4,2,1,35,0,0
111402,-83.3333333333333,4,2,1,35,0,0
111437,-125,4,2,1,35,0,0
111472,-80,4,2,1,35,0,0
111506,-133.333333333333,4,2,1,35,0,0
111541,-76.9230769230769,4,2,1,35,0,0
111576,-142.857142857143,4,2,1,35,0,0
111611,-74.0740740740741,4,2,1,35,0,0
111645,-153.846153846154,4,2,1,35,0,0
111680,-71.4285714285714,4,2,1,35,0,0
111715,-166.666666666667,4,2,1,35,0,0
111749,-68.9655172413793,4,2,1,35,0,0
111784,-181.818181818182,4,2,1,35,0,0
111819,-66.6666666666667,4,2,1,35,0,0
111854,-200,4,2,1,35,0,0
111888,-64.5161290322581,4,2,1,35,0,0
111923,-222.222222222222,4,2,1,35,0,0
111958,-62.5,4,2,1,35,0,0
111992,-250,4,2,1,35,0,0
112027,-60.6060606060606,4,2,1,35,0,0
112062,-285.714285714286,4,2,1,35,0,0
112097,-58.8235294117647,4,2,1,35,0,0
112131,-333.333333333333,4,2,1,35,0,0
112166,-57.1428571428571,4,2,1,35,0,0
112201,-400,4,2,1,35,0,0
112236,-55.5555555555556,4,2,1,35,0,0
112271,-500,4,2,1,35,0,0
112306,-58.8235294117647,4,2,1,35,0,0
112375,-333.333333333334,4,2,1,35,0,0
112444,-58.8235294117647,4,2,1,35,0,0
112514,-333.333333333334,4,2,1,35,0,0
112583,-58.8235294117647,4,2,1,35,0,0
112653,-333.333333333334,4,2,1,35,0,0
112722,-58.8235294117647,4,2,1,35,0,0
112792,-333.333333333334,4,2,1,35,0,0
112861,-24.0963855421687,4,2,1,35,0,0
112878,-181.818181818182,4,2,1,35,0,0
113000,-36.3636363636364,4,2,1,35,0,0
113017,-133.333333333333,4,2,1,35,0,0
113139,-25,4,2,1,35,0,0
113156,-66.6666666666667,4,2,1,35,0,0
113174,-166.666666666667,4,2,1,35,0,0
113347,-111.111111111111,4,2,1,35,0,0
113382,-55.5555555555556,4,2,1,35,0,0
113417,-100,4,2,1,35,0,0
113694,-105.263157894737,4,2,1,35,0,0
113972,-111.111111111111,4,2,1,35,0,0
114250,-117.647058823529,4,2,1,35,0,0
114528,-125,4,2,1,35,0,0
114806,-133.333333333333,4,2,1,35,0,0
115083,-142.857142857143,4,2,1,35,0,0
115361,-153.846153846154,4,2,1,35,0,0
115639,-166.666666666667,4,2,1,35,0,0
115917,-181.818181818182,4,2,1,35,0,0
116194,-200,4,2,1,35,0,0
116333,-166.666666666667,4,2,1,35,0,0
116471,-133.333333333333,4,2,1,35,0,0
116542,-117.647058823529,4,2,1,35,0,0
116611,-90.9090909090909,4,2,1,35,0,0
116646,-71.4285714285714,4,2,1,35,0,0
116681,-52.6315789473684,4,2,1,35,0,0
116715,-40,4,2,1,35,0,0
116749,-100,4,2,1,35,0,0

[HitObjects]
448,192,1194,128,0,2305:0:0:0:0:
320,192,1750,128,0,2305:0:0:0:0:
64,192,2305,1,0,0:0:0:0:
192,192,2305,1,0,0:0:0:0:
192,192,2583,1,0,0:0:0:0:
448,192,2722,1,0,0:0:0:0:
64,192,3000,1,0,0:0:0:0:
448,192,3278,1,0,0:0:0:0:
320,192,3278,1,0,0:0:0:0:
192,192,3972,1,0,0:0:0:0:
320,192,4250,1,0,0:0:0:0:
192,192,4528,1,0,0:0:0:0:
64,192,4528,1,0,0:0:0:0:
320,192,4806,1,0,0:0:0:0:
448,192,5083,1,0,0:0:0:0:
320,192,5222,1,0,0:0:0:0:
64,192,5500,1,0,0:0:0:0:
192,192,5500,1,0,0:0:0:0:
448,192,6194,1,0,0:0:0:0:
192,192,6194,128,0,6750:0:0:0:0:
320,192,6750,1,0,0:0:0:0:
448,192,6750,1,0,0:0:0:0:
64,192,7028,1,0,0:0:0:0:
192,192,7167,1,0,0:0:0:0:
448,192,7306,1,0,0:0:0:0:
320,192,7444,1,0,0:0:0:0:
64,192,7722,1,0,0:0:0:0:
192,192,7722,1,0,0:0:0:0:
448,192,8139,1,0,0:0:0:0:
64,192,8417,1,0,0:0:0:0:
320,192,8694,1,0,0:0:0:0:
448,192,8972,1,0,0:0:0:0:
64,192,8972,1,0,0:0:0:0:
320,192,9007,1,0,0:0:0:0:
192,192,9042,1,0,0:0:0:0:
64,192,9111,128,0,10639:0:0:0:0:
448,192,9111,1,0,0:0:0:0:
320,192,10500,1,0,0:0:0:0:
192,192,10569,1,0,0:0:0:0:
448,192,10639,1,0,0:0:0:0:
320,192,10674,1,0,0:0:0:0:
192,192,10708,1,0,0:0:0:0:
64,192,10743,1,0,0:0:0:0:
448,192,10778,128,0,11194:0:0:0:0:
320,192,10917,1,0,0:0:0:0:
192,192,11056,1,0,0:0:0:0:
320,192,11194,1,0,0:0:0:0:
192,192,11194,1,0,0:0:0:0:
64,192,11194,1,0,0:0:0:0:
320,192,11333,1,0,0:0:0:0:
64,192,11333,1,0,0:0:0:0:
448,192,11333,1,0,0:0:0:0:
448,192,11472,1,0,0:0:0:0:
192,192,11472,1,0,0:0:0:0:
320,192,11472,1,0,0:0:0:0:
448,192,11611,1,0,0:0:0:0:
192,192,11611,1,0,0:0:0:0:
64,192,11611,1,0,0:0:0:0:
320,192,11750,1,0,0:0:0:0:
64,192,11750,1,0,0:0:0:0:
192,192,11819,1,0,0:0:0:0:
320,192,11889,1,0,0:0:0:0:
448,192,11958,1,0,0:0:0:0:
320,192,12028,1,0,0:0:0:0:
192,192,12097,1,0,0:0:0:0:
448,192,12167,1,0,0:0:0:0:
64,192,12167,1,0,0:0:0:0:
320,192,12236,1,0,0:0:0:0:
64,192,12306,1,0,0:0:0:0:
192,192,12306,1,0,0:0:0:0:
320,192,12375,1,0,0:0:0:0:
448,192,12444,1,0,0:0:0:0:
64,192,12514,1,0,0:0:0:0:
192,192,12583,1,0,0:0:0:0:
448,192,12583,1,0,0:0:0:0:
320,192,12653,1,0,0:0:0:0:
64,192,12722,1,0,0:0:0:0:
192,192,12722,1,0,0:0:0:0:
448,192,12792,1,0,0:0:0:0:
64,192,12861,1,0,0:0:0:0:
320,192,12861,1,0,0:0:0:0:
192,192,12931,1,0,0:0:0:0:
320,192,13000,1,0,0:0:0:0:
448,192,13000,1,0,0:0:0:0:
64,192,13069,1,0,0:0:0:0:
448,192,13139,1,0,0:0:0:0:
192,192,13139,1,0,0:0:0:0:
320,192,13208,1,0,0:0:0:0:
64,192,13278,1,0,0:0:0:0:
192,192,13278,1,0,0:0:0:0:
320,192,13347,1,0,0:0:0:0:
192,192,13417,1,0,0:0:0:0:
448,192,13417,1,0,0:0:0:0:
64,192,13417,1,0,0:0:0:0:
64,192,13556,1,0,0:0:0:0:
320,192,13556,1,0,0:0:0:0:
448,192,13556,1,0,0:0:0:0:
448,192,13694,1,0,0:0:0:0:
192,192,13694,1,0,0:0:0:0:
320,192,13694,1,0,0:0:0:0:
64,192,13833,1,0,0:0:0:0:
320,192,13833,1,0,0:0:0:0:
192,192,13833,1,0,0:0:0:0:
64,192,13972,1,0,0:0:0:0:
448,192,13972,1,0,0:0:0:0:
320,192,14042,1,0,0:0:0:0:
192,192,14111,1,0,0:0:0:0:
64,192,14181,1,0,0:0:0:0:
448,192,14250,1,0,0:0:0:0:
320,192,14319,1,0,0:0:0:0:
192,192,14389,1,0,0:0:0:0:
64,192,14389,1,0,0:0:0:0:
448,192,14458,1,0,0:0:0:0:
64,192,14528,1,0,0:0:0:0:
320,192,14528,1,0,0:0:0:0:
192,192,14597,1,0,0:0:0:0:
320,192,14667,1,0,0:0:0:0:
192,192,14736,1,0,0:0:0:0:
448,192,14806,1,0,0:0:0:0:
320,192,14806,1,0,0:0:0:0:
64,192,14875,1,0,0:0:0:0:
448,192,14944,1,0,0:0:0:0:
192,192,14944,1,0,0:0:0:0:
320,192,15014,1,0,0:0:0:0:
192,192,15083,128,0,15639:0:0:0:0:
448,192,15083,1,0,0:0:0:0:
64,192,15083,1,0,0:0:0:0:
320,192,15639,1,0,0:0:0:0:
448,192,15639,1,0,0:0:0:0:
64,192,15639,1,0,0:0:0:0:
64,192,15778,1,0,0:0:0:0:
448,192,15778,1,0,0:0:0:0:
192,192,15778,1,0,0:0:0:0:
448,192,15917,1,0,0:0:0:0:
320,192,15917,1,0,0:0:0:0:
192,192,15917,1,0,0:0:0:0:
64,192,16056,1,0,0:0:0:0:
192,192,16056,1,0,0:0:0:0:
320,192,16056,1,0,0:0:0:0:
64,192,16194,1,0,0:0:0:0:
448,192,16194,1,0,0:0:0:0:
192,192,16264,1,0,0:0:0:0:
320,192,16333,1,0,0:0:0:0:
192,192,16403,1,0,0:0:0:0:
64,192,16472,1,0,0:0:0:0:
448,192,16542,1,0,0:0:0:0:
64,192,16611,1,0,0:0:0:0:
320,192,16611,1,0,0:0:0:0:
192,192,16681,1,0,0:0:0:0:
320,192,16750,1,0,0:0:0:0:
448,192,16750,1,0,0:0:0:0:
64,192,16819,1,0,0:0:0:0:
192,192,16889,1,0,0:0:0:0:
320,192,16958,1,0,0:0:0:0:
64,192,17028,1,0,0:0:0:0:
448,192,17028,1,0,0:0:0:0:
192,192,17097,1,0,0:0:0:0:
320,192,17167,1,0,0:0:0:0:
448,192,17167,1,0,0:0:0:0:
192,192,17236,1,0,0:0:0:0:
448,192,17306,1,0,0:0:0:0:
64,192,17306,1,0,0:0:0:0:
320,192,17375,1,0,0:0:0:0:
192,192,17444,1,0,0:0:0:0:
320,192,17514,1,0,0:0:0:0:
448,192,17583,1,0,0:0:0:0:
64,192,17583,1,0,0:0:0:0:
192,192,17653,1,0,0:0:0:0:
448,192,17722,1,0,0:0:0:0:
320,192,17722,1,0,0:0:0:0:
192,192,17792,1,0,0:0:0:0:
448,192,17861,1,0,0:0:0:0:
320,192,17861,1,0,0:0:0:0:
64,192,17861,1,0,0:0:0:0:
64,192,18000,1,0,0:0:0:0:
320,192,18000,1,0,0:0:0:0:
192,192,18000,1,0,0:0:0:0:
192,192,18139,1,0,0:0:0:0:
448,192,18139,1,0,0:0:0:0:
64,192,18139,1,0,0:0:0:0:
192,192,18278,1,0,0:0:0:0:
448,192,18278,1,0,0:0:0:0:
320,192,18278,1,0,0:0:0:0:
448,192,18417,1,0,0:0:0:0:
64,192,18417,1,0,0:0:0:0:
320,192,18486,1,0,0:0:0:0:
192,192,18556,1,0,0:0:0:0:
64,192,18556,1,0,0:0:0:0:
320,192,18625,1,0,0:0:0:0:
448,192,18694,1,0,0:0:0:0:
192,192,18694,1,0,0:0:0:0:
64,192,18764,1,0,0:0:0:0:
448,192,18833,1,0,0:0:0:0:
320,192,18833,1,0,0:0:0:0:
192,192,18903,1,0,0:0:0:0:
64,192,18972,1,0,0:0:0:0:
320,192,18972,1,0,0:0:0:0:
448,192,18972,1,0,0:0:0:0:
320,192,19111,1,0,0:0:0:0:
192,192,19111,1,0,0:0:0:0:
64,192,19111,1,0,0:0:0:0:
448,192,19250,1,0,0:0:0:0:
64,192,19250,1,0,0:0:0:0:
192,192,19250,1,0,0:0:0:0:
192,192,19389,1,0,0:0:0:0:
320,192,19389,1,0,0:0:0:0:
448,192,19389,1,0,0:0:0:0:
192,192,19528,1,0,0:0:0:0:
64,192,19528,1,0,0:0:0:0:
320,192,19632,1,0,0:0:0:0:
448,192,19667,1,0,0:0:0:0:
64,192,19701,1,0,0:0:0:0:
192,192,19736,1,0,0:0:0:0:
320,192,19771,1,0,0:0:0:0:
448,192,19806,1,0,0:0:0:0:
64,192,19840,1,0,0:0:0:0:
192,192,19875,1,0,0:0:0:0:
320,192,19910,1,0,0:0:0:0:
448,192,19944,1,0,0:0:0:0:
64,192,19979,1,0,0:0:0:0:
192,192,20014,1,0,0:0:0:0:
320,192,20049,1,0,0:0:0:0:
448,192,20083,1,0,0:0:0:0:
64,192,20083,128,0,20222:0:0:0:0:
320,192,20222,1,0,0:0:0:0:
192,192,20292,1,0,0:0:0:0:
448,192,20361,1,0,0:0:0:0:
64,192,20361,128,0,20500:0:0:0:0:
320,192,20361,1,0,0:0:0:0:
192,192,20500,1,0,0:0:0:0:
448,192,20639,128,0,20778:0:0:0:0:
320,192,20639,1,0,0:0:0:0:
64,192,20778,128,0,20917:0:0:0:0:
192,192,20917,1,0,0:0:0:0:
448,192,20917,1,0,0:0:0:0:
320,192,20917,1,0,0:0:0:0:
320,192,21056,128,0,21194:0:0:0:0:
192,192,21194,1,0,0:0:0:0:
64,192,21194,1,0,0:0:0:0:
320,192,21264,1,0,0:0:0:0:
448,192,21333,128,0,21472:0:0:0:0:
64,192,21472,1,0,0:0:0:0:
192,192,21472,1,0,0:0:0:0:
320,192,21472,1,0,0:0:0:0:
64,192,21611,128,0,21750:0:0:0:0:
448,192,21750,1,0,0:0:0:0:
192,192,21750,1,0,0:0:0:0:
192,192,21889,128,0,22028:0:0:0:0:
64,192,22028,1,0,0:0:0:0:
448,192,22028,1,0,0:0:0:0:
320,192,22028,1,0,0:0:0:0:
192,192,22097,1,0,0:0:0:0:
320,192,22167,128,0,22306:0:0:0:0:
64,192,22306,1,0,0:0:0:0:
192,192,22306,128,0,22444:0:0:0:0:
448,192,22444,1,0,0:0:0:0:
320,192,22583,128,0,22722:0:0:0:0:
192,192,22583,1,0,0:0:0:0:
448,192,22583,1,0,0:0:0:0:
64,192,22722,1,0,0:0:0:0:
192,192,22792,1,0,0:0:0:0:
448,192,22861,128,0,23000:0:0:0:0:
320,192,22861,1,0,0:0:0:0:
192,192,23000,128,0,23139:0:0:0:0:
448,192,23139,1,0,0:0:0:0:
320,192,23139,1,0,0:0:0:0:
64,192,23139,1,0,0:0:0:0:
64,192,23278,128,0,23417:0:0:0:0:
448,192,23417,1,0,0:0:0:0:
320,192,23417,1,0,0:0:0:0:
192,192,23486,1,0,0:0:0:0:
320,192,23556,128,0,23694:0:0:0:0:
448,192,23694,1,0,0:0:0:0:
64,192,23694,1,0,0:0:0:0:
192,192,23694,1,0,0:0:0:0:
192,192,23833,128,0,23972:0:0:0:0:
448,192,23972,1,0,0:0:0:0:
64,192,23972,1,0,0:0:0:0:
64,192,24111,128,0,24528:0:0:0:0:
192,192,24111,1,0,0:0:0:0:
448,192,24111,1,0,0:0:0:0:
448,192,24250,1,0,0:0:0:0:
320,192,24250,1,0,0:0:0:0:
192,192,24389,128,0,24528:0:0:0:0:
320,192,24528,1,0,0:0:0:0:
448,192,24528,128,0,24667:0:0:0:0:
192,192,24667,1,0,0:0:0:0:
320,192,24736,1,0,0:0:0:0:
192,192,24806,1,0,0:0:0:0:
448,192,24806,128,0,24944:0:0:0:0:
64,192,24806,1,0,0:0:0:0:
320,192,24944,1,0,0:0:0:0:
64,192,25083,128,0,25222:0:0:0:0:
448,192,25083,1,0,0:0:0:0:
192,192,25222,128,0,25361:0:0:0:0:
448,192,25361,1,0,0:0:0:0:
320,192,25361,1,0,0:0:0:0:
64,192,25361,1,0,0:0:0:0:
448,192,25500,128,0,25639:0:0:0:0:
192,192,25639,1,0,0:0:0:0:
64,192,25639,1,0,0:0:0:0:
320,192,25708,1,0,0:0:0:0:
64,192,25778,128,0,25917:0:0:0:0:
448,192,25917,1,0,0:0:0:0:
192,192,25917,1,0,0:0:0:0:
320,192,25917,1,0,0:0:0:0:
192,192,26056,128,0,26194:0:0:0:0:
448,192,26194,1,0,0:0:0:0:
320,192,26194,1,0,0:0:0:0:
320,192,26333,128,0,26472:0:0:0:0:
192,192,26472,1,0,0:0:0:0:
64,192,26472,1,0,0:0:0:0:
448,192,26472,1,0,0:0:0:0:
320,192,26542,1,0,0:0:0:0:
448,192,26611,128,0,26750:0:0:0:0:
64,192,26750,1,0,0:0:0:0:
192,192,26750,128,0,26889:0:0:0:0:
320,192,26889,1,0,0:0:0:0:
448,192,27028,1,0,0:0:0:0:
192,192,27028,128,0,27167:0:0:0:0:
64,192,27028,1,0,0:0:0:0:
320,192,27167,1,0,0:0:0:0:
64,192,27236,1,0,0:0:0:0:
192,192,27306,1,0,0:0:0:0:
448,192,27306,128,0,27444:0:0:0:0:
320,192,27444,128,0,27583:0:0:0:0:
192,192,27444,1,0,0:0:0:0:
64,192,27444,1,0,0:0:0:0:
64,192,27583,1,0,0:0:0:0:
448,192,27583,1,0,0:0:0:0:
64,192,27722,128,0,27861:0:0:0:0:
320,192,27722,1,0,0:0:0:0:
192,192,27722,1,0,0:0:0:0:
320,192,27861,1,0,0:0:0:0:
448,192,27861,1,0,0:0:0:0:
192,192,27931,1,0,0:0:0:0:
448,192,28000,128,0,28139:0:0:0:0:
64,192,28000,1,0,0:0:0:0:
320,192,28000,1,0,0:0:0:0:
192,192,28139,1,0,0:0:0:0:
64,192,28139,1,0,0:0:0:0:
320,192,28278,128,0,28417:0:0:0:0:
448,192,28278,1,0,0:0:0:0:
64,192,28278,1,0,0:0:0:0:
192,192,28417,128,0,28486:0:0:0:0:
192,192,28556,128,0,28625:0:0:0:0:
448,192,28694,1,0,0:0:0:0:
320,192,28694,1,0,0:0:0:0:
192,192,28764,1,0,0:0:0:0:
64,192,28764,1,0,0:0:0:0:
320,192,28833,1,0,0:0:0:0:
448,192,28833,1,0,0:0:0:0:
320,192,28972,128,0,29042:0:0:0:0:
448,192,28972,1,0,0:0:0:0:
64,192,28972,1,0,0:0:0:0:
320,192,29111,128,0,29181:0:0:0:0:
448,192,29250,1,0,0:0:0:0:
192,192,29250,128,0,29319:0:0:0:0:
64,192,29250,1,0,0:0:0:0:
192,192,29389,128,0,29458:0:0:0:0:
64,192,29528,1,0,0:0:0:0:
448,192,29528,128,0,29806:0:0:0:0:
320,192,29528,1,0,0:0:0:0:
192,192,29667,1,0,0:0:0:0:
192,192,29806,1,0,0:0:0:0:
64,192,29806,128,0,29875:0:0:0:0:
320,192,29806,1,0,0:0:0:0:
64,192,29944,128,0,30014:0:0:0:0:
320,192,30083,128,0,30153:0:0:0:0:
448,192,30083,1,0,0:0:0:0:
192,192,30083,1,0,0:0:0:0:
320,192,30222,128,0,30292:0:0:0:0:
64,192,30361,1,0,0:0:0:0:
192,192,30361,128,0,30431:0:0:0:0:
448,192,30361,1,0,0:0:0:0:
192,192,30500,128,0,30569:0:0:0:0:
320,192,30639,1,0,0:0:0:0:
448,192,30639,128,0,30847:0:0:0:0:
64,192,30639,1,0,0:0:0:0:
192,192,30778,1,0,0:0:0:0:
320,192,30847,1,0,0:0:0:0:
192,192,30917,128,0,31194:0:0:0:0:
64,192,30917,128,0,31194:0:0:0:0:
448,192,30917,1,0,0:0:0:0:
320,192,31194,1,0,0:0:0:0:
448,192,31194,128,0,31264:0:0:0:0:
448,192,31333,128,0,31403:0:0:0:0:
192,192,31472,128,0,31542:0:0:0:0:
320,192,31472,1,0,0:0:0:0:
64,192,31472,1,0,0:0:0:0:
192,192,31611,128,0,31681:0:0:0:0:
448,192,31750,1,0,0:0:0:0:
320,192,31750,1,0,0:0:0:0:
64,192,31750,128,0,31958:0:0:0:0:
320,192,31889,1,0,0:0:0:0:
192,192,31958,1,0,0:0:0:0:
448,192,32028,128,0,32097:0:0:0:0:
320,192,32028,1,0,0:0:0:0:
64,192,32028,1,0,0:0:0:0:
448,192,32167,128,0,32236:0:0:0:0:
192,192,32306,128,0,32375:0:0:0:0:
64,192,32306,1,0,0:0:0:0:
448,192,32306,1,0,0:0:0:0:
320,192,32444,1,0,0:0:0:0:
320,192,32514,1,0,0:0:0:0:
448,192,32583,1,0,0:0:0:0:
64,192,32583,128,0,32653:0:0:0:0:
192,192,32583,1,0,0:0:0:0:
64,192,32722,128,0,32792:0:0:0:0:
320,192,32861,128,0,33000:0:0:0:0:
448,192,32861,128,0,33000:0:0:0:0:
64,192,33000,1,0,0:0:0:0:
192,192,33000,1,0,0:0:0:0:
192,192,33069,1,0,0:0:0:0:
64,192,33069,1,0,0:0:0:0:
448,192,33139,128,0,33208:0:0:0:0:
320,192,33139,128,0,33208:0:0:0:0:
320,192,33278,128,0,33347:0:0:0:0:
448,192,33278,128,0,33347:0:0:0:0:
192,192,33417,128,0,33486:0:0:0:0:
448,192,33417,1,0,0:0:0:0:
64,192,33417,1,0,0:0:0:0:
192,192,33556,128,0,33625:0:0:0:0:
320,192,33694,128,0,33764:0:0:0:0:
64,192,33694,1,0,0:0:0:0:
448,192,33694,1,0,0:0:0:0:
320,192,33833,128,0,33903:0:0:0:0:
448,192,33972,1,0,0:0:0:0:
64,192,33972,128,0,34042:0:0:0:0:
320,192,33972,1,0,0:0:0:0:
192,192,34111,1,0,0:0:0:0:
192,192,34181,1,0,0:0:0:0:
320,192,34250,128,0,34319:0:0:0:0:
448,192,34250,1,0,0:0:0:0:
64,192,34250,1,0,0:0:0:0:
192,192,34389,128,0,34458:0:0:0:0:
64,192,34528,1,0,0:0:0:0:
448,192,34528,128,0,34597:0:0:0:0:
320,192,34528,1,0,0:0:0:0:
192,192,34667,128,0,34736:0:0:0:0:
320,192,34806,1,0,0:0:0:0:
448,192,34806,128,0,34875:0:0:0:0:
64,192,34806,1,0,0:0:0:0:
64,192,34944,128,0,35014:0:0:0:0:
320,192,35083,128,0,35153:0:0:0:0:
192,192,35083,1,0,0:0:0:0:
448,192,35083,1,0,0:0:0:0:
64,192,35222,1,0,0:0:0:0:
448,192,35222,1,0,0:0:0:0:
64,192,35292,1,0,0:0:0:0:
320,192,35361,128,0,35639:0:0:0:0:
192,192,35361,1,0,0:0:0:0:
448,192,35361,128,0,35639:0:0:0:0:
64,192,35639,1,0,0:0:0:0:
192,192,35639,1,0,0:0:0:0:
192,192,35917,1,0,0:0:0:0:
320,192,35986,1,0,0:0:0:0:
192,192,36056,1,0,0:0:0:0:
320,192,36125,1,0,0:0:0:0:
64,192,36194,1,0,0:0:0:0:
64,192,36264,1,0,0:0:0:0:
448,192,36333,1,0,0:0:0:0:
448,192,36403,1,0,0:0:0:0:
192,192,36472,1,0,0:0:0:0:
192,192,36542,1,0,0:0:0:0:
320,192,36611,1,0,0:0:0:0:
320,192,36681,1,0,0:0:0:0:
64,192,36750,1,0,0:0:0:0:
448,192,36750,1,0,0:0:0:0:
320,192,36889,1,0,0:0:0:0:
64,192,36889,1,0,0:0:0:0:
192,192,37028,1,0,0:0:0:0:
448,192,37028,1,0,0:0:0:0:
448,192,37167,1,0,0:0:0:0:
64,192,37167,1,0,0:0:0:0:
64,192,37306,1,0,0:0:0:0:
320,192,37306,1,0,0:0:0:0:
448,192,37444,1,0,0:0:0:0:
192,192,37444,1,0,0:0:0:0:
64,192,37583,1,0,0:0:0:0:
448,192,37583,1,0,0:0:0:0:
320,192,37618,1,0,0:0:0:0:
192,192,37653,1,0,0:0:0:0:
64,192,37687,1,0,0:0:0:0:
448,192,37722,1,0,0:0:0:0:
320,192,37757,1,0,0:0:0:0:
192,192,37792,1,0,0:0:0:0:
64,192,37826,1,0,0:0:0:0:
320,192,37861,1,0,0:0:0:0:
448,192,37861,128,0,38417:0:0:0:0:
192,192,38417,1,0,0:0:0:0:
64,192,38417,1,0,0:0:0:0:
320,192,38417,1,0,0:0:0:0:
64,192,38556,128,0,38625:0:0:0:0:
64,192,38694,128,0,38764:0:0:0:0:
320,192,38833,1,0,0:0:0:0:
64,192,38833,1,0,0:0:0:0:
192,192,38903,1,0,0:0:0:0:
448,192,38903,1,0,0:0:0:0:
64,192,38972,128,0,39042:0:0:0:0:
320,192,38972,1,0,0:0:0:0:
448,192,39111,1,0,0:0:0:0:
192,192,39111,128,0,39181:0:0:0:0:
320,192,39111,1,0,0:0:0:0:
448,192,39250,1,0,0:0:0:0:
192,192,39250,128,0,39528:0:0:0:0:
64,192,39250,1,0,0:0:0:0:
320,192,39528,1,0,0:0:0:0:
448,192,39528,128,0,39597:0:0:0:0:
448,192,39667,128,0,39736:0:0:0:0:
192,192,39806,1,0,0:0:0:0:
320,192,39806,128,0,40083:0:0:0:0:
448,192,40083,1,0,0:0:0:0:
64,192,40083,128,0,40361:0:0:0:0:
192,192,40083,1,0,0:0:0:0:
448,192,40361,1,0,0:0:0:0:
320,192,40361,1,0,0:0:0:0:
192,192,40361,1,0,0:0:0:0:
448,192,40500,1,0,0:0:0:0:
320,192,40639,1,0,0:0:0:0:
192,192,40639,128,0,40708:0:0:0:0:
192,192,40778,128,0,40847:0:0:0:0:
64,192,40917,1,0,0:0:0:0:
448,192,40917,1,0,0:0:0:0:
320,192,40917,1,0,0:0:0:0:
320,192,41056,1,0,0:0:0:0:
448,192,41056,1,0,0:0:0:0:
192,192,41125,1,0,0:0:0:0:
448,192,41194,1,0,0:0:0:0:
64,192,41194,1,0,0:0:0:0:
320,192,41241,1,0,0:0:0:0:
192,192,41287,1,0,0:0:0:0:
64,192,41333,1,0,0:0:0:0:
448,192,41333,1,0,0:0:0:0:
320,192,41403,1,0,0:0:0:0:
192,192,41403,1,0,0:0:0:0:
64,192,41472,1,0,0:0:0:0:
448,192,41472,1,0,0:0:0:0:
192,192,41611,1,0,0:0:0:0:
64,192,41611,1,0,0:0:0:0:
320,192,41681,1,0,0:0:0:0:
448,192,41681,1,0,0:0:0:0:
192,192,41750,1,0,0:0:0:0:
64,192,41750,1,0,0:0:0:0:
448,192,41750,1,0,0:0:0:0:
448,192,41958,1,0,0:0:0:0:
320,192,41958,1,0,0:0:0:0:
192,192,41958,1,0,0:0:0:0:
192,192,42167,1,0,0:0:0:0:
320,192,42167,1,0,0:0:0:0:
64,192,42167,1,0,0:0:0:0:
448,192,42306,1,0,0:0:0:0:
64,192,42306,1,0,0:0:0:0:
192,192,42306,128,0,42444:0:0:0:0:
320,192,42444,128,0,42583:0:0:0:0:
192,192,42583,1,0,0:0:0:0:
64,192,42583,128,0,42653:0:0:0:0:
64,192,42722,128,0,42792:0:0:0:0:
320,192,42861,1,0,0:0:0:0:
320,192,43000,1,0,0:0:0:0:
64,192,43000,1,0,0:0:0:0:
192,192,43139,1,0,0:0:0:0:
64,192,43139,1,0,0:0:0:0:
448,192,43139,1,0,0:0:0:0:
320,192,43278,1,0,0:0:0:0:
448,192,43417,1,0,0:0:0:0:
64,192,43417,128,0,43556:0:0:0:0:
192,192,43556,128,0,43694:0:0:0:0:
320,192,43694,128,0,43764:0:0:0:0:
64,192,43694,1,0,0:0:0:0:
448,192,43694,1,0,0:0:0:0:
320,192,43833,128,0,43903:0:0:0:0:
192,192,43972,1,0,0:0:0:0:
64,192,43972,1,0,0:0:0:0:
192,192,44111,1,0,0:0:0:0:
64,192,44111,1,0,0:0:0:0:
64,192,44250,1,0,0:0:0:0:
192,192,44250,1,0,0:0:0:0:
320,192,44389,1,0,0:0:0:0:
448,192,44528,1,0,0:0:0:0:
64,192,44528,1,0,0:0:0:0:
192,192,44528,1,0,0:0:0:0:
448,192,44667,1,0,0:0:0:0:
320,192,44667,1,0,0:0:0:0:
192,192,44736,1,0,0:0:0:0:
64,192,44736,1,0,0:0:0:0:
320,192,44806,1,0,0:0:0:0:
448,192,44806,1,0,0:0:0:0:
192,192,44944,1,0,0:0:0:0:
64,192,44944,1,0,0:0:0:0:
320,192,45014,1,0,0:0:0:0:
448,192,45014,1,0,0:0:0:0:
192,192,45083,1,0,0:0:0:0:
64,192,45083,1,0,0:0:0:0:
320,192,45222,1,0,0:0:0:0:
64,192,45222,128,0,45361:0:0:0:0:
448,192,45361,1,0,0:0:0:0:
192,192,45361,128,0,45500:0:0:0:0:
448,192,45500,128,0,45639:0:0:0:0:
320,192,45500,1,0,0:0:0:0:
320,192,45639,1,0,0:0:0:0:
192,192,45639,1,0,0:0:0:0:
64,192,45639,1,0,0:0:0:0:
192,192,45778,1,0,0:0:0:0:
320,192,45778,1,0,0:0:0:0:
448,192,45917,1,0,0:0:0:0:
64,192,45917,1,0,0:0:0:0:
192,192,45917,1,0,0:0:0:0:
64,192,46056,1,0,0:0:0:0:
320,192,46056,1,0,0:0:0:0:
192,192,46194,1,0,0:0:0:0:
320,192,46194,1,0,0:0:0:0:
448,192,46194,1,0,0:0:0:0:
64,192,46333,1,0,0:0:0:0:
448,192,46333,1,0,0:0:0:0:
64,192,46472,128,0,46750:0:0:0:0:
448,192,46472,128,0,46750:0:0:0:0:
192,192,46750,1,0,0:0:0:0:
320,192,46750,128,0,47097:0:0:0:0:
64,192,47028,1,0,0:0:0:0:
192,192,47097,128,0,47306:0:0:0:0:
320,192,47306,1,0,0:0:0:0:
448,192,47340,1,0,0:0:0:0:
64,192,47375,1,0,0:0:0:0:
192,192,47410,1,0,0:0:0:0:
320,192,47444,1,0,0:0:0:0:
448,192,47479,1,0,0:0:0:0:
192,192,47549,1,0,0:0:0:0:
64,192,47583,1,0,0:0:0:0:
448,192,47618,1,0,0:0:0:0:
320,192,47653,1,0,0:0:0:0:
192,192,47687,1,0,0:0:0:0:
64,192,47722,1,0,0:0:0:0:
448,192,47757,1,0,0:0:0:0:
320,192,47792,1,0,0:0:0:0:
192,192,47826,1,0,0:0:0:0:
448,192,47861,1,0,0:0:0:0:
64,192,47861,1,0,0:0:0:0:
320,192,48000,1,0,0:0:0:0:
192,192,48000,1,0,0:0:0:0:
192,192,48139,1,0,0:0:0:0:
448,192,48139,1,0,0:0:0:0:
64,192,48139,1,0,0:0:0:0:
448,192,48417,1,0,0:0:0:0:
192,192,48417,128,0,48486:0:0:0:0:
192,192,48556,128,0,48625:0:0:0:0:
320,192,48694,128,0,48903:0:0:0:0:
448,192,48694,128,0,48903:0:0:0:0:
64,192,48694,1,0,0:0:0:0:
320,192,48972,1,0,0:0:0:0:
448,192,48972,1,0,0:0:0:0:
64,192,48972,128,0,49250:0:0:0:0:
448,192,49250,1,0,0:0:0:0:
320,192,49250,128,0,49389:0:0:0:0:
192,192,49389,128,0,49528:0:0:0:0:
448,192,49528,1,0,0:0:0:0:
64,192,49528,1,0,0:0:0:0:
64,192,49667,1,0,0:0:0:0:
320,192,49667,1,0,0:0:0:0:
448,192,49806,1,0,0:0:0:0:
320,192,49806,128,0,49944:0:0:0:0:
192,192,49944,1,0,0:0:0:0:
64,192,49944,1,0,0:0:0:0:
320,192,50014,1,0,0:0:0:0:
64,192,50083,1,0,0:0:0:0:
448,192,50083,1,0,0:0:0:0:
192,192,50130,1,0,0:0:0:0:
320,192,50176,1,0,0:0:0:0:
64,192,50222,1,0,0:0:0:0:
448,192,50222,1,0,0:0:0:0:
320,192,50292,1,0,0:0:0:0:
192,192,50292,1,0,0:0:0:0:
448,192,50361,1,0,0:0:0:0:
64,192,50361,128,0,50500:0:0:0:0:
448,192,50500,5,0,0:0:0:0:
320,192,50500,1,0,0:0:0:0:
192,192,50569,1,0,0:0:0:0:
64,192,50569,1,0,0:0:0:0:
448,192,50639,1,0,0:0:0:0:
320,192,50639,1,0,0:0:0:0:
64,192,50639,1,0,0:0:0:0:
64,192,50847,1,0,0:0:0:0:
192,192,50847,1,0,0:0:0:0:
448,192,50847,1,0,0:0:0:0:
448,192,51056,1,0,0:0:0:0:
320,192,51056,1,0,0:0:0:0:
192,192,51056,1,0,0:0:0:0:
448,192,51194,1,0,0:0:0:0:
192,192,51194,1,0,0:0:0:0:
64,192,51194,128,0,51264:0:0:0:0:
64,192,51333,128,0,51472:0:0:0:0:
448,192,51472,1,0,0:0:0:0:
320,192,51472,128,0,51542:0:0:0:0:
320,192,51611,128,0,51750:0:0:0:0:
448,192,51750,1,0,0:0:0:0:
64,192,51750,1,0,0:0:0:0:
448,192,51889,1,0,0:0:0:0:
320,192,52028,1,0,0:0:0:0:
192,192,52028,1,0,0:0:0:0:
192,192,52167,1,0,0:0:0:0:
64,192,52306,1,0,0:0:0:0:
320,192,52306,1,0,0:0:0:0:
448,192,52306,128,0,52375:0:0:0:0:
448,192,52444,128,0,52583:0:0:0:0:
192,192,52583,128,0,52722:0:0:0:0:
64,192,52583,1,0,0:0:0:0:
320,192,52722,128,0,52861:0:0:0:0:
448,192,52722,1,0,0:0:0:0:
64,192,52861,1,0,0:0:0:0:
448,192,52861,1,0,0:0:0:0:
192,192,52861,1,0,0:0:0:0:
320,192,52931,1,0,0:0:0:0:
64,192,53000,1,0,0:0:0:0:
448,192,53000,1,0,0:0:0:0:
192,192,53069,1,0,0:0:0:0:
64,192,53139,1,0,0:0:0:0:
320,192,53139,1,0,0:0:0:0:
448,192,53139,1,0,0:0:0:0:
192,192,53278,1,0,0:0:0:0:
448,192,53417,5,0,0:0:0:0:
320,192,53417,128,0,54528:0:0:0:0:
64,192,54528,128,0,55639:0:0:0:0:
448,192,55083,128,0,55569:0:0:0:0:
448,192,55639,1,0,0:0:0:0:
320,192,55639,1,0,0:0:0:0:
192,192,55639,1,0,0:0:0:0:
320,192,55778,1,0,0:0:0:0:
448,192,55778,1,0,0:0:0:0:
192,192,55778,1,0,0:0:0:0:
448,192,55917,1,0,0:0:0:0:
320,192,55917,1,0,0:0:0:0:
192,192,55917,1,0,0:0:0:0:
64,192,56056,128,0,56194:0:0:0:0:
448,192,56194,1,0,0:0:0:0:
192,192,56194,1,0,0:0:0:0:
320,192,56333,128,0,56403:0:0:0:0:
320,192,56472,128,0,56611:0:0:0:0:
64,192,56472,1,0,0:0:0:0:
448,192,56611,1,0,0:0:0:0:
64,192,56750,1,0,0:0:0:0:
448,192,56750,1,0,0:0:0:0:
192,192,56843,1,0,0:0:0:0:
320,192,56935,1,0,0:0:0:0:
448,192,57028,128,0,57306:0:0:0:0:
64,192,57028,1,0,0:0:0:0:
320,192,57167,1,0,0:0:0:0:
64,192,57306,1,0,0:0:0:0:
192,192,57306,1,0,0:0:0:0:
320,192,57398,1,0,0:0:0:0:
448,192,57491,1,0,0:0:0:0:
320,192,57583,128,0,57722:0:0:0:0:
192,192,57583,1,0,0:0:0:0:
64,192,57722,1,0,0:0:0:0:
192,192,57861,1,0,0:0:0:0:
64,192,57861,1,0,0:0:0:0:
320,192,57861,1,0,0:0:0:0:
64,192,58000,1,0,0:0:0:0:
192,192,58000,1,0,0:0:0:0:
320,192,58000,1,0,0:0:0:0:
64,192,58139,1,0,0:0:0:0:
192,192,58139,1,0,0:0:0:0:
320,192,58139,1,0,0:0:0:0:
448,192,58278,128,0,58417:0:0:0:0:
320,192,58417,1,0,0:0:0:0:
192,192,58417,1,0,0:0:0:0:
64,192,58556,128,0,58625:0:0:0:0:
192,192,58625,1,0,0:0:0:0:
320,192,58694,128,0,58833:0:0:0:0:
448,192,58694,1,0,0:0:0:0:
64,192,58833,1,0,0:0:0:0:
448,192,58903,1,0,0:0:0:0:
192,192,58972,128,0,59111:0:0:0:0:
320,192,58972,128,0,59111:0:0:0:0:
448,192,59111,1,0,0:0:0:0:
64,192,59250,128,0,59389:0:0:0:0:
192,192,59250,128,0,59389:0:0:0:0:
320,192,59389,1,0,0:0:0:0:
320,192,59528,1,0,0:0:0:0:
64,192,59528,1,0,0:0:0:0:
448,192,59528,1,0,0:0:0:0:
192,192,59620,1,0,0:0:0:0:
64,192,59713,1,0,0:0:0:0:
320,192,59806,1,0,0:0:0:0:
448,192,59806,128,0,59944:0:0:0:0:
64,192,59944,1,0,0:0:0:0:
192,192,60083,1,0,0:0:0:0:
320,192,60083,1,0,0:0:0:0:
448,192,60083,1,0,0:0:0:0:
192,192,60222,1,0,0:0:0:0:
320,192,60222,1,0,0:0:0:0:
448,192,60222,1,0,0:0:0:0:
192,192,60361,1,0,0:0:0:0:
320,192,60361,1,0,0:0:0:0:
448,192,60361,1,0,0:0:0:0:
64,192,60500,1,0,0:0:0:0:
192,192,60500,128,0,60917:0:0:0:0:
448,192,60639,1,0,0:0:0:0:
320,192,60639,1,0,0:0:0:0:
64,192,60778,1,0,0:0:0:0:
320,192,60847,1,0,0:0:0:0:
448,192,60917,128,0,61194:0:0:0:0:
64,192,60917,1,0,0:0:0:0:
320,192,61056,1,0,0:0:0:0:
192,192,61125,1,0,0:0:0:0:
64,192,61194,128,0,61264:0:0:0:0:
320,192,61194,1,0,0:0:0:0:
64,192,61333,128,0,61472:0:0:0:0:
448,192,61403,1,0,0:0:0:0:
320,192,61472,128,0,61542:0:0:0:0:
192,192,61472,1,0,0:0:0:0:
320,192,61611,128,0,61750:0:0:0:0:
64,192,61681,1,0,0:0:0:0:
192,192,61750,1,0,0:0:0:0:
448,192,61750,128,0,61819:0:0:0:0:
448,192,61889,128,0,62028:0:0:0:0:
64,192,61889,1,0,0:0:0:0:
320,192,61958,1,0,0:0:0:0:
192,192,62028,128,0,62097:0:0:0:0:
64,192,62028,1,0,0:0:0:0:
192,192,62167,128,0,62306:0:0:0:0:
448,192,62306,5,0,0:0:0:0:
64,192,62306,1,0,0:0:0:0:
320,192,62306,1,0,0:0:0:0:
448,192,62444,1,0,0:0:0:0:
64,192,62444,1,0,0:0:0:0:
320,192,62444,1,0,0:0:0:0:
448,192,62583,1,0,0:0:0:0:
64,192,62583,1,0,0:0:0:0:
320,192,62583,1,0,0:0:0:0:
192,192,62722,128,0,62861:0:0:0:0:
64,192,62861,128,0,62931:0:0:0:0:
448,192,62861,1,0,0:0:0:0:
64,192,63000,128,0,63139:0:0:0:0:
320,192,63000,1,0,0:0:0:0:
192,192,63069,1,0,0:0:0:0:
448,192,63139,1,0,0:0:0:0:
320,192,63139,128,0,63208:0:0:0:0:
320,192,63278,128,0,63417:0:0:0:0:
192,192,63278,1,0,0:0:0:0:
448,192,63417,1,0,0:0:0:0:
192,192,63417,1,0,0:0:0:0:
64,192,63417,1,0,0:0:0:0:
448,192,63556,1,0,0:0:0:0:
192,192,63556,1,0,0:0:0:0:
64,192,63556,1,0,0:0:0:0:
448,192,63694,1,0,0:0:0:0:
192,192,63694,1,0,0:0:0:0:
64,192,63694,1,0,0:0:0:0:
192,192,63833,1,0,0:0:0:0:
448,192,63833,1,0,0:0:0:0:
64,192,63833,1,0,0:0:0:0:
64,192,63972,1,0,0:0:0:0:
320,192,63972,1,0,0:0:0:0:
192,192,63972,1,0,0:0:0:0:
192,192,64528,1,0,0:0:0:0:
320,192,64528,1,0,0:0:0:0:
448,192,64528,1,0,0:0:0:0:
64,192,64667,1,0,0:0:0:0:
320,192,64667,1,0,0:0:0:0:
192,192,64667,1,0,0:0:0:0:
192,192,64806,1,0,0:0:0:0:
320,192,64806,1,0,0:0:0:0:
448,192,64806,1,0,0:0:0:0:
64,192,64944,1,0,0:0:0:0:
448,192,64944,128,0,65014:0:0:0:0:
192,192,65083,1,0,0:0:0:0:
64,192,65222,128,0,65292:0:0:0:0:
320,192,65222,1,0,0:0:0:0:
448,192,65361,1,0,0:0:0:0:
192,192,65500,128,0,65569:0:0:0:0:
320,192,65500,1,0,0:0:0:0:
64,192,65639,1,0,0:0:0:0:
448,192,65639,1,0,0:0:0:0:
320,192,65639,1,0,0:0:0:0:
448,192,65778,1,0,0:0:0:0:
64,192,65778,1,0,0:0:0:0:
320,192,65778,1,0,0:0:0:0:
64,192,65917,1,0,0:0:0:0:
448,192,65917,1,0,0:0:0:0:
192,192,65917,1,0,0:0:0:0:
192,192,66056,1,0,0:0:0:0:
320,192,66056,128,0,66125:0:0:0:0:
448,192,66194,1,0,0:0:0:0:
64,192,66194,1,0,0:0:0:0:
64,192,66333,128,0,66403:0:0:0:0:
192,192,66333,128,0,66403:0:0:0:0:
64,192,66472,128,0,66681:0:0:0:0:
192,192,66472,128,0,66681:0:0:0:0:
64,192,66750,1,0,0:0:0:0:
320,192,66750,1,0,0:0:0:0:
448,192,66750,1,0,0:0:0:0:
192,192,66889,1,0,0:0:0:0:
320,192,66889,1,0,0:0:0:0:
448,192,66889,1,0,0:0:0:0:
192,192,67028,1,0,0:0:0:0:
320,192,67028,1,0,0:0:0:0:
64,192,67028,1,0,0:0:0:0:
64,192,67167,1,0,0:0:0:0:
448,192,67167,128,0,67236:0:0:0:0:
320,192,67306,1,0,0:0:0:0:
448,192,67444,1,0,0:0:0:0:
192,192,67444,128,0,67514:0:0:0:0:
64,192,67583,1,0,0:0:0:0:
192,192,67722,1,0,0:0:0:0:
320,192,67722,128,0,67792:0:0:0:0:
64,192,67861,1,0,0:0:0:0:
448,192,67861,1,0,0:0:0:0:
192,192,67861,1,0,0:0:0:0:
320,192,68000,1,0,0:0:0:0:
448,192,68000,1,0,0:0:0:0:
64,192,68000,1,0,0:0:0:0:
448,192,68139,1,0,0:0:0:0:
192,192,68139,1,0,0:0:0:0:
320,192,68139,1,0,0:0:0:0:
320,192,68278,1,0,0:0:0:0:
64,192,68278,128,0,68347:0:0:0:0:
448,192,68417,1,0,0:0:0:0:
192,192,68417,1,0,0:0:0:0:
64,192,68486,1,0,0:0:0:0:
320,192,68486,1,0,0:0:0:0:
448,192,68556,1,0,0:0:0:0:
192,192,68556,1,0,0:0:0:0:
64,192,68625,1,0,0:0:0:0:
320,192,68625,1,0,0:0:0:0:
192,192,68694,128,0,68903:0:0:0:0:
448,192,68694,128,0,68903:0:0:0:0:
320,192,68972,5,0,0:0:0:0:
64,192,68972,1,0,0:0:0:0:
448,192,68972,1,0,0:0:0:0:
192,192,69111,1,0,0:0:0:0:
320,192,69111,1,0,0:0:0:0:
64,192,69111,1,0,0:0:0:0:
448,192,69250,1,0,0:0:0:0:
192,192,69250,1,0,0:0:0:0:
320,192,69250,1,0,0:0:0:0:
192,192,69389,1,0,0:0:0:0:
64,192,69389,1,0,0:0:0:0:
448,192,69389,1,0,0:0:0:0:
448,192,69528,1,0,0:0:0:0:
64,192,69528,1,0,0:0:0:0:
320,192,69528,1,0,0:0:0:0:
320,192,69667,1,0,0:0:0:0:
64,192,69667,1,0,0:0:0:0:
192,192,69667,1,0,0:0:0:0:
448,192,69806,1,0,0:0:0:0:
320,192,69806,1,0,0:0:0:0:
64,192,69806,1,0,0:0:0:0:
192,192,69875,1,0,0:0:0:0:
64,192,69944,1,0,0:0:0:0:
448,192,69944,1,0,0:0:0:0:
320,192,69944,1,0,0:0:0:0:
192,192,70083,1,0,0:0:0:0:
64,192,70083,1,0,0:0:0:0:
320,192,70153,1,0,0:0:0:0:
448,192,70153,1,0,0:0:0:0:
192,192,70222,1,0,0:0:0:0:
64,192,70222,1,0,0:0:0:0:
320,192,70292,1,0,0:0:0:0:
448,192,70292,1,0,0:0:0:0:
192,192,70361,1,0,0:0:0:0:
64,192,70361,1,0,0:0:0:0:
320,192,70431,1,0,0:0:0:0:
448,192,70431,1,0,0:0:0:0:
192,192,70500,1,0,0:0:0:0:
64,192,70500,1,0,0:0:0:0:
320,192,70569,1,0,0:0:0:0:
448,192,70569,1,0,0:0:0:0:
192,192,70639,1,0,0:0:0:0:
64,192,70639,1,0,0:0:0:0:
448,192,70708,1,0,0:0:0:0:
320,192,70708,1,0,0:0:0:0:
192,192,70778,1,0,0:0:0:0:
64,192,70778,1,0,0:0:0:0:
320,192,70847,1,0,0:0:0:0:
448,192,70847,1,0,0:0:0:0:
192,192,70917,1,0,0:0:0:0:
64,192,70917,1,0,0:0:0:0:
320,192,70986,1,0,0:0:0:0:
448,192,70986,1,0,0:0:0:0:
192,192,71056,1,0,0:0:0:0:
64,192,71056,1,0,0:0:0:0:
320,192,71125,1,0,0:0:0:0:
448,192,71125,1,0,0:0:0:0:
192,192,71194,1,0,0:0:0:0:
64,192,71194,1,0,0:0:0:0:
320,192,71287,1,0,0:0:0:0:
448,192,71380,1,0,0:0:0:0:
64,192,71472,128,0,71750:0:0:0:0:
192,192,71750,128,0,72028:0:0:0:0:
448,192,71889,128,0,72028:0:0:0:0:
320,192,72028,128,0,72306:0:0:0:0:
192,192,72306,128,0,72583:0:0:0:0:
64,192,72583,128,0,72861:0:0:0:0:
448,192,72583,1,0,0:0:0:0:
320,192,72653,1,0,0:0:0:0:
192,192,72722,1,0,0:0:0:0:
448,192,72861,128,0,73417:0:0:0:0:
320,192,72861,1,0,0:0:0:0:
192,192,72954,1,0,0:0:0:0:
64,192,73046,1,0,0:0:0:0:
192,192,73139,128,0,73417:0:0:0:0:
320,192,73417,1,0,0:0:0:0:
64,192,73417,1,0,0:0:0:0:
448,192,75176,128,0,75407:0:0:0:0:
64,192,75407,1,0,0:0:0:0:
192,192,75454,1,0,0:0:0:0:
320,192,75500,1,0,0:0:0:0:
448,192,75546,1,0,0:0:0:0:
192,192,75639,128,0,77792:0:0:0:0:
64,192,76287,128,0,76542:0:0:0:0:
320,192,76542,128,0,76819:0:0:0:0:
448,192,76681,128,0,76819:0:0:0:0:
64,192,76819,128,0,77792:0:0:0:0:
448,192,77306,128,0,77792:0:0:0:0:
192,192,77861,1,0,0:0:0:0:
448,192,77861,1,0,0:0:0:0:
64,192,77861,1,0,0:0:0:0:
448,192,78139,128,0,78417:0:0:0:0:
192,192,78417,1,0,0:0:0:0:
320,192,78417,1,0,0:0:0:0:
64,192,78556,1,0,0:0:0:0:
192,192,78556,1,0,0:0:0:0:
320,192,78625,1,0,0:0:0:0:
448,192,78625,1,0,0:0:0:0:
64,192,78694,1,0,0:0:0:0:
192,192,78694,128,0,78972:0:0:0:0:
64,192,78972,1,0,0:0:0:0:
448,192,78972,1,0,0:0:0:0:
320,192,78972,1,0,0:0:0:0:
192,192,79042,1,0,0:0:0:0:
320,192,79111,128,0,79250:0:0:0:0:
64,192,79250,1,0,0:0:0:0:
448,192,79250,1,0,0:0:0:0:
192,192,79250,1,0,0:0:0:0:
64,192,79389,128,0,79528:0:0:0:0:
192,192,79528,1,0,0:0:0:0:
448,192,79528,1,0,0:0:0:0:
192,192,79667,128,0,79806:0:0:0:0:
448,192,79806,1,0,0:0:0:0:
64,192,79806,1,0,0:0:0:0:
320,192,79806,1,0,0:0:0:0:
192,192,79875,1,0,0:0:0:0:
320,192,79944,128,0,80083:0:0:0:0:
448,192,80083,1,0,0:0:0:0:
64,192,80083,128,0,80222:0:0:0:0:
192,192,80222,1,0,0:0:0:0:
320,192,80361,1,0,0:0:0:0:
64,192,80361,128,0,80500:0:0:0:0:
448,192,80361,1,0,0:0:0:0:
192,192,80500,1,0,0:0:0:0:
320,192,80569,1,0,0:0:0:0:
448,192,80639,128,0,80778:0:0:0:0:
64,192,80639,1,0,0:0:0:0:
192,192,80778,128,0,80917:0:0:0:0:
320,192,80917,1,0,0:0:0:0:
64,192,80917,1,0,0:0:0:0:
448,192,80917,1,0,0:0:0:0:
448,192,81056,128,0,81194:0:0:0:0:
320,192,81194,1,0,0:0:0:0:
64,192,81194,1,0,0:0:0:0:
192,192,81264,1,0,0:0:0:0:
320,192,81333,128,0,81472:0:0:0:0:
448,192,81472,1,0,0:0:0:0:
64,192,81472,1,0,0:0:0:0:
192,192,81472,1,0,0:0:0:0:
192,192,81611,128,0,81750:0:0:0:0:
448,192,81750,1,0,0:0:0:0:
64,192,81750,1,0,0:0:0:0:
448,192,81889,128,0,82306:0:0:0:0:
320,192,81889,1,0,0:0:0:0:
64,192,81889,1,0,0:0:0:0:
64,192,82028,1,0,0:0:0:0:
192,192,82028,1,0,0:0:0:0:
320,192,82167,128,0,82306:0:0:0:0:
192,192,82306,1,0,0:0:0:0:
64,192,82306,128,0,82444:0:0:0:0:
448,192,82444,1,0,0:0:0:0:
320,192,82514,1,0,0:0:0:0:
64,192,82583,128,0,82722:0:0:0:0:
192,192,82583,1,0,0:0:0:0:
448,192,82583,1,0,0:0:0:0:
320,192,82722,1,0,0:0:0:0:
320,192,82861,128,0,83000:0:0:0:0:
448,192,82861,1,0,0:0:0:0:
192,192,83000,128,0,83139:0:0:0:0:
64,192,83139,1,0,0:0:0:0:
448,192,83139,1,0,0:0:0:0:
320,192,83139,1,0,0:0:0:0:
448,192,83278,128,0,83417:0:0:0:0:
64,192,83417,1,0,0:0:0:0:
192,192,83417,1,0,0:0:0:0:
320,192,83486,1,0,0:0:0:0:
192,192,83556,128,0,83694:0:0:0:0:
320,192,83694,1,0,0:0:0:0:
64,192,83694,1,0,0:0:0:0:
448,192,83694,1,0,0:0:0:0:
192,192,83764,1,0,0:0:0:0:
320,192,83833,128,0,83972:0:0:0:0:
192,192,83972,1,0,0:0:0:0:
448,192,83972,1,0,0:0:0:0:
64,192,84111,128,0,84250:0:0:0:0:
192,192,84250,1,0,0:0:0:0:
320,192,84250,1,0,0:0:0:0:
448,192,84250,1,0,0:0:0:0:
64,192,84319,1,0,0:0:0:0:
320,192,84389,128,0,84528:0:0:0:0:
64,192,84528,1,0,0:0:0:0:
192,192,84528,128,0,84667:0:0:0:0:
448,192,84667,1,0,0:0:0:0:
64,192,84806,1,0,0:0:0:0:
192,192,84806,128,0,84944:0:0:0:0:
320,192,84806,1,0,0:0:0:0:
448,192,84944,1,0,0:0:0:0:
320,192,85014,1,0,0:0:0:0:
64,192,85083,128,0,85222:0:0:0:0:
192,192,85083,1,0,0:0:0:0:
448,192,85222,128,0,85361:0:0:0:0:
320,192,85361,1,0,0:0:0:0:
192,192,85361,1,0,0:0:0:0:
64,192,85361,1,0,0:0:0:0:
192,192,85500,128,0,85639:0:0:0:0:
448,192,85639,1,0,0:0:0:0:
64,192,85639,1,0,0:0:0:0:
192,192,85708,1,0,0:0:0:0:
320,192,85778,128,0,85917:0:0:0:0:
192,192,85917,1,0,0:0:0:0:
64,192,85917,1,0,0:0:0:0:
448,192,85917,1,0,0:0:0:0:
448,192,86056,128,0,86194:0:0:0:0:
64,192,86194,128,0,86264:0:0:0:0:
320,192,86194,1,0,0:0:0:0:
64,192,86333,128,0,86403:0:0:0:0:
320,192,86333,1,0,0:0:0:0:
64,192,86472,128,0,86750:0:0:0:0:
192,192,86611,128,0,86750:0:0:0:0:
320,192,86750,128,0,86889:0:0:0:0:
448,192,86750,1,0,0:0:0:0:
64,192,86889,1,0,0:0:0:0:
192,192,86958,1,0,0:0:0:0:
448,192,87028,1,0,0:0:0:0:
320,192,87028,128,0,87167:0:0:0:0:
64,192,87028,1,0,0:0:0:0:
192,192,87167,1,0,0:0:0:0:
448,192,87306,128,0,87444:0:0:0:0:
64,192,87306,1,0,0:0:0:0:
320,192,87444,128,0,87583:0:0:0:0:
448,192,87583,1,0,0:0:0:0:
64,192,87583,1,0,0:0:0:0:
192,192,87583,1,0,0:0:0:0:
192,192,87722,128,0,87861:0:0:0:0:
64,192,87861,1,0,0:0:0:0:
448,192,87861,1,0,0:0:0:0:
320,192,87931,1,0,0:0:0:0:
448,192,88000,128,0,88139:0:0:0:0:
192,192,88139,1,0,0:0:0:0:
320,192,88139,1,0,0:0:0:0:
64,192,88139,1,0,0:0:0:0:
64,192,88278,128,0,88417:0:0:0:0:
320,192,88417,1,0,0:0:0:0:
448,192,88417,1,0,0:0:0:0:
320,192,88556,128,0,88694:0:0:0:0:
64,192,88694,1,0,0:0:0:0:
448,192,88694,1,0,0:0:0:0:
192,192,88694,1,0,0:0:0:0:
320,192,88764,1,0,0:0:0:0:
448,192,88833,128,0,88972:0:0:0:0:
64,192,88972,128,0,89111:0:0:0:0:
192,192,88972,1,0,0:0:0:0:
320,192,89111,1,0,0:0:0:0:
448,192,89250,1,0,0:0:0:0:
64,192,89250,128,0,89389:0:0:0:0:
192,192,89250,1,0,0:0:0:0:
320,192,89389,1,0,0:0:0:0:
192,192,89458,1,0,0:0:0:0:
448,192,89528,128,0,89667:0:0:0:0:
64,192,89528,1,0,0:0:0:0:
192,192,89667,128,0,89806:0:0:0:0:
64,192,89806,1,0,0:0:0:0:
320,192,89806,1,0,0:0:0:0:
448,192,89806,1,0,0:0:0:0:
320,192,89944,128,0,90083:0:0:0:0:
64,192,90083,1,0,0:0:0:0:
448,192,90083,1,0,0:0:0:0:
320,192,90153,1,0,0:0:0:0:
192,192,90222,128,0,90361:0:0:0:0:
448,192,90361,1,0,0:0:0:0:
320,192,90361,1,0,0:0:0:0:
64,192,90361,1,0,0:0:0:0:
64,192,90500,128,0,90639:0:0:0:0:
320,192,90639,1,0,0:0:0:0:
448,192,90639,1,0,0:0:0:0:
320,192,90778,128,0,91194:0:0:0:0:
448,192,90778,1,0,0:0:0:0:
64,192,90778,1,0,0:0:0:0:
64,192,90917,1,0,0:0:0:0:
192,192,90917,1,0,0:0:0:0:
448,192,91056,128,0,91194:0:0:0:0:
192,192,91194,128,0,91333:0:0:0:0:
64,192,91194,1,0,0:0:0:0:
448,192,91333,1,0,0:0:0:0:
320,192,91403,1,0,0:0:0:0:
192,192,91472,128,0,91611:0:0:0:0:
64,192,91472,1,0,0:0:0:0:
448,192,91472,1,0,0:0:0:0:
320,192,91611,1,0,0:0:0:0:
448,192,91750,1,0,0:0:0:0:
64,192,91750,128,0,91889:0:0:0:0:
192,192,91889,128,0,92028:0:0:0:0:
320,192,92028,1,0,0:0:0:0:
448,192,92028,1,0,0:0:0:0:
64,192,92028,1,0,0:0:0:0:
320,192,92167,128,0,92306:0:0:0:0:
64,192,92306,1,0,0:0:0:0:
448,192,92306,1,0,0:0:0:0:
192,192,92375,1,0,0:0:0:0:
64,192,92444,128,0,92583:0:0:0:0:
448,192,92583,1,0,0:0:0:0:
192,192,92583,1,0,0:0:0:0:
320,192,92583,1,0,0:0:0:0:
448,192,92722,128,0,92861:0:0:0:0:
64,192,92861,1,0,0:0:0:0:
320,192,92861,1,0,0:0:0:0:
192,192,93000,128,0,93139:0:0:0:0:
320,192,93139,1,0,0:0:0:0:
64,192,93139,1,0,0:0:0:0:
448,192,93139,1,0,0:0:0:0:
192,192,93208,1,0,0:0:0:0:
320,192,93278,128,0,93417:0:0:0:0:
192,192,93417,1,0,0:0:0:0:
64,192,93417,128,0,93556:0:0:0:0:
448,192,93556,1,0,0:0:0:0:
192,192,93556,1,0,0:0:0:0:
64,192,93694,128,0,93833:0:0:0:0:
320,192,93694,1,0,0:0:0:0:
448,192,93833,1,0,0:0:0:0:
192,192,93833,1,0,0:0:0:0:
320,192,93903,1,0,0:0:0:0:
64,192,93972,1,0,0:0:0:0:
448,192,93972,128,0,94111:0:0:0:0:
192,192,93972,1,0,0:0:0:0:
192,192,94111,128,0,94250:0:0:0:0:
320,192,94111,1,0,0:0:0:0:
320,192,94250,1,0,0:0:0:0:
448,192,94250,1,0,0:0:0:0:
64,192,94250,1,0,0:0:0:0:
64,192,94389,128,0,94528:0:0:0:0:
192,192,94389,1,0,0:0:0:0:
320,192,94528,5,0,0:0:0:0:
448,192,94528,1,0,0:0:0:0:
192,192,94597,1,0,0:0:0:0:
64,192,94597,1,0,0:0:0:0:
320,192,94667,1,0,0:0:0:0:
448,192,94667,1,0,0:0:0:0:
192,192,94736,1,0,0:0:0:0:
64,192,94736,1,0,0:0:0:0:
320,192,94806,1,0,0:0:0:0:
448,192,94806,1,0,0:0:0:0:
192,192,94875,1,0,0:0:0:0:
64,192,94875,1,0,0:0:0:0:
320,192,94944,1,0,0:0:0:0:
448,192,94944,1,0,0:0:0:0:
192,192,95014,1,0,0:0:0:0:
64,192,95014,1,0,0:0:0:0:
448,192,95083,1,0,0:0:0:0:
320,192,95083,128,0,95153:0:0:0:0:
320,192,95222,128,0,95292:0:0:0:0:
448,192,95222,1,0,0:0:0:0:
192,192,95361,128,0,95639:0:0:0:0:
64,192,95639,128,0,95917:0:0:0:0:
320,192,95639,1,0,0:0:0:0:
448,192,95639,128,0,95917:0:0:0:0:
192,192,95917,1,0,0:0:0:0:
320,192,95917,1,0,0:0:0:0:
64,192,95986,1,0,0:0:0:0:
320,192,96056,1,0,0:0:0:0:
192,192,96125,1,0,0:0:0:0:
448,192,96194,1,0,0:0:0:0:
64,192,96194,1,0,0:0:0:0:
320,192,96264,1,0,0:0:0:0:
192,192,96333,1,0,0:0:0:0:
448,192,96403,1,0,0:0:0:0:
192,192,96472,128,0,96889:0:0:0:0:
64,192,96472,1,0,0:0:0:0:
448,192,96750,1,0,0:0:0:0:
320,192,96750,1,0,0:0:0:0:
64,192,96889,1,0,0:0:0:0:
448,192,96889,1,0,0:0:0:0:
64,192,97028,1,0,0:0:0:0:
192,192,97028,1,0,0:0:0:0:
320,192,97097,1,0,0:0:0:0:
192,192,97167,1,0,0:0:0:0:
448,192,97306,128,0,97444:0:0:0:0:
320,192,97306,1,0,0:0:0:0:
64,192,97444,1,0,0:0:0:0:
192,192,97514,1,0,0:0:0:0:
448,192,97583,1,0,0:0:0:0:
320,192,97583,128,0,97861:0:0:0:0:
64,192,97722,1,0,0:0:0:0:
192,192,97792,1,0,0:0:0:0:
448,192,97861,1,0,0:0:0:0:
64,192,97861,128,0,98139:0:0:0:0:
192,192,98000,1,0,0:0:0:0:
320,192,98069,1,0,0:0:0:0:
192,192,98139,128,0,98417:0:0:0:0:
448,192,98139,1,0,0:0:0:0:
320,192,98278,1,0,0:0:0:0:
64,192,98347,1,0,0:0:0:0:
448,192,98417,1,0,0:0:0:0:
320,192,98417,1,0,0:0:0:0:
448,192,98556,128,0,98833:0:0:0:0:
64,192,98556,1,0,0:0:0:0:
320,192,98625,1,0,0:0:0:0:
64,192,98694,1,0,0:0:0:0:
192,192,98694,1,0,0:0:0:0:
320,192,98833,1,0,0:0:0:0:
192,192,98903,1,0,0:0:0:0:
64,192,98972,128,0,99250:0:0:0:0:
448,192,98972,1,0,0:0:0:0:
320,192,99111,1,0,0:0:0:0:
192,192,99181,1,0,0:0:0:0:
320,192,99250,128,0,99528:0:0:0:0:
448,192,99250,1,0,0:0:0:0:
192,192,99389,1,0,0:0:0:0:
448,192,99458,1,0,0:0:0:0:
192,192,99528,128,0,99806:0:0:0:0:
64,192,99528,1,0,0:0:0:0:
320,192,99667,1,0,0:0:0:0:
64,192,99736,1,0,0:0:0:0:
448,192,99806,128,0,100083:0:0:0:0:
320,192,99806,1,0,0:0:0:0:
64,192,99944,1,0,0:0:0:0:
192,192,100014,1,0,0:0:0:0:
64,192,100083,1,0,0:0:0:0:
320,192,100083,1,0,0:0:0:0:
448,192,100153,1,0,0:0:0:0:
192,192,100222,1,0,0:0:0:0:
320,192,100292,1,0,0:0:0:0:
64,192,100361,1,0,0:0:0:0:
448,192,100361,1,0,0:0:0:0:
192,192,100431,1,0,0:0:0:0:
320,192,100500,1,0,0:0:0:0:
64,192,100569,1,0,0:0:0:0:
448,192,100639,1,0,0:0:0:0:
192,192,100639,1,0,0:0:0:0:
320,192,100708,1,0,0:0:0:0:
64,192,100778,1,0,0:0:0:0:
192,192,100847,1,0,0:0:0:0:
448,192,100917,1,0,0:0:0:0:
320,192,100917,1,0,0:0:0:0:
64,192,100986,1,0,0:0:0:0:
192,192,101056,1,0,0:0:0:0:
320,192,101125,1,0,0:0:0:0:
192,192,101194,1,0,0:0:0:0:
64,192,101194,1,0,0:0:0:0:
448,192,101333,1,0,0:0:0:0:
320,192,101403,1,0,0:0:0:0:
448,192,101472,1,0,0:0:0:0:
64,192,101472,1,0,0:0:0:0:
192,192,101542,1,0,0:0:0:0:
320,192,101611,1,0,0:0:0:0:
192,192,101681,1,0,0:0:0:0:
320,192,101750,1,0,0:0:0:0:
448,192,101750,1,0,0:0:0:0:
64,192,101819,1,0,0:0:0:0:
192,192,101889,1,0,0:0:0:0:
448,192,101958,1,0,0:0:0:0:
320,192,102028,1,0,0:0:0:0:
64,192,102028,1,0,0:0:0:0:
192,192,102097,1,0,0:0:0:0:
448,192,102167,1,0,0:0:0:0:
320,192,102236,1,0,0:0:0:0:
448,192,102306,1,0,0:0:0:0:
192,192,102306,1,0,0:0:0:0:
64,192,102306,1,0,0:0:0:0:
448,192,102444,1,0,0:0:0:0:
192,192,102444,1,0,0:0:0:0:
64,192,102444,1,0,0:0:0:0:
64,192,102583,1,0,0:0:0:0:
320,192,102583,1,0,0:0:0:0:
448,192,102653,1,0,0:0:0:0:
192,192,102722,1,0,0:0:0:0:
320,192,102792,1,0,0:0:0:0:
448,192,102861,1,0,0:0:0:0:
64,192,102861,1,0,0:0:0:0:
192,192,102931,1,0,0:0:0:0:
448,192,103000,1,0,0:0:0:0:
192,192,103069,1,0,0:0:0:0:
64,192,103139,1,0,0:0:0:0:
448,192,103139,1,0,0:0:0:0:
320,192,103208,1,0,0:0:0:0:
192,192,103278,1,0,0:0:0:0:
320,192,103347,1,0,0:0:0:0:
448,192,103417,1,0,0:0:0:0:
64,192,103417,1,0,0:0:0:0:
192,192,103486,1,0,0:0:0:0:
320,192,103556,1,0,0:0:0:0:
192,192,103625,1,0,0:0:0:0:
448,192,103694,128,0,103833:0:0:0:0:
64,192,103694,128,0,103833:0:0:0:0:
320,192,103833,1,0,0:0:0:0:
448,192,103903,1,0,0:0:0:0:
64,192,103972,128,0,104250:0:0:0:0:
192,192,103972,128,0,104111:0:0:0:0:
320,192,104111,128,0,104250:0:0:0:0:
192,192,104250,128,0,104389:0:0:0:0:
448,192,104250,128,0,104528:0:0:0:0:
320,192,104389,128,0,104528:0:0:0:0:
64,192,104528,128,0,104597:0:0:0:0:
192,192,104528,1,0,0:0:0:0:
64,192,104667,128,0,104736:0:0:0:0:
192,192,104806,1,0,0:0:0:0:
448,192,104806,128,0,104875:0:0:0:0:
320,192,104806,1,0,0:0:0:0:
448,192,104944,128,0,105014:0:0:0:0:
192,192,105083,128,0,105361:0:0:0:0:
64,192,105083,1,0,0:0:0:0:
320,192,105083,1,0,0:0:0:0:
448,192,105222,1,0,0:0:0:0:
64,192,105361,128,0,105431:0:0:0:0:
448,192,105361,1,0,0:0:0:0:
320,192,105361,1,0,0:0:0:0:
64,192,105500,128,0,105569:0:0:0:0:
320,192,105639,128,0,105708:0:0:0:0:
448,192,105639,1,0,0:0:0:0:
192,192,105639,1,0,0:0:0:0:
320,192,105778,128,0,105847:0:0:0:0:
192,192,105917,128,0,105986:0:0:0:0:
64,192,105917,1,0,0:0:0:0:
448,192,105917,1,0,0:0:0:0:
192,192,106056,128,0,106125:0:0:0:0:
64,192,106194,1,0,0:0:0:0:
448,192,106194,128,0,106403:0:0:0:0:
320,192,106194,1,0,0:0:0:0:
192,192,106333,1,0,0:0:0:0:
320,192,106403,1,0,0:0:0:0:
64,192,106472,128,0,106750:0:0:0:0:
448,192,106472,1,0,0:0:0:0:
192,192,106472,128,0,106750:0:0:0:0:
448,192,106750,128,0,106819:0:0:0:0:
320,192,106750,1,0,0:0:0:0:
448,192,106889,128,0,106958:0:0:0:0:
192,192,107028,128,0,107097:0:0:0:0:
64,192,107028,1,0,0:0:0:0:
320,192,107028,1,0,0:0:0:0:
192,192,107167,128,0,107236:0:0:0:0:
320,192,107306,128,0,107514:0:0:0:0:
448,192,107306,1,0,0:0:0:0:
64,192,107306,1,0,0:0:0:0:
64,192,107444,1,0,0:0:0:0:
192,192,107514,1,0,0:0:0:0:
64,192,107583,128,0,107653:0:0:0:0:
448,192,107583,1,0,0:0:0:0:
320,192,107583,1,0,0:0:0:0:
64,192,107722,128,0,107792:0:0:0:0:
320,192,107861,1,0,0:0:0:0:
448,192,107861,128,0,107931:0:0:0:0:
64,192,107861,1,0,0:0:0:0:
192,192,108000,1,0,0:0:0:0:
192,192,108069,1,0,0:0:0:0:
320,192,108139,128,0,108208:0:0:0:0:
448,192,108139,1,0,0:0:0:0:
64,192,108139,1,0,0:0:0:0:
192,192,108278,128,0,108347:0:0:0:0:
448,192,108417,128,0,108556:0:0:0:0:
64,192,108417,128,0,108556:0:0:0:0:
320,192,108556,1,0,0:0:0:0:
192,192,108556,1,0,0:0:0:0:
320,192,108625,1,0,0:0:0:0:
192,192,108625,1,0,0:0:0:0:
64,192,108694,128,0,108764:0:0:0:0:
448,192,108694,128,0,108764:0:0:0:0:
64,192,108833,128,0,108903:0:0:0:0:
448,192,108833,128,0,108903:0:0:0:0:
64,192,108972,1,0,0:0:0:0:
320,192,108972,128,0,109042:0:0:0:0:
448,192,108972,1,0,0:0:0:0:
320,192,109111,128,0,109181:0:0:0:0:
320,192,109250,1,0,0:0:0:0:
64,192,109250,128,0,109319:0:0:0:0:
192,192,109250,1,0,0:0:0:0:
64,192,109389,128,0,109458:0:0:0:0:
64,192,109528,1,0,0:0:0:0:
320,192,109528,128,0,109597:0:0:0:0:
448,192,109528,1,0,0:0:0:0:
192,192,109667,1,0,0:0:0:0:
192,192,109736,1,0,0:0:0:0:
320,192,109806,1,0,0:0:0:0:
448,192,109806,128,0,109875:0:0:0:0:
64,192,109806,1,0,0:0:0:0:
192,192,109944,128,0,110014:0:0:0:0:
448,192,110083,1,0,0:0:0:0:
64,192,110083,128,0,110153:0:0:0:0:
320,192,110083,1,0,0:0:0:0:
320,192,110222,128,0,110292:0:0:0:0:
448,192,110361,1,0,0:0:0:0:
64,192,110361,128,0,110431:0:0:0:0:
320,192,110361,1,0,0:0:0:0:
320,192,110500,128,0,110569:0:0:0:0:
64,192,110639,1,0,0:0:0:0:
192,192,110639,128,0,110708:0:0:0:0:
448,192,110639,1,0,0:0:0:0:
448,192,110778,1,0,0:0:0:0:
64,192,110778,1,0,0:0:0:0:
448,192,110847,1,0,0:0:0:0:
192,192,110917,128,0,111194:0:0:0:0:
64,192,110917,128,0,111194:0:0:0:0:
320,192,110917,1,0,0:0:0:0:
448,192,111194,1,0,0:0:0:0:
320,192,111194,1,0,0:0:0:0:
320,192,111472,1,0,0:0:0:0:
192,192,111542,1,0,0:0:0:0:
320,192,111611,1,0,0:0:0:0:
192,192,111681,1,0,0:0:0:0:
448,192,111750,1,0,0:0:0:0:
448,192,111819,1,0,0:0:0:0:
64,192,111889,1,0,0:0:0:0:
64,192,111958,1,0,0:0:0:0:
320,192,112028,1,0,0:0:0:0:
320,192,112097,1,0,0:0:0:0:
192,192,112167,1,0,0:0:0:0:
192,192,112236,1,0,0:0:0:0:
448,192,112306,1,0,0:0:0:0:
64,192,112306,1,0,0:0:0:0:
448,192,112444,1,0,0:0:0:0:
192,192,112444,1,0,0:0:0:0:
64,192,112583,1,0,0:0:0:0:
320,192,112583,1,0,0:0:0:0:
64,192,112722,1,0,0:0:0:0:
448,192,112722,1,0,0:0:0:0:
320,192,112861,1,0,0:0:0:0:
448,192,112861,1,0,0:0:0:0:
192,192,112861,1,0,0:0:0:0:
64,192,113000,1,0,0:0:0:0:
320,192,113000,1,0,0:0:0:0:
192,192,113000,1,0,0:0:0:0:
64,192,113139,1,0,0:0:0:0:
448,192,113139,1,0,0:0:0:0:
320,192,113139,1,0,0:0:0:0:
448,192,113417,1,0,0:0:0:0:
64,192,113417,128,0,116750:0:0:0:0:
192,192,113417,128,0,116194:0:0:0:0:
320,192,113417,1,0,0:0:0:0:
192,192,116750,1,0,0:0:0:0:
320,192,116750,1,0,0:0:0:0:
448,192,116750,1,0,0:0:0:0:
