osu file format v14

[General]
AudioFilename: audio.mp3
AudioLeadIn: 0
PreviewTime: -1
Countdown: 0
SampleSet: Normal
StackLeniency: 0.7
Mode: 3
LetterboxInBreaks: 0
SpecialStyle: 0
WidescreenStoryboard: 1

[Editor]
DistanceSpacing: 0.7
BeatDivisor: 4
GridSize: 4
TimelineZoom: 1.7

[Metadata]
Title:Ooi
TitleUnicode:Ooi
Artist:O2i3
ArtistUnicode:O2i3
Creator:Reen
Version:NM
Source:
Tags:
BeatmapID:1012581
BeatmapSetID:473574

[Difficulty]
HPDrainRate:7
CircleSize:4
OverallDifficulty:7
ApproachRate:5
SliderMultiplier:1.4
SliderTickRate:1

[Events]
//Background and Video events
0,0,"Futuristic-Wallpaper.jpg",0,0
//Break Periods
//Storyboard Layer 0 (Background)
//Storyboard Layer 1 (Fail)
//Storyboard Layer 2 (Pass)
//Storyboard Layer 3 (Foreground)
//Storyboard Sound Samples

[TimingPoints]
1195,277.777777777778,4,1,0,25,1,0
78972,-100,4,1,0,100,0,1
104528,-100,4,1,0,100,0,0

[HitObjects]
320,192,2306,5,0,0:0:0:0:
448,192,2306,1,0,0:0:0:0:
320,192,2583,1,0,0:0:0:0:
192,192,2722,1,0,0:0:0:0:
64,192,3000,1,0,0:0:0:0:
320,192,3278,128,0,3972:0:0:0:0:
64,192,3972,1,0,0:0:0:0:
320,192,4250,1,0,0:0:0:0:
192,192,4528,1,0,0:0:0:0:
64,192,4806,1,0,0:0:0:0:
192,192,5083,1,0,0:0:0:0:
448,192,5222,1,0,0:0:0:0:
64,192,5500,128,0,6195:0:0:0:0:
192,192,6195,128,0,6750:0:0:0:0:
448,192,6750,1,0,0:0:0:0:
448,192,7028,1,0,0:0:0:0:
320,192,7167,1,0,0:0:0:0:
192,192,7306,1,0,0:0:0:0:
64,192,7445,1,0,0:0:0:0:
320,192,7722,1,0,0:0:0:0:
448,192,7722,128,0,8139:0:0:0:0:
192,192,8139,128,0,8417:0:0:0:0:
320,192,8417,128,0,8695:0:0:0:0:
192,192,8695,128,0,8972:0:0:0:0:
64,192,8972,128,0,10639:0:0:0:0:
320,192,10639,1,0,0:0:0:0:
192,192,10778,1,0,0:0:0:0:
64,192,10917,1,0,0:0:0:0:
320,192,11056,1,0,0:0:0:0:
192,192,11195,1,0,0:0:0:0:
320,192,11195,1,0,0:0:0:0:
64,192,11333,1,0,0:0:0:0:
320,192,11472,1,0,0:0:0:0:
192,192,11472,1,0,0:0:0:0:
64,192,11611,1,0,0:0:0:0:
448,192,11611,1,0,0:0:0:0:
192,192,11750,1,0,0:0:0:0:
320,192,11889,1,0,0:0:0:0:
448,192,12028,1,0,0:0:0:0:
64,192,12167,1,0,0:0:0:0:
192,192,12306,1,0,0:0:0:0:
448,192,12445,1,0,0:0:0:0:
64,192,12583,1,0,0:0:0:0:
320,192,12722,1,0,0:0:0:0:
192,192,12861,1,0,0:0:0:0:
448,192,13000,1,0,0:0:0:0:
64,192,13139,1,0,0:0:0:0:
320,192,13278,1,0,0:0:0:0:
64,192,13417,1,0,0:0:0:0:
320,192,13417,1,0,0:0:0:0:
448,192,13556,1,0,0:0:0:0:
192,192,13695,1,0,0:0:0:0:
448,192,13695,1,0,0:0:0:0:
64,192,13833,1,0,0:0:0:0:
320,192,13833,1,0,0:0:0:0:
64,192,13972,1,0,0:0:0:0:
192,192,14111,1,0,0:0:0:0:
448,192,14250,1,0,0:0:0:0:
320,192,14389,1,0,0:0:0:0:
64,192,14528,1,0,0:0:0:0:
192,192,14667,1,0,0:0:0:0:
320,192,14806,1,0,0:0:0:0:
192,192,14945,1,0,0:0:0:0:
448,192,15083,128,0,15639:0:0:0:0:
192,192,15778,1,0,0:0:0:0:
320,192,15778,1,0,0:0:0:0:
64,192,15917,1,0,0:0:0:0:
192,192,16056,1,0,0:0:0:0:
448,192,16056,1,0,0:0:0:0:
64,192,16195,1,0,0:0:0:0:
320,192,16333,1,0,0:0:0:0:
448,192,16472,1,0,0:0:0:0:
64,192,16611,1,0,0:0:0:0:
448,192,16750,1,0,0:0:0:0:
320,192,16889,1,0,0:0:0:0:
64,192,17028,1,0,0:0:0:0:
320,192,17167,1,0,0:0:0:0:
192,192,17306,1,0,0:0:0:0:
64,192,17445,1,0,0:0:0:0:
320,192,17583,1,0,0:0:0:0:
448,192,17722,1,0,0:0:0:0:
64,192,17861,1,0,0:0:0:0:
320,192,17861,1,0,0:0:0:0:
448,192,18000,1,0,0:0:0:0:
64,192,18139,1,0,0:0:0:0:
320,192,18139,1,0,0:0:0:0:
448,192,18278,1,0,0:0:0:0:
192,192,18278,1,0,0:0:0:0:
64,192,18417,1,0,0:0:0:0:
192,192,18556,1,0,0:0:0:0:
448,192,18695,1,0,0:0:0:0:
320,192,18833,1,0,0:0:0:0:
64,192,18972,1,0,0:0:0:0:
192,192,18972,1,0,0:0:0:0:
320,192,19111,1,0,0:0:0:0:
64,192,19250,1,0,0:0:0:0:
448,192,19250,1,0,0:0:0:0:
448,192,19389,1,0,0:0:0:0:
320,192,19528,128,0,20083:0:0:0:0:
192,192,20083,1,0,0:0:0:0:
64,192,20222,1,0,0:0:0:0:
192,192,20361,1,0,0:0:0:0:
448,192,20361,1,0,0:0:0:0:
320,192,20500,1,0,0:0:0:0:
192,192,20639,1,0,0:0:0:0:
320,192,20639,1,0,0:0:0:0:
64,192,20778,1,0,0:0:0:0:
320,192,20917,1,0,0:0:0:0:
448,192,20917,1,0,0:0:0:0:
320,192,21056,1,0,0:0:0:0:
64,192,21195,1,0,0:0:0:0:
192,192,21195,1,0,0:0:0:0:
192,192,21333,1,0,0:0:0:0:
320,192,21472,1,0,0:0:0:0:
448,192,21472,1,0,0:0:0:0:
448,192,21611,1,0,0:0:0:0:
64,192,21750,1,0,0:0:0:0:
320,192,21750,1,0,0:0:0:0:
320,192,21889,1,0,0:0:0:0:
192,192,22028,1,0,0:0:0:0:
448,192,22028,1,0,0:0:0:0:
320,192,22167,1,0,0:0:0:0:
192,192,22306,128,0,22583:0:0:0:0:
320,192,22306,128,0,22583:0:0:0:0:
192,192,22722,1,0,0:0:0:0:
192,192,22861,128,0,23070:0:0:0:0:
64,192,23070,1,0,0:0:0:0:
192,192,23278,1,0,0:0:0:0:
64,192,23278,1,0,0:0:0:0:
64,192,23417,1,0,0:0:0:0:
448,192,23556,1,0,0:0:0:0:
192,192,23556,1,0,0:0:0:0:
64,192,23695,1,0,0:0:0:0:
320,192,23833,1,0,0:0:0:0:
448,192,23833,1,0,0:0:0:0:
192,192,23972,1,0,0:0:0:0:
320,192,24111,1,0,0:0:0:0:
192,192,24111,128,0,24528:0:0:0:0:
64,192,24528,1,0,0:0:0:0:
320,192,24667,1,0,0:0:0:0:
320,192,24806,1,0,0:0:0:0:
448,192,24806,1,0,0:0:0:0:
320,192,24945,1,0,0:0:0:0:
64,192,25083,1,0,0:0:0:0:
192,192,25083,1,0,0:0:0:0:
192,192,25222,1,0,0:0:0:0:
448,192,25361,1,0,0:0:0:0:
64,192,25361,1,0,0:0:0:0:
320,192,25500,1,0,0:0:0:0:
320,192,25639,1,0,0:0:0:0:
192,192,25639,1,0,0:0:0:0:
448,192,25778,1,0,0:0:0:0:
192,192,25917,1,0,0:0:0:0:
448,192,25917,1,0,0:0:0:0:
320,192,26056,1,0,0:0:0:0:
64,192,26195,1,0,0:0:0:0:
320,192,26195,1,0,0:0:0:0:
448,192,26333,1,0,0:0:0:0:
192,192,26472,1,0,0:0:0:0:
320,192,26472,1,0,0:0:0:0:
64,192,26611,1,0,0:0:0:0:
64,192,26750,1,0,0:0:0:0:
192,192,26750,1,0,0:0:0:0:
320,192,26889,1,0,0:0:0:0:
448,192,27028,1,0,0:0:0:0:
320,192,27028,1,0,0:0:0:0:
64,192,27167,1,0,0:0:0:0:
192,192,27306,1,0,0:0:0:0:
448,192,27306,1,0,0:0:0:0:
320,192,27445,1,0,0:0:0:0:
448,192,27583,1,0,0:0:0:0:
192,192,27722,1,0,0:0:0:0:
320,192,27722,1,0,0:0:0:0:
64,192,27861,1,0,0:0:0:0:
64,192,28000,1,0,0:0:0:0:
192,192,28000,1,0,0:0:0:0:
320,192,28139,1,0,0:0:0:0:
192,192,28278,1,0,0:0:0:0:
448,192,28278,1,0,0:0:0:0:
320,192,28417,128,0,28972:0:0:0:0:
448,192,28556,1,0,0:0:0:0:
64,192,28695,1,0,0:0:0:0:
192,192,28972,1,0,0:0:0:0:
320,192,29111,1,0,0:0:0:0:
192,192,29250,1,0,0:0:0:0:
448,192,29389,1,0,0:0:0:0:
64,192,29528,1,0,0:0:0:0:
192,192,29528,1,0,0:0:0:0:
320,192,29667,1,0,0:0:0:0:
192,192,29806,1,0,0:0:0:0:
448,192,29945,1,0,0:0:0:0:
192,192,30083,1,0,0:0:0:0:
64,192,30222,1,0,0:0:0:0:
192,192,30361,1,0,0:0:0:0:
320,192,30431,1,0,0:0:0:0:
448,192,30500,1,0,0:0:0:0:
64,192,30639,1,0,0:0:0:0:
192,192,30639,1,0,0:0:0:0:
448,192,30778,1,0,0:0:0:0:
320,192,30917,1,0,0:0:0:0:
320,192,31195,1,0,0:0:0:0:
64,192,31333,1,0,0:0:0:0:
192,192,31472,1,0,0:0:0:0:
448,192,31611,1,0,0:0:0:0:
192,192,31750,1,0,0:0:0:0:
64,192,31750,1,0,0:0:0:0:
320,192,31889,1,0,0:0:0:0:
64,192,32028,1,0,0:0:0:0:
320,192,32167,1,0,0:0:0:0:
448,192,32306,1,0,0:0:0:0:
64,192,32445,1,0,0:0:0:0:
448,192,32514,1,0,0:0:0:0:
192,192,32583,1,0,0:0:0:0:
320,192,32722,1,0,0:0:0:0:
192,192,32861,128,0,33278:0:0:0:0:
320,192,33278,1,0,0:0:0:0:
448,192,33417,1,0,0:0:0:0:
320,192,33556,1,0,0:0:0:0:
64,192,33695,1,0,0:0:0:0:
192,192,33833,1,0,0:0:0:0:
192,192,33972,128,0,34250:0:0:0:0:
448,192,34250,128,0,34389:0:0:0:0:
320,192,34389,128,0,34667:0:0:0:0:
64,192,34667,128,0,34806:0:0:0:0:
192,192,34806,128,0,35083:0:0:0:0:
320,192,35083,128,0,35222:0:0:0:0:
192,192,35222,128,0,35361:0:0:0:0:
448,192,35361,128,0,35639:0:0:0:0:
64,192,35639,128,0,37861:0:0:0:0:
192,192,37861,128,0,38417:0:0:0:0:
448,192,38417,1,0,0:0:0:0:
192,192,38833,1,0,0:0:0:0:
448,192,38903,1,0,0:0:0:0:
192,192,38972,1,0,0:0:0:0:
320,192,39111,1,0,0:0:0:0:
192,192,39250,1,0,0:0:0:0:
64,192,39250,1,0,0:0:0:0:
320,192,39389,1,0,0:0:0:0:
192,192,39528,128,0,39667:0:0:0:0:
448,192,39667,128,0,39806:0:0:0:0:
320,192,39806,128,0,40083:0:0:0:0:
64,192,40083,1,0,0:0:0:0:
192,192,40222,1,0,0:0:0:0:
448,192,40361,128,0,40500:0:0:0:0:
64,192,40500,128,0,40639:0:0:0:0:
320,192,40639,1,0,0:0:0:0:
320,192,40778,1,0,0:0:0:0:
192,192,40917,1,0,0:0:0:0:
64,192,41056,1,0,0:0:0:0:
320,192,41195,1,0,0:0:0:0:
192,192,41333,1,0,0:0:0:0:
320,192,41472,1,0,0:0:0:0:
64,192,41611,1,0,0:0:0:0:
320,192,41750,1,0,0:0:0:0:
448,192,41750,1,0,0:0:0:0:
192,192,41958,1,0,0:0:0:0:
320,192,41958,1,0,0:0:0:0:
64,192,42167,1,0,0:0:0:0:
192,192,42167,1,0,0:0:0:0:
320,192,42306,1,0,0:0:0:0:
448,192,42583,1,0,0:0:0:0:
64,192,42722,1,0,0:0:0:0:
320,192,42861,1,0,0:0:0:0:
448,192,42931,1,0,0:0:0:0:
320,192,43000,1,0,0:0:0:0:
64,192,43139,1,0,0:0:0:0:
192,192,43278,1,0,0:0:0:0:
448,192,43417,1,0,0:0:0:0:
320,192,43486,1,0,0:0:0:0:
192,192,43556,1,0,0:0:0:0:
64,192,43695,1,0,0:0:0:0:
192,192,43833,1,0,0:0:0:0:
64,192,43972,1,0,0:0:0:0:
192,192,44042,1,0,0:0:0:0:
448,192,44111,1,0,0:0:0:0:
320,192,44250,1,0,0:0:0:0:
192,192,44389,1,0,0:0:0:0:
320,192,44528,1,0,0:0:0:0:
448,192,44597,1,0,0:0:0:0:
64,192,44667,1,0,0:0:0:0:
192,192,44736,1,0,0:0:0:0:
320,192,44806,1,0,0:0:0:0:
64,192,44945,1,0,0:0:0:0:
448,192,45083,1,0,0:0:0:0:
192,192,45153,1,0,0:0:0:0:
320,192,45222,1,0,0:0:0:0:
192,192,45361,1,0,0:0:0:0:
320,192,45500,1,0,0:0:0:0:
320,192,45639,128,0,45778:0:0:0:0:
192,192,45778,128,0,45917:0:0:0:0:
64,192,45917,128,0,46056:0:0:0:0:
448,192,46056,128,0,46195:0:0:0:0:
320,192,46195,128,0,46333:0:0:0:0:
192,192,46333,128,0,46472:0:0:0:0:
320,192,46472,128,0,46750:0:0:0:0:
192,192,46750,128,0,47306:0:0:0:0:
64,192,47306,1,0,0:0:0:0:
192,192,47445,1,0,0:0:0:0:
64,192,47583,1,0,0:0:0:0:
448,192,47722,1,0,0:0:0:0:
320,192,47861,1,0,0:0:0:0:
64,192,48000,1,0,0:0:0:0:
192,192,48070,1,0,0:0:0:0:
320,192,48139,1,0,0:0:0:0:
64,192,48278,1,0,0:0:0:0:
192,192,48417,1,0,0:0:0:0:
448,192,48556,1,0,0:0:0:0:
320,192,48625,1,0,0:0:0:0:
192,192,48695,1,0,0:0:0:0:
320,192,48833,1,0,0:0:0:0:
448,192,48972,1,0,0:0:0:0:
64,192,49111,1,0,0:0:0:0:
192,192,49181,1,0,0:0:0:0:
448,192,49250,1,0,0:0:0:0:
192,192,49389,1,0,0:0:0:0:
448,192,49528,1,0,0:0:0:0:
64,192,49667,1,0,0:0:0:0:
448,192,49736,1,0,0:0:0:0:
320,192,49806,1,0,0:0:0:0:
192,192,49945,1,0,0:0:0:0:
448,192,50083,1,0,0:0:0:0:
192,192,50153,1,0,0:0:0:0:
320,192,50222,1,0,0:0:0:0:
64,192,50361,1,0,0:0:0:0:
320,192,50500,1,0,0:0:0:0:
64,192,50639,1,0,0:0:0:0:
320,192,50639,1,0,0:0:0:0:
192,192,50847,1,0,0:0:0:0:
448,192,50847,1,0,0:0:0:0:
64,192,51056,1,0,0:0:0:0:
448,192,51056,1,0,0:0:0:0:
192,192,51195,1,0,0:0:0:0:
448,192,51333,1,0,0:0:0:0:
64,192,51472,1,0,0:0:0:0:
192,192,51611,1,0,0:0:0:0:
320,192,51750,1,0,0:0:0:0:
192,192,51889,1,0,0:0:0:0:
320,192,51958,1,0,0:0:0:0:
448,192,52028,1,0,0:0:0:0:
192,192,52167,1,0,0:0:0:0:
320,192,52306,1,0,0:0:0:0:
64,192,52445,1,0,0:0:0:0:
320,192,52514,1,0,0:0:0:0:
448,192,52583,1,0,0:0:0:0:
192,192,52722,1,0,0:0:0:0:
320,192,52861,1,0,0:0:0:0:
64,192,53000,1,0,0:0:0:0:
320,192,53070,1,0,0:0:0:0:
192,192,53139,1,0,0:0:0:0:
64,192,53278,1,0,0:0:0:0:
320,192,53417,128,0,55639:0:0:0:0:
192,192,55639,1,0,0:0:0:0:
448,192,55778,1,0,0:0:0:0:
320,192,55917,1,0,0:0:0:0:
192,192,56056,1,0,0:0:0:0:
320,192,56195,1,0,0:0:0:0:
64,192,56333,1,0,0:0:0:0:
320,192,56472,1,0,0:0:0:0:
448,192,56611,1,0,0:0:0:0:
64,192,56750,1,0,0:0:0:0:
192,192,56820,1,0,0:0:0:0:
320,192,56889,1,0,0:0:0:0:
192,192,57028,1,0,0:0:0:0:
448,192,57167,1,0,0:0:0:0:
64,192,57306,1,0,0:0:0:0:
64,192,57445,1,0,0:0:0:0:
320,192,57514,1,0,0:0:0:0:
192,192,57583,1,0,0:0:0:0:
448,192,57722,1,0,0:0:0:0:
192,192,57861,1,0,0:0:0:0:
64,192,57861,1,0,0:0:0:0:
192,192,58000,1,0,0:0:0:0:
320,192,58000,1,0,0:0:0:0:
320,192,58139,1,0,0:0:0:0:
448,192,58139,1,0,0:0:0:0:
192,192,58278,1,0,0:0:0:0:
64,192,58417,1,0,0:0:0:0:
192,192,58556,1,0,0:0:0:0:
448,192,58695,1,0,0:0:0:0:
64,192,58833,1,0,0:0:0:0:
320,192,58972,1,0,0:0:0:0:
192,192,59111,1,0,0:0:0:0:
448,192,59250,1,0,0:0:0:0:
192,192,59389,1,0,0:0:0:0:
320,192,59528,1,0,0:0:0:0:
64,192,59528,1,0,0:0:0:0:
192,192,59667,1,0,0:0:0:0:
448,192,59806,1,0,0:0:0:0:
64,192,59945,1,0,0:0:0:0:
320,192,60083,1,0,0:0:0:0:
448,192,60083,1,0,0:0:0:0:
64,192,60222,1,0,0:0:0:0:
192,192,60222,1,0,0:0:0:0:
192,192,60361,1,0,0:0:0:0:
320,192,60361,1,0,0:0:0:0:
64,192,60500,1,0,0:0:0:0:
448,192,60639,1,0,0:0:0:0:
192,192,60778,1,0,0:0:0:0:
64,192,60917,1,0,0:0:0:0:
320,192,61056,1,0,0:0:0:0:
448,192,61195,1,0,0:0:0:0:
320,192,61333,1,0,0:0:0:0:
64,192,61472,1,0,0:0:0:0:
192,192,61611,1,0,0:0:0:0:
448,192,61750,1,0,0:0:0:0:
320,192,61889,1,0,0:0:0:0:
64,192,62028,1,0,0:0:0:0:
192,192,62167,1,0,0:0:0:0:
320,192,62306,1,0,0:0:0:0:
192,192,62306,1,0,0:0:0:0:
320,192,62445,1,0,0:0:0:0:
448,192,62445,1,0,0:0:0:0:
64,192,62583,1,0,0:0:0:0:
192,192,62583,1,0,0:0:0:0:
192,192,62722,1,0,0:0:0:0:
320,192,62861,1,0,0:0:0:0:
64,192,63000,1,0,0:0:0:0:
320,192,63139,1,0,0:0:0:0:
192,192,63278,1,0,0:0:0:0:
448,192,63417,1,0,0:0:0:0:
320,192,63417,1,0,0:0:0:0:
320,192,63556,1,0,0:0:0:0:
64,192,63695,1,0,0:0:0:0:
192,192,63695,1,0,0:0:0:0:
192,192,63833,1,0,0:0:0:0:
448,192,63972,128,0,64528:0:0:0:0:
64,192,64528,1,0,0:0:0:0:
192,192,64667,1,0,0:0:0:0:
448,192,64667,1,0,0:0:0:0:
448,192,64806,1,0,0:0:0:0:
192,192,64945,1,0,0:0:0:0:
64,192,64945,1,0,0:0:0:0:
448,192,65083,1,0,0:0:0:0:
192,192,65222,1,0,0:0:0:0:
448,192,65222,1,0,0:0:0:0:
320,192,65361,1,0,0:0:0:0:
64,192,65500,1,0,0:0:0:0:
192,192,65500,1,0,0:0:0:0:
320,192,65639,1,0,0:0:0:0:
320,192,65778,1,0,0:0:0:0:
448,192,65778,1,0,0:0:0:0:
192,192,65917,1,0,0:0:0:0:
64,192,66056,1,0,0:0:0:0:
192,192,66056,1,0,0:0:0:0:
320,192,66195,1,0,0:0:0:0:
320,192,66333,128,0,66472:0:0:0:0:
64,192,66472,128,0,66750:0:0:0:0:
192,192,66889,1,0,0:0:0:0:
64,192,66889,1,0,0:0:0:0:
320,192,67167,1,0,0:0:0:0:
448,192,67167,1,0,0:0:0:0:
192,192,67445,1,0,0:0:0:0:
320,192,67445,1,0,0:0:0:0:
64,192,67722,1,0,0:0:0:0:
448,192,67722,1,0,0:0:0:0:
192,192,68000,1,0,0:0:0:0:
448,192,68000,1,0,0:0:0:0:
64,192,68278,1,0,0:0:0:0:
320,192,68278,1,0,0:0:0:0:
448,192,68417,1,0,0:0:0:0:
320,192,68486,1,0,0:0:0:0:
192,192,68556,1,0,0:0:0:0:
448,192,68695,128,0,68972:0:0:0:0:
64,192,69111,1,0,0:0:0:0:
320,192,69250,1,0,0:0:0:0:
448,192,69389,1,0,0:0:0:0:
320,192,69528,1,0,0:0:0:0:
448,192,69667,1,0,0:0:0:0:
64,192,69806,1,0,0:0:0:0:
320,192,69945,1,0,0:0:0:0:
320,192,70083,1,0,0:0:0:0:
448,192,70222,1,0,0:0:0:0:
320,192,70292,1,0,0:0:0:0:
192,192,70361,1,0,0:0:0:0:
64,192,70500,1,0,0:0:0:0:
448,192,70639,1,0,0:0:0:0:
64,192,70708,1,0,0:0:0:0:
320,192,70778,1,0,0:0:0:0:
64,192,70917,1,0,0:0:0:0:
320,192,71056,1,0,0:0:0:0:
64,192,71195,1,0,0:0:0:0:
320,192,71264,1,0,0:0:0:0:
448,192,71333,1,0,0:0:0:0:
192,192,71472,1,0,0:0:0:0:
448,192,71611,1,0,0:0:0:0:
64,192,71750,1,0,0:0:0:0:
448,192,71820,1,0,0:0:0:0:
192,192,71889,1,0,0:0:0:0:
448,192,72028,1,0,0:0:0:0:
192,192,72167,1,0,0:0:0:0:
64,192,72306,128,0,72583:0:0:0:0:
192,192,72583,128,0,72861:0:0:0:0:
448,192,72861,128,0,73139:0:0:0:0:
64,192,73139,128,0,73417:0:0:0:0:
320,192,73417,128,0,77861:0:0:0:0:
192,192,77861,128,0,78139:0:0:0:0:
64,192,78139,128,0,78417:0:0:0:0:
448,192,78417,128,0,78972:0:0:0:0:
64,192,79111,1,0,0:0:0:0:
320,192,79111,1,0,0:0:0:0:
192,192,79389,1,0,0:0:0:0:
448,192,79389,1,0,0:0:0:0:
448,192,79667,1,0,0:0:0:0:
64,192,79667,1,0,0:0:0:0:
320,192,79945,1,0,0:0:0:0:
448,192,79945,1,0,0:0:0:0:
192,192,80083,1,0,0:0:0:0:
64,192,80083,1,0,0:0:0:0:
64,192,80222,1,0,0:0:0:0:
192,192,80361,1,0,0:0:0:0:
448,192,80361,1,0,0:0:0:0:
320,192,80500,1,0,0:0:0:0:
448,192,80639,128,0,80778:0:0:0:0:
192,192,81056,128,0,81333:0:0:0:0:
448,192,81333,128,0,81611:0:0:0:0:
64,192,81611,128,0,81889:0:0:0:0:
320,192,81889,128,0,82306:0:0:0:0:
192,192,82306,1,0,0:0:0:0:
320,192,82583,1,0,0:0:0:0:
448,192,82583,1,0,0:0:0:0:
320,192,82861,1,0,0:0:0:0:
64,192,82861,1,0,0:0:0:0:
448,192,83000,1,0,0:0:0:0:
320,192,83139,1,0,0:0:0:0:
64,192,83278,1,0,0:0:0:0:
192,192,83278,1,0,0:0:0:0:
320,192,83417,1,0,0:0:0:0:
320,192,83556,1,0,0:0:0:0:
448,192,83556,1,0,0:0:0:0:
192,192,83695,1,0,0:0:0:0:
64,192,83833,1,0,0:0:0:0:
448,192,83833,1,0,0:0:0:0:
192,192,83972,1,0,0:0:0:0:
448,192,84111,1,0,0:0:0:0:
320,192,84111,1,0,0:0:0:0:
448,192,84250,1,0,0:0:0:0:
192,192,84389,1,0,0:0:0:0:
192,192,84528,128,0,84806:0:0:0:0:
448,192,84806,1,0,0:0:0:0:
192,192,84945,1,0,0:0:0:0:
320,192,85083,1,0,0:0:0:0:
192,192,85222,1,0,0:0:0:0:
448,192,85361,1,0,0:0:0:0:
320,192,85500,128,0,85778:0:0:0:0:
64,192,85778,128,0,86056:0:0:0:0:
320,192,86056,128,0,86750:0:0:0:0:
64,192,86750,1,0,0:0:0:0:
320,192,87028,1,0,0:0:0:0:
448,192,87028,1,0,0:0:0:0:
192,192,87306,1,0,0:0:0:0:
448,192,87306,1,0,0:0:0:0:
64,192,87445,1,0,0:0:0:0:
192,192,87583,1,0,0:0:0:0:
448,192,87722,128,0,88000:0:0:0:0:
192,192,88000,128,0,88278:0:0:0:0:
448,192,88278,128,0,88556:0:0:0:0:
192,192,88556,128,0,88833:0:0:0:0:
192,192,88972,1,0,0:0:0:0:
320,192,89111,1,0,0:0:0:0:
64,192,89250,1,0,0:0:0:0:
192,192,89389,1,0,0:0:0:0:
320,192,89528,1,0,0:0:0:0:
192,192,89667,128,0,89945:0:0:0:0:
192,192,90083,1,0,0:0:0:0:
64,192,90222,1,0,0:0:0:0:
320,192,90222,1,0,0:0:0:0:
320,192,90361,1,0,0:0:0:0:
192,192,90500,1,0,0:0:0:0:
448,192,90500,1,0,0:0:0:0:
320,192,90639,1,0,0:0:0:0:
192,192,90778,128,0,91195:0:0:0:0:
320,192,91195,1,0,0:0:0:0:
448,192,91472,1,0,0:0:0:0:
320,192,91472,1,0,0:0:0:0:
64,192,91750,1,0,0:0:0:0:
192,192,91750,1,0,0:0:0:0:
448,192,91889,1,0,0:0:0:0:
192,192,92028,1,0,0:0:0:0:
64,192,92167,1,0,0:0:0:0:
448,192,92167,1,0,0:0:0:0:
192,192,92306,1,0,0:0:0:0:
448,192,92445,1,0,0:0:0:0:
320,192,92445,1,0,0:0:0:0:
192,192,92583,1,0,0:0:0:0:
64,192,92722,1,0,0:0:0:0:
448,192,92722,1,0,0:0:0:0:
320,192,92861,1,0,0:0:0:0:
64,192,93000,1,0,0:0:0:0:
192,192,93000,1,0,0:0:0:0:
320,192,93139,1,0,0:0:0:0:
64,192,93278,1,0,0:0:0:0:
448,192,93417,1,0,0:0:0:0:
192,192,93417,1,0,0:0:0:0:
448,192,93556,1,0,0:0:0:0:
64,192,93695,1,0,0:0:0:0:
320,192,93695,1,0,0:0:0:0:
64,192,93833,1,0,0:0:0:0:
192,192,93972,1,0,0:0:0:0:
320,192,93972,1,0,0:0:0:0:
448,192,94111,1,0,0:0:0:0:
192,192,94250,1,0,0:0:0:0:
320,192,94389,128,0,95639:0:0:0:0:
64,192,95639,128,0,95917:0:0:0:0:
448,192,95917,1,0,0:0:0:0:
320,192,95986,1,0,0:0:0:0:
192,192,96056,1,0,0:0:0:0:
448,192,96195,1,0,0:0:0:0:
320,192,96264,1,0,0:0:0:0:
192,192,96333,1,0,0:0:0:0:
192,192,96472,1,0,0:0:0:0:
320,192,96472,128,0,96889:0:0:0:0:
64,192,96889,1,0,0:0:0:0:
448,192,97028,1,0,0:0:0:0:
192,192,97097,1,0,0:0:0:0:
64,192,97167,1,0,0:0:0:0:
320,192,97306,128,0,97583:0:0:0:0:
64,192,97861,128,0,98139:0:0:0:0:
448,192,98139,128,0,98417:0:0:0:0:
192,192,98417,128,0,98556:0:0:0:0:
64,192,98556,128,0,98833:0:0:0:0:
320,192,98833,128,0,98972:0:0:0:0:
448,192,98972,128,0,99250:0:0:0:0:
192,192,99250,128,0,99528:0:0:0:0:
64,192,99528,128,0,99806:0:0:0:0:
320,192,99806,128,0,100083:0:0:0:0:
64,192,100083,1,0,0:0:0:0:
448,192,100222,1,0,0:0:0:0:
64,192,100361,1,0,0:0:0:0:
192,192,100431,1,0,0:0:0:0:
448,192,100500,1,0,0:0:0:0:
64,192,100639,1,0,0:0:0:0:
192,192,100708,1,0,0:0:0:0:
320,192,100778,1,0,0:0:0:0:
320,192,100917,1,0,0:0:0:0:
192,192,100986,1,0,0:0:0:0:
64,192,101056,1,0,0:0:0:0:
320,192,101195,128,0,101333:0:0:0:0:
64,192,101333,1,0,0:0:0:0:
320,192,101472,1,0,0:0:0:0:
192,192,101611,1,0,0:0:0:0:
448,192,101750,1,0,0:0:0:0:
320,192,101820,1,0,0:0:0:0:
192,192,101889,1,0,0:0:0:0:
448,192,102028,1,0,0:0:0:0:
320,192,102097,1,0,0:0:0:0:
192,192,102167,1,0,0:0:0:0:
448,192,102306,1,0,0:0:0:0:
320,192,102306,1,0,0:0:0:0:
64,192,102445,1,0,0:0:0:0:
192,192,102445,1,0,0:0:0:0:
64,192,102583,1,0,0:0:0:0:
448,192,102722,1,0,0:0:0:0:
320,192,102861,1,0,0:0:0:0:
64,192,103000,1,0,0:0:0:0:
320,192,103139,1,0,0:0:0:0:
448,192,103208,1,0,0:0:0:0:
64,192,103278,1,0,0:0:0:0:
448,192,103417,1,0,0:0:0:0:
320,192,103486,1,0,0:0:0:0:
192,192,103556,1,0,0:0:0:0:
64,192,103695,1,0,0:0:0:0:
448,192,103695,1,0,0:0:0:0:
192,192,103833,1,0,0:0:0:0:
448,192,103972,128,0,104528:0:0:0:0:
192,192,104667,1,0,0:0:0:0:
320,192,104806,1,0,0:0:0:0:
448,192,104806,1,0,0:0:0:0:
448,192,104945,1,0,0:0:0:0:
192,192,105083,1,0,0:0:0:0:
64,192,105083,128,0,105361:0:0:0:0:
192,192,105500,1,0,0:0:0:0:
320,192,105639,1,0,0:0:0:0:
448,192,105639,1,0,0:0:0:0:
192,192,105778,1,0,0:0:0:0:
64,192,105917,1,0,0:0:0:0:
320,192,105917,1,0,0:0:0:0:
448,192,106056,1,0,0:0:0:0:
192,192,106195,1,0,0:0:0:0:
64,192,106195,128,0,106750:0:0:0:0:
320,192,106750,1,0,0:0:0:0:
192,192,106889,1,0,0:0:0:0:
448,192,107028,1,0,0:0:0:0:
192,192,107028,1,0,0:0:0:0:
320,192,107167,1,0,0:0:0:0:
192,192,107306,128,0,107583:0:0:0:0:
320,192,107722,1,0,0:0:0:0:
64,192,107861,1,0,0:0:0:0:
192,192,108000,1,0,0:0:0:0:
448,192,108139,1,0,0:0:0:0:
320,192,108278,1,0,0:0:0:0:
64,192,108417,1,0,0:0:0:0:
320,192,108556,1,0,0:0:0:0:
448,192,108625,1,0,0:0:0:0:
320,192,108695,1,0,0:0:0:0:
192,192,108833,1,0,0:0:0:0:
448,192,108972,1,0,0:0:0:0:
64,192,108972,1,0,0:0:0:0:
192,192,109111,1,0,0:0:0:0:
320,192,109250,1,0,0:0:0:0:
448,192,109250,1,0,0:0:0:0:
64,192,109389,1,0,0:0:0:0:
192,192,109528,1,0,0:0:0:0:
320,192,109528,1,0,0:0:0:0:
64,192,109667,1,0,0:0:0:0:
64,192,109806,1,0,0:0:0:0:
448,192,109806,1,0,0:0:0:0:
320,192,109945,1,0,0:0:0:0:
448,192,109945,1,0,0:0:0:0:
64,192,110083,1,0,0:0:0:0:
192,192,110222,128,0,110361:0:0:0:0:
320,192,110500,128,0,110639:0:0:0:0:
448,192,110778,128,0,110917:0:0:0:0:
192,192,110917,128,0,111195:0:0:0:0:
64,192,111195,128,0,113417:0:0:0:0:
192,192,112306,1,0,0:0:0:0:
192,192,112583,1,0,0:0:0:0:
448,192,112722,1,0,0:0:0:0:
192,192,113000,1,0,0:0:0:0:
448,192,113139,128,0,113417:0:0:0:0:
320,192,113417,128,0,116750:0:0:0:0:
