osu file format v14

[General]
AudioFilename: audio.mp3
AudioLeadIn: 0
PreviewTime: -1
Countdown: 0
SampleSet: Normal
StackLeniency: 0.7
Mode: 1
LetterboxInBreaks: 0
WidescreenStoryboard: 1

[Editor]
DistanceSpacing: 0.7
BeatDivisor: 4
GridSize: 4
TimelineZoom: 2.1

[Metadata]
Title:Ooi
TitleUnicode:Ooi
Artist:O2i3
ArtistUnicode:O2i3
Creator:Reen
Version:Muzukashii
Source:
Tags:
BeatmapID:1011884
BeatmapSetID:473574

[Difficulty]
HPDrainRate:5
CircleSize:5
OverallDifficulty:4
ApproachRate:5
SliderMultiplier:1.4
SliderTickRate:1

[Events]
//Background and Video events
0,0,"Futuristic-Wallpaper.jpg",0,0
//Break Periods
//Storyboard Layer 0 (Background)
//Storyboard Layer 1 (Fail)
//Storyboard Layer 2 (Pass)
//Storyboard Layer 3 (Foreground)
//Storyboard Sound Samples

[TimingPoints]
1195,277.777777777778,4,1,0,100,1,0
78972,-100,4,1,0,100,0,1
104528,-100,4,1,0,100,0,0

[HitObjects]
256,192,2306,5,4,0:0:0:0:
256,192,2583,1,0,0:0:0:0:
256,192,2722,1,2,0:0:0:0:
256,192,3000,1,0,0:0:0:0:
256,192,3278,1,2,0:0:0:0:
256,192,3972,1,0,0:0:0:0:
256,192,4250,1,2,0:0:0:0:
256,192,4528,1,4,0:0:0:0:
256,192,4806,1,0,0:0:0:0:
256,192,5083,1,0,0:0:0:0:
256,192,5222,1,2,0:0:0:0:
256,192,5500,1,0,0:0:0:0:
256,192,6195,1,0,0:0:0:0:
256,192,6750,1,4,0:0:0:0:
256,192,7028,1,0,0:0:0:0:
256,192,7167,1,0,0:0:0:0:
256,192,7306,1,0,0:0:0:0:
256,192,7445,1,0,0:0:0:0:
256,192,7722,1,2,0:0:0:0:
256,192,8139,1,0,0:0:0:0:
256,192,8417,1,0,0:0:0:0:
256,192,8695,1,0,0:0:0:0:
256,192,8972,12,0,10639,0:0:0:0:
260,196,11195,5,0,0:0:0:0:
260,196,11333,1,0,0:0:0:0:
260,196,11472,1,0,0:0:0:0:
260,196,11611,1,0,0:0:0:0:
260,196,11750,1,0,0:0:0:0:
260,196,12028,1,0,0:0:0:0:
260,196,12306,1,0,0:0:0:0:
260,196,12583,1,2,0:0:0:0:
260,196,12861,1,0,0:0:0:0:
260,196,13139,1,0,0:0:0:0:
260,196,13417,1,0,0:0:0:0:
260,196,13556,1,0,0:0:0:0:
260,196,13695,1,2,0:0:0:0:
260,196,13833,1,0,0:0:0:0:
260,196,13972,1,0,0:0:0:0:
260,196,14250,1,2,0:0:0:0:
260,196,14528,1,0,0:0:0:0:
260,196,14806,1,0,0:0:0:0:
260,196,15083,1,6,0:0:0:0:
256,192,15639,1,0,0:0:0:0:
256,192,15778,1,0,0:0:0:0:
256,192,15917,1,0,0:0:0:0:
256,192,16056,1,0,0:0:0:0:
256,192,16195,1,0,0:0:0:0:
256,192,16472,1,0,0:0:0:0:
256,192,16750,1,0,0:0:0:0:
256,192,17028,1,2,0:0:0:0:
256,192,17306,1,0,0:0:0:0:
256,192,17583,1,0,0:0:0:0:
256,192,17861,1,0,0:0:0:0:
256,192,18000,1,0,0:0:0:0:
256,192,18139,1,2,0:0:0:0:
256,192,18278,1,0,0:0:0:0:
256,192,18417,1,0,0:0:0:0:
256,192,18972,1,0,0:0:0:0:
256,192,19111,1,2,0:0:0:0:
256,192,19250,1,0,0:0:0:0:
256,192,19389,1,2,0:0:0:0:
256,192,19528,1,0,0:0:0:0:
256,192,20083,1,0,0:0:0:0:
256,192,20361,1,0,0:0:0:0:
256,192,20639,1,2,0:0:0:0:
256,192,20917,1,0,0:0:0:0:
256,192,21195,1,0,0:0:0:0:
256,192,21472,1,0,0:0:0:0:
256,192,21750,1,2,0:0:0:0:
256,192,22028,1,0,0:0:0:0:
256,192,22306,1,0,0:0:0:0:
256,192,22583,1,0,0:0:0:0:
256,192,22861,1,2,0:0:0:0:
256,192,23000,1,0,0:0:0:0:
256,192,23278,1,0,0:0:0:0:
256,192,23556,1,0,0:0:0:0:
256,192,23833,1,0,0:0:0:0:
256,192,24111,1,0,0:0:0:0:
256,192,24528,1,0,0:0:0:0:
256,192,24806,1,0,0:0:0:0:
256,192,25083,1,0,0:0:0:0:
256,192,25222,1,0,0:0:0:0:
256,192,25361,1,2,0:0:0:0:
256,192,25639,1,0,0:0:0:0:
256,192,25917,1,0,0:0:0:0:
256,192,26195,1,2,0:0:0:0:
256,192,26333,1,0,0:0:0:0:
256,192,26472,1,0,0:0:0:0:
256,192,26750,1,2,0:0:0:0:
256,192,27028,1,0,0:0:0:0:
256,192,27306,1,2,0:0:0:0:
256,192,27445,1,2,0:0:0:0:
256,192,27583,1,2,0:0:0:0:
256,192,27861,1,0,0:0:0:0:
256,192,28139,1,0,0:0:0:0:
256,192,28417,1,2,0:0:0:0:
256,192,28695,1,0,0:0:0:0:
256,192,28972,1,0,0:0:0:0:
256,192,29111,1,0,0:0:0:0:
256,192,29250,1,0,0:0:0:0:
256,192,29389,1,0,0:0:0:0:
256,192,29528,1,2,0:0:0:0:
256,192,29806,1,0,0:0:0:0:
256,192,29945,1,0,0:0:0:0:
256,192,30083,1,2,0:0:0:0:
256,192,30222,1,0,0:0:0:0:
256,192,30361,1,0,0:0:0:0:
256,192,30500,1,0,0:0:0:0:
256,192,30639,1,2,0:0:0:0:
256,192,30917,1,0,0:0:0:0:
256,192,31195,1,0,0:0:0:0:
256,192,31334,1,0,0:0:0:0:
256,192,31473,1,0,0:0:0:0:
256,192,31612,1,0,0:0:0:0:
256,192,31751,1,2,0:0:0:0:
256,192,32028,1,2,0:0:0:0:
256,192,32167,1,2,0:0:0:0:
256,192,32306,1,2,0:0:0:0:
256,192,32445,1,0,0:0:0:0:
256,192,32583,1,0,0:0:0:0:
256,192,32722,1,0,0:0:0:0:
256,192,32861,1,0,0:0:0:0:
256,192,33139,1,0,0:0:0:0:
260,196,33417,1,0,0:0:0:0:
260,196,33556,1,0,0:0:0:0:
260,196,33695,1,2,0:0:0:0:
260,196,33833,1,0,0:0:0:0:
260,196,33972,1,0,0:0:0:0:
260,196,34250,1,0,0:0:0:0:
260,196,34528,1,2,0:0:0:0:
260,196,34806,1,0,0:0:0:0:
260,196,35083,1,2,0:0:0:0:
260,196,35361,1,0,0:0:0:0:
256,192,35639,12,0,37861,0:0:0:0:
256,192,38417,5,4,0:0:0:0:
256,192,38972,1,0,0:0:0:0:
256,192,39111,1,0,0:0:0:0:
256,192,39250,1,0,0:0:0:0:
256,192,39528,1,0,0:0:0:0:
256,192,39806,1,0,0:0:0:0:
256,192,40083,1,2,0:0:0:0:
256,192,40361,1,0,0:0:0:0:
256,192,40500,1,0,0:0:0:0:
256,192,40639,1,0,0:0:0:0:
256,192,40917,1,2,0:0:0:0:
256,192,41056,1,2,0:0:0:0:
256,192,41195,1,2,0:0:0:0:
256,192,41472,1,0,0:0:0:0:
256,192,41750,1,0,0:0:0:0:
256,192,41958,1,0,0:0:0:0:
256,192,42167,1,0,0:0:0:0:
256,192,42306,1,0,0:0:0:0:
256,192,42445,5,2,0:0:0:0:
256,192,42583,1,0,0:0:0:0:
256,192,42861,1,0,0:0:0:0:
256,192,43139,1,0,0:0:0:0:
256,192,43417,1,2,0:0:0:0:
256,192,43695,1,0,0:0:0:0:
256,192,43972,1,0,0:0:0:0:
256,192,44250,1,0,0:0:0:0:
256,192,44528,1,2,0:0:0:0:
256,192,44806,1,0,0:0:0:0:
256,192,45083,1,0,0:0:0:0:
256,192,45361,1,0,0:0:0:0:
256,192,45639,1,2,0:0:0:0:
256,192,45778,1,0,0:0:0:0:
256,192,45917,1,2,0:0:0:0:
256,192,46056,1,0,0:0:0:0:
256,192,46195,1,2,0:0:0:0:
256,192,46333,1,0,0:0:0:0:
256,192,46472,1,0,0:0:0:0:
256,192,46750,1,4,0:0:0:0:
256,192,47306,1,0,0:0:0:0:
256,192,47861,1,0,0:0:0:0:
256,192,48000,1,0,0:0:0:0:
256,192,48139,1,2,0:0:0:0:
264,192,48417,1,0,0:0:0:0:
264,192,48556,1,0,0:0:0:0:
256,192,48695,1,2,0:0:0:0:
256,192,48972,1,2,0:0:0:0:
256,192,49111,1,2,0:0:0:0:
256,192,49250,1,2,0:0:0:0:
252,192,49528,1,0,0:0:0:0:
256,192,49667,1,0,0:0:0:0:
256,192,49806,1,0,0:0:0:0:
256,192,50083,1,0,0:0:0:0:
256,192,50222,1,0,0:0:0:0:
252,192,50361,1,2,0:0:0:0:
256,192,50639,1,2,0:0:0:0:
256,192,50847,1,2,0:0:0:0:
256,192,51056,1,2,0:0:0:0:
256,192,51195,1,0,0:0:0:0:
252,192,51333,1,0,0:0:0:0:
256,192,51472,1,2,0:0:0:0:
256,192,51750,1,0,0:0:0:0:
256,192,51889,1,0,0:0:0:0:
256,192,52028,1,2,0:0:0:0:
252,192,52306,1,0,0:0:0:0:
256,192,52445,1,0,0:0:0:0:
256,192,52583,1,0,0:0:0:0:
256,192,52861,1,2,0:0:0:0:
256,192,53000,1,0,0:0:0:0:
256,192,53139,1,2,0:0:0:0:
256,192,53417,12,0,55083,0:0:0:0:
256,192,55639,5,0,0:0:0:0:
256,192,55778,1,0,0:0:0:0:
256,192,55917,1,0,0:0:0:0:
256,192,56195,1,0,0:0:0:0:
256,192,56333,1,0,0:0:0:0:
256,192,56472,1,0,0:0:0:0:
256,192,56750,1,0,0:0:0:0:
256,192,56889,1,0,0:0:0:0:
256,192,57028,1,2,0:0:0:0:
256,192,57306,1,2,0:0:0:0:
256,192,57445,1,0,0:0:0:0:
256,192,57583,1,2,0:0:0:0:
256,192,57861,1,0,0:0:0:0:
256,192,58000,1,0,0:0:0:0:
256,192,58139,1,0,0:0:0:0:
256,192,58417,1,0,0:0:0:0:
256,192,58556,1,0,0:0:0:0:
256,192,58695,1,2,0:0:0:0:
256,192,58972,1,2,0:0:0:0:
256,192,59111,1,2,0:0:0:0:
256,192,59250,1,2,0:0:0:0:
256,192,59528,1,4,0:0:0:0:
256,192,59667,1,0,0:0:0:0:
256,192,59806,1,0,0:0:0:0:
256,192,60083,1,2,0:0:0:0:
256,192,60222,1,2,0:0:0:0:
256,192,60361,1,2,0:0:0:0:
256,192,60639,1,0,0:0:0:0:
256,192,60778,1,0,0:0:0:0:
256,192,60917,1,2,0:0:0:0:
256,192,61195,1,0,0:0:0:0:
256,192,61472,1,2,0:0:0:0:
256,192,61750,1,0,0:0:0:0:
256,192,62028,1,2,0:0:0:0:
256,192,62306,1,0,0:0:0:0:
256,192,62445,1,0,0:0:0:0:
256,192,62583,1,0,0:0:0:0:
256,192,62861,1,0,0:0:0:0:
256,192,63139,1,2,0:0:0:0:
256,192,63417,1,2,0:0:0:0:
256,192,63556,1,0,0:0:0:0:
256,192,63695,1,2,0:0:0:0:
256,192,63833,1,0,0:0:0:0:
256,192,63972,1,4,0:0:0:0:
256,192,64667,1,0,0:0:0:0:
256,192,64945,1,0,0:0:0:0:
256,192,65222,1,2,0:0:0:0:
256,192,65500,1,0,0:0:0:0:
256,188,65778,1,0,0:0:0:0:
256,188,66056,1,2,0:0:0:0:
256,192,66333,1,0,0:0:0:0:
256,192,66472,1,0,0:0:0:0:
256,188,66750,1,0,0:0:0:0:
256,188,66889,1,0,0:0:0:0:
256,188,67028,1,0,0:0:0:0:
256,192,67167,1,2,0:0:0:0:
256,192,67445,1,2,0:0:0:0:
256,188,67722,1,2,0:0:0:0:
256,188,68000,1,2,0:0:0:0:
256,192,68278,1,2,0:0:0:0:
256,192,68417,1,0,0:0:0:0:
256,188,68556,1,2,0:0:0:0:
256,188,68695,1,0,0:0:0:0:
256,188,68972,5,0,0:0:0:0:
256,192,69250,1,0,0:0:0:0:
256,188,69528,1,0,0:0:0:0:
256,188,69806,1,0,0:0:0:0:
256,192,70083,1,2,0:0:0:0:
256,192,70222,1,0,0:0:0:0:
256,188,70361,1,2,0:0:0:0:
256,188,70500,1,0,0:0:0:0:
256,188,70639,1,2,0:0:0:0:
256,188,70778,1,0,0:0:0:0:
256,192,70917,1,2,0:0:0:0:
256,192,71056,1,0,0:0:0:0:
256,192,71195,1,0,0:0:0:0:
256,188,71472,1,0,0:0:0:0:
256,188,71750,1,0,0:0:0:0:
256,192,71889,1,0,0:0:0:0:
256,192,72028,1,2,0:0:0:0:
256,188,72306,1,2,0:0:0:0:
256,196,72583,1,0,0:0:0:0:
256,192,72861,1,0,0:0:0:0:
256,196,73139,1,2,0:0:0:0:
256,196,73417,1,4,0:0:0:0:
256,192,77861,1,4,0:0:0:0:
256,192,78139,1,2,0:0:0:0:
256,192,78417,1,0,0:0:0:0:
256,192,78556,1,0,0:0:0:0:
256,192,78695,1,2,0:0:0:0:
256,192,79111,1,0,0:0:0:0:
256,192,79389,1,0,0:0:0:0:
256,192,79667,1,0,0:0:0:0:
256,192,79945,1,0,0:0:0:0:
256,192,80083,1,2,0:0:0:0:
256,192,80361,1,2,0:0:0:0:
256,192,80639,1,2,0:0:0:0:
256,192,80778,1,2,0:0:0:0:
256,192,81056,1,0,0:0:0:0:
256,192,81333,1,0,0:0:0:0:
256,192,81611,1,0,0:0:0:0:
256,192,81889,1,0,0:0:0:0:
256,192,82306,1,0,0:0:0:0:
256,192,82583,1,0,0:0:0:0:
256,192,82861,1,0,0:0:0:0:
256,192,83000,1,0,0:0:0:0:
256,192,83139,1,0,0:0:0:0:
256,192,83417,1,0,0:0:0:0:
256,192,83695,1,0,0:0:0:0:
256,192,83972,1,2,0:0:0:0:
256,192,84111,1,2,0:0:0:0:
256,192,84250,1,2,0:0:0:0:
256,192,84528,1,0,0:0:0:0:
256,192,84806,1,2,0:0:0:0:
256,192,85083,1,0,0:0:0:0:
256,192,85222,1,2,0:0:0:0:
256,192,85500,1,0,0:0:0:0:
256,192,85778,1,0,0:0:0:0:
256,192,86056,1,0,0:0:0:0:
256,192,86195,1,0,0:0:0:0:
256,192,86333,1,0,0:0:0:0:
256,192,86472,1,0,0:0:0:0:
256,192,86750,1,4,0:0:0:0:
256,192,87028,1,0,0:0:0:0:
256,192,87306,1,2,0:0:0:0:
256,192,87445,1,2,0:0:0:0:
256,192,87583,1,2,0:0:0:0:
256,192,87861,1,2,0:0:0:0:
256,192,88139,1,0,0:0:0:0:
256,192,88417,1,0,0:0:0:0:
256,192,88556,1,0,0:0:0:0:
256,192,88695,1,0,0:0:0:0:
256,192,88972,1,2,0:0:0:0:
256,192,89250,1,2,0:0:0:0:
256,192,89528,1,0,0:0:0:0:
256,192,89667,1,0,0:0:0:0:
256,192,89806,1,2,0:0:0:0:
256,192,89945,1,0,0:0:0:0:
256,192,90222,1,2,0:0:0:0:
256,192,90500,1,2,0:0:0:0:
256,192,90778,1,2,0:0:0:0:
256,192,91195,1,0,0:0:0:0:
256,192,91472,1,0,0:0:0:0:
256,192,91750,1,0,0:0:0:0:
256,192,91889,1,0,0:0:0:0:
256,192,92028,1,2,0:0:0:0:
256,192,92306,1,2,0:0:0:0:
256,192,92583,1,2,0:0:0:0:
256,192,92861,1,2,0:0:0:0:
256,192,93000,1,2,0:0:0:0:
256,192,93139,1,2,0:0:0:0:
256,192,93417,1,0,0:0:0:0:
256,192,93695,1,2,0:0:0:0:
256,192,93972,1,2,0:0:0:0:
256,192,94111,1,2,0:0:0:0:
256,192,94389,1,2,0:0:0:0:
256,192,95083,1,0,0:0:0:0:
256,192,95222,1,0,0:0:0:0:
256,192,95361,1,0,0:0:0:0:
256,192,95639,1,4,0:0:0:0:
256,192,95917,1,2,0:0:0:0:
256,192,96056,1,2,0:0:0:0:
256,192,96195,1,2,0:0:0:0:
256,192,96333,1,2,0:0:0:0:
256,192,96403,1,2,0:0:0:0:
256,192,96472,1,2,0:0:0:0:
256,192,97028,1,2,0:0:0:0:
256,192,97306,1,2,0:0:0:0:
256,192,97583,1,0,0:0:0:0:
256,192,97861,1,0,0:0:0:0:
256,192,98139,1,2,0:0:0:0:
256,192,98556,1,2,0:0:0:0:
256,192,98833,1,0,0:0:0:0:
256,192,98972,1,2,0:0:0:0:
256,192,99250,1,0,0:0:0:0:
256,192,99528,1,2,0:0:0:0:
256,192,99806,1,2,0:0:0:0:
256,192,100083,1,0,0:0:0:0:
256,192,100222,1,0,0:0:0:0:
256,192,100361,1,0,0:0:0:0:
256,192,100500,1,0,0:0:0:0:
256,192,100639,1,0,0:0:0:0:
256,192,100778,1,0,0:0:0:0:
256,192,100917,1,0,0:0:0:0:
256,192,100986,1,0,0:0:0:0:
256,192,101056,1,0,0:0:0:0:
256,192,101472,1,2,0:0:0:0:
256,192,101750,1,0,0:0:0:0:
256,192,102028,1,0,0:0:0:0:
256,192,102306,1,0,0:0:0:0:
256,192,102445,1,0,0:0:0:0:
256,184,102583,1,0,0:0:0:0:
256,184,102861,1,0,0:0:0:0:
256,184,103139,1,2,0:0:0:0:
256,184,103417,1,0,0:0:0:0:
256,184,103695,1,0,0:0:0:0:
256,184,103972,1,2,0:0:0:0:
256,184,104250,1,0,0:0:0:0:
256,184,104528,1,0,0:0:0:0:
256,184,104667,1,0,0:0:0:0:
256,184,104806,1,2,0:0:0:0:
256,184,104945,1,0,0:0:0:0:
256,184,105083,1,0,0:0:0:0:
248,180,105361,1,0,0:0:0:0:
248,180,105500,1,2,0:0:0:0:
248,180,105639,1,0,0:0:0:0:
248,180,105778,1,2,0:0:0:0:
248,180,105917,1,0,0:0:0:0:
248,180,106056,1,0,0:0:0:0:
248,180,106195,1,2,0:0:0:0:
256,188,106472,1,0,0:0:0:0:
256,188,106750,1,0,0:0:0:0:
256,188,106889,1,2,0:0:0:0:
256,188,107028,1,0,0:0:0:0:
252,188,107167,1,2,0:0:0:0:
256,188,107306,1,2,0:0:0:0:
256,188,107583,1,2,0:0:0:0:
256,188,107722,1,2,0:0:0:0:
256,188,107861,1,0,0:0:0:0:
256,188,108000,1,2,0:0:0:0:
252,188,108139,1,0,0:0:0:0:
256,188,108278,1,0,0:0:0:0:
256,188,108417,1,0,0:0:0:0:
248,184,108695,1,0,0:0:0:0:
248,184,108972,1,0,0:0:0:0:
248,184,109111,1,0,0:0:0:0:
248,184,109250,1,2,0:0:0:0:
248,184,109389,1,0,0:0:0:0:
248,184,109528,1,0,0:0:0:0:
248,184,109806,1,2,0:0:0:0:
248,184,109945,1,0,0:0:0:0:
248,184,110083,1,2,0:0:0:0:
248,184,110222,1,0,0:0:0:0:
248,184,110361,1,0,0:0:0:0:
248,184,110500,1,2,0:0:0:0:
248,184,110639,1,0,0:0:0:0:
248,184,110778,1,0,0:0:0:0:
248,184,110917,1,2,0:0:0:0:
248,184,111056,1,0,0:0:0:0:
248,184,111195,1,4,0:0:0:0:
256,192,112306,1,2,0:0:0:0:
256,192,112445,1,0,0:0:0:0:
256,192,112583,1,0,0:0:0:0:
256,192,112722,1,0,0:0:0:0:
256,192,112861,1,2,0:0:0:0:
256,192,113000,1,0,0:0:0:0:
256,192,113139,1,0,0:0:0:0:
256,192,113417,12,0,116750,0:0:0:0:
