osu file format v14

[General]
AudioFilename: audio.mp3
AudioLeadIn: 0
PreviewTime: -1
Countdown: 0
SampleSet: Normal
StackLeniency: 0.7
Mode: 1
LetterboxInBreaks: 0
WidescreenStoryboard: 1

[Editor]
DistanceSpacing: 0.7
BeatDivisor: 2
GridSize: 4
TimelineZoom: 2.1

[Metadata]
Title:Ooi
TitleUnicode:Ooi
Artist:O2i3
ArtistUnicode:O2i3
Creator:Reen
Version:Kantan
Source:
Tags:
BeatmapID:1011883
BeatmapSetID:473574

[Difficulty]
HPDrainRate:3
CircleSize:5
OverallDifficulty:3
ApproachRate:5
SliderMultiplier:1
SliderTickRate:1

[Events]
//Background and Video events
0,0,"Futuristic-Wallpaper.jpg",0,0
//Break Periods
2,73617,76661
//Storyboard Layer 0 (Background)
//Storyboard Layer 1 (Fail)
//Storyboard Layer 2 (Pass)
//Storyboard Layer 3 (Foreground)
//Storyboard Sound Samples

[TimingPoints]
1195,277.777777777778,4,1,0,100,1,0
78972,-100,4,1,0,100,0,1
104528,-100,4,1,0,100,0,0

[HitObjects]
256,192,2306,5,4,0:0:0:0:
256,192,4528,1,4,0:0:0:0:
256,192,6750,1,4,0:0:0:0:
256,192,8972,12,0,10639,0:0:0:0:
256,192,11195,5,0,0:0:0:0:
256,192,11472,1,0,0:0:0:0:
256,192,11750,1,0,0:0:0:0:
256,192,13417,1,0,0:0:0:0:
256,192,13695,1,2,0:0:0:0:
256,192,13972,5,0,0:0:0:0:
256,192,15083,1,6,0:0:0:0:
256,192,15639,1,0,0:0:0:0:
256,192,15917,1,0,0:0:0:0:
256,192,16195,1,2,0:0:0:0:
256,192,17861,1,0,0:0:0:0:
256,192,18139,1,2,0:0:0:0:
256,192,18417,1,0,0:0:0:0:
256,192,18972,1,0,0:0:0:0:
256,192,19250,1,0,0:0:0:0:
256,192,19528,1,2,0:0:0:0:
256,192,20083,1,0,0:0:0:0:
256,192,20361,1,0,0:0:0:0:
256,192,20639,1,0,0:0:0:0:
256,192,21195,1,0,0:0:0:0:
256,192,21472,1,2,0:0:0:0:
256,192,21750,1,0,0:0:0:0:
256,192,22306,1,0,0:0:0:0:
256,192,22583,1,0,0:0:0:0:
256,192,22861,1,2,0:0:0:0:
256,192,23417,1,0,0:0:0:0:
256,192,23972,1,0,0:0:0:0:
256,192,24528,1,2,0:0:0:0:
256,192,24806,1,0,0:0:0:0:
256,192,25083,1,2,0:0:0:0:
256,192,25639,1,2,0:0:0:0:
256,192,25917,1,2,0:0:0:0:
256,192,26195,1,2,0:0:0:0:
256,192,26750,1,0,0:0:0:0:
256,192,27028,1,0,0:0:0:0:
256,192,27306,1,2,0:0:0:0:
256,192,27861,1,2,0:0:0:0:
256,192,28417,1,2,0:0:0:0:
256,192,28972,1,0,0:0:0:0:
256,192,29250,1,0,0:0:0:0:
256,192,29528,1,2,0:0:0:0:
256,192,30083,1,0,0:0:0:0:
256,192,30361,1,0,0:0:0:0:
256,192,30639,1,0,0:0:0:0:
256,192,31195,1,0,0:0:0:0:
256,192,31472,1,2,0:0:0:0:
256,192,31750,1,2,0:0:0:0:
256,192,32306,1,0,0:0:0:0:
256,192,32583,1,0,0:0:0:0:
256,192,32861,1,2,0:0:0:0:
256,192,33417,1,2,0:0:0:0:
256,192,33695,1,0,0:0:0:0:
256,192,33972,1,0,0:0:0:0:
256,192,34528,1,2,0:0:0:0:
256,192,34806,1,0,0:0:0:0:
256,192,35083,1,2,0:0:0:0:
256,192,35639,12,0,37861,0:0:0:0:
256,192,38417,5,4,0:0:0:0:
256,192,38972,1,0,0:0:0:0:
256,192,39528,1,2,0:0:0:0:
256,192,40083,1,0,0:0:0:0:
256,192,40639,1,0,0:0:0:0:
256,192,41195,1,2,0:0:0:0:
256,192,41750,1,0,0:0:0:0:
256,192,42306,1,0,0:0:0:0:
256,192,42861,1,0,0:0:0:0:
256,192,43417,1,2,0:0:0:0:
256,192,43972,1,2,0:0:0:0:
256,192,44528,1,0,0:0:0:0:
256,192,45083,1,0,0:0:0:0:
256,192,45639,1,0,0:0:0:0:
256,192,46195,1,2,0:0:0:0:
256,192,46750,1,0,0:0:0:0:
256,192,47306,1,0,0:0:0:0:
256,192,47861,1,0,0:0:0:0:
256,192,48417,1,0,0:0:0:0:
256,192,48972,1,0,0:0:0:0:
256,192,49528,1,0,0:0:0:0:
256,192,50083,1,0,0:0:0:0:
256,192,50361,1,0,0:0:0:0:
256,192,50639,1,0,0:0:0:0:
256,192,51195,1,4,0:0:0:0:
256,192,51750,1,0,0:0:0:0:
256,192,52306,1,0,0:0:0:0:
256,192,52861,1,0,0:0:0:0:
256,192,53417,12,0,55083,0:0:0:0:
256,192,55639,5,0,0:0:0:0:
256,192,55917,1,0,0:0:0:0:
256,192,57861,1,0,0:0:0:0:
256,192,58139,1,2,0:0:0:0:
256,192,59528,1,4,0:0:0:0:
256,192,60083,1,2,0:0:0:0:
256,192,60361,1,2,0:0:0:0:
256,192,62306,1,2,0:0:0:0:
256,192,62583,1,0,0:0:0:0:
256,192,63417,1,0,0:0:0:0:
256,192,63695,1,0,0:0:0:0:
256,192,63972,1,2,0:0:0:0:
256,192,64528,1,0,0:0:0:0:
256,192,65083,1,0,0:0:0:0:
256,192,65639,1,2,0:0:0:0:
256,192,65917,1,2,0:0:0:0:
256,192,66195,1,0,0:0:0:0:
256,192,66750,1,0,0:0:0:0:
256,192,67306,1,0,0:0:0:0:
256,192,67861,1,2,0:0:0:0:
256,192,68139,1,0,0:0:0:0:
256,192,68417,1,2,0:0:0:0:
256,192,68972,1,2,0:0:0:0:
256,192,69528,1,2,0:0:0:0:
256,192,70083,1,0,0:0:0:0:
256,192,70361,1,0,0:0:0:0:
256,192,70639,1,0,0:0:0:0:
256,192,71195,2,0,L|116:192,8,100
256,192,77861,5,2,0:0:0:0:
256,192,78417,1,2,0:0:0:0:
256,192,78972,1,4,0:0:0:0:
256,192,79528,1,0,0:0:0:0:
256,192,80083,1,0,0:0:0:0:
256,192,80361,1,0,0:0:0:0:
256,192,80639,1,2,0:0:0:0:
256,192,81195,1,0,0:0:0:0:
256,192,81750,1,2,0:0:0:0:
256,192,82306,1,0,0:0:0:0:
256,192,82583,1,2,0:0:0:0:
256,192,82861,1,0,0:0:0:0:
256,192,83417,1,0,0:0:0:0:
256,192,83695,1,0,0:0:0:0:
256,192,83972,1,2,0:0:0:0:
256,192,84528,1,2,0:0:0:0:
256,192,84806,1,0,0:0:0:0:
256,192,85083,1,2,0:0:0:0:
256,192,85639,1,2,0:0:0:0:
256,192,86195,1,0,0:0:0:0:
256,192,86750,1,0,0:0:0:0:
256,192,87028,1,0,0:0:0:0:
256,192,87306,1,2,0:0:0:0:
256,192,87861,1,0,0:0:0:0:
256,192,88139,1,0,0:0:0:0:
256,192,88417,1,0,0:0:0:0:
256,192,88972,1,2,0:0:0:0:
256,192,89250,1,0,0:0:0:0:
256,192,89528,1,2,0:0:0:0:
256,192,90083,1,0,0:0:0:0:
256,192,90639,1,0,0:0:0:0:
256,192,91195,1,2,0:0:0:0:
256,192,91472,1,2,0:0:0:0:
256,192,91750,1,2,0:0:0:0:
256,192,92306,1,0,0:0:0:0:
256,192,92583,1,2,0:0:0:0:
256,192,92861,1,0,0:0:0:0:
256,192,93417,1,0,0:0:0:0:
256,192,93695,1,0,0:0:0:0:
256,192,93972,1,2,0:0:0:0:
256,192,94528,12,0,95361,0:0:0:0:
256,192,95639,6,0,L|60:192,3,150
256,192,97028,1,0,0:0:0:0:
256,192,97306,1,0,0:0:0:0:
256,192,97583,1,0,0:0:0:0:
256,192,98556,1,0,0:0:0:0:
256,192,98972,1,2,0:0:0:0:
256,192,99250,1,0,0:0:0:0:
256,192,99528,1,2,0:0:0:0:
256,192,99806,1,2,0:0:0:0:
260,192,101056,1,0,0:0:0:0:
260,192,101472,1,0,0:0:0:0:
260,192,101750,1,0,0:0:0:0:
260,192,102028,1,0,0:0:0:0:
256,192,103417,1,0,0:0:0:0:
256,192,103695,1,2,0:0:0:0:
256,192,103972,1,0,0:0:0:0:
256,192,104528,1,0,0:0:0:0:
256,192,104806,1,0,0:0:0:0:
256,192,105083,1,2,0:0:0:0:
256,192,105639,1,2,0:0:0:0:
256,192,105917,1,2,0:0:0:0:
256,192,106195,1,0,0:0:0:0:
256,192,106750,1,2,0:0:0:0:
256,192,107028,1,2,0:0:0:0:
256,192,107306,1,2,0:0:0:0:
256,192,107861,1,2,0:0:0:0:
256,192,108139,1,0,0:0:0:0:
256,192,108417,1,2,0:0:0:0:
256,192,108972,1,0,0:0:0:0:
256,192,109250,1,0,0:0:0:0:
256,192,109528,1,0,0:0:0:0:
256,192,110083,1,0,0:0:0:0:
256,192,110361,1,0,0:0:0:0:
256,192,110639,1,2,0:0:0:0:
256,192,111195,12,0,113417,0:0:0:0:
256,192,116750,5,4,0:0:0:0:
