osu file format v14

[General]
AudioFilename: audio.mp3
AudioLeadIn: 0
PreviewTime: -1
Countdown: 0
SampleSet: Normal
StackLeniency: 0.7
Mode: 1
LetterboxInBreaks: 0
WidescreenStoryboard: 1

[Editor]
DistanceSpacing: 0.7
BeatDivisor: 4
GridSize: 4
TimelineZoom: 3.399999

[Metadata]
Title:Ooi
TitleUnicode:Ooi
Artist:O2i3
ArtistUnicode:O2i3
Creator:Reen
Version:Insane Special Taiko
Source:
Tags:
BeatmapID:1013326
BeatmapSetID:473574

[Difficulty]
HPDrainRate:5
CircleSize:5
OverallDifficulty:6
ApproachRate:5
SliderMultiplier:1.4
SliderTickRate:1

[Events]
//Background and Video events
0,0,"Futuristic-Wallpaper.jpg",0,0
//Break Periods
//Storyboard Layer 0 (Background)
//Storyboard Layer 1 (Fail)
//Storyboard Layer 2 (Pass)
//Storyboard Layer 3 (Foreground)
//Storyboard Sound Samples

[TimingPoints]
1195,277.777777777778,4,1,0,100,1,0
78972,-100,4,1,0,100,0,1
104528,-100,4,1,0,100,0,0

[HitObjects]
256,192,2306,5,4,0:0:0:0:
256,192,2583,1,0,0:0:0:0:
256,192,2722,1,2,0:0:0:0:
256,192,3000,1,0,0:0:0:0:
256,192,3278,1,2,0:0:0:0:
256,192,3972,1,2,0:0:0:0:
256,192,4250,1,0,0:0:0:0:
256,192,4528,1,4,0:0:0:0:
256,192,4806,1,2,0:0:0:0:
256,192,5083,1,0,0:0:0:0:
256,192,5222,1,0,0:0:0:0:
256,192,5500,1,0,0:0:0:0:
256,192,6195,1,0,0:0:0:0:
256,192,6750,1,4,0:0:0:0:
256,192,7028,1,0,0:0:0:0:
256,192,7167,1,0,0:0:0:0:
256,192,7306,1,0,0:0:0:0:
256,192,7445,1,0,0:0:0:0:
256,192,7722,1,0,0:0:0:0:
256,192,8139,1,0,0:0:0:0:
256,192,8417,1,0,0:0:0:0:
256,192,8695,1,0,0:0:0:0:
256,192,8972,12,0,10639,0:0:0:0:
256,192,11195,5,0,0:0:0:0:
256,192,11333,1,0,0:0:0:0:
256,192,11472,1,2,0:0:0:0:
256,192,11611,1,0,0:0:0:0:
256,192,11750,1,0,0:0:0:0:
256,192,11889,1,0,0:0:0:0:
256,192,12028,1,2,0:0:0:0:
256,192,12167,1,0,0:0:0:0:
256,192,12306,1,0,0:0:0:0:
256,192,12445,1,0,0:0:0:0:
256,192,12583,1,2,0:0:0:0:
256,192,12722,1,0,0:0:0:0:
256,192,12861,1,0,0:0:0:0:
256,192,13000,1,0,0:0:0:0:
256,192,13139,1,2,0:0:0:0:
256,192,13417,1,0,0:0:0:0:
256,192,13556,1,0,0:0:0:0:
256,192,13695,1,0,0:0:0:0:
256,192,13833,1,0,0:0:0:0:
256,192,13972,1,2,0:0:0:0:
256,192,14111,1,0,0:0:0:0:
256,192,14250,1,2,0:0:0:0:
256,192,14389,1,0,0:0:0:0:
256,192,14528,1,2,0:0:0:0:
256,192,14667,1,0,0:0:0:0:
256,192,14806,1,0,0:0:0:0:
256,192,14945,1,2,0:0:0:0:
256,192,15083,1,4,0:0:0:0:
256,192,15639,1,2,0:0:0:0:
256,192,15778,1,0,0:0:0:0:
256,192,15917,1,2,0:0:0:0:
256,192,16056,1,0,0:0:0:0:
256,192,16195,1,0,0:0:0:0:
256,192,16333,1,0,0:0:0:0:
256,192,16472,1,2,0:0:0:0:
256,192,16611,1,0,0:0:0:0:
256,192,16750,1,2,0:0:0:0:
256,192,16889,1,0,0:0:0:0:
256,192,17028,1,2,0:0:0:0:
256,192,17167,1,0,0:0:0:0:
256,192,17306,1,0,0:0:0:0:
256,192,17445,1,0,0:0:0:0:
256,192,17583,1,2,0:0:0:0:
256,192,17861,1,0,0:0:0:0:
256,192,18000,1,0,0:0:0:0:
256,192,18139,1,2,0:0:0:0:
256,192,18278,1,0,0:0:0:0:
256,192,18417,1,0,0:0:0:0:
256,192,18695,1,0,0:0:0:0:
256,192,18972,1,2,0:0:0:0:
256,192,19111,1,0,0:0:0:0:
256,192,19250,1,2,0:0:0:0:
256,192,19389,1,0,0:0:0:0:
256,192,19528,1,4,0:0:0:0:
256,192,19806,1,0,0:0:0:0:
256,192,20083,1,4,0:0:0:0:
256,192,20222,1,2,0:0:0:0:
256,192,20361,1,0,0:0:0:0:
256,192,20500,1,2,0:0:0:0:
256,192,20639,1,0,0:0:0:0:
256,192,20778,1,0,0:0:0:0:
256,192,20917,1,0,0:0:0:0:
256,192,21056,1,0,0:0:0:0:
256,192,21125,1,0,0:0:0:0:
256,192,21195,1,0,0:0:0:0:
256,192,21333,1,0,0:0:0:0:
256,192,21472,1,0,0:0:0:0:
256,192,21542,1,0,0:0:0:0:
256,192,21611,1,0,0:0:0:0:
256,192,21750,1,0,0:0:0:0:
256,192,21889,1,2,0:0:0:0:
256,192,22028,1,0,0:0:0:0:
256,192,22306,1,0,0:0:0:0:
256,192,22445,1,2,0:0:0:0:
256,192,22583,1,0,0:0:0:0:
256,192,22722,1,0,0:0:0:0:
256,192,22861,1,0,0:0:0:0:
256,192,23000,1,2,0:0:0:0:
256,192,23139,1,0,0:0:0:0:
256,192,23278,1,0,0:0:0:0:
256,192,23347,1,0,0:0:0:0:
256,192,23417,1,2,0:0:0:0:
256,192,23556,1,2,0:0:0:0:
256,192,23625,1,0,0:0:0:0:
256,192,23695,1,0,0:0:0:0:
256,192,23833,1,2,0:0:0:0:
256,192,23903,1,2,0:0:0:0:
256,192,23972,1,0,0:0:0:0:
256,192,24111,1,2,0:0:0:0:
256,192,24250,1,0,0:0:0:0:
256,192,24528,1,0,0:0:0:0:
256,192,24667,1,0,0:0:0:0:
256,192,24806,1,0,0:0:0:0:
256,192,24945,1,0,0:0:0:0:
256,192,25083,1,2,0:0:0:0:
256,192,25222,1,0,0:0:0:0:
256,192,25361,1,0,0:0:0:0:
256,192,25500,1,2,0:0:0:0:
256,192,25639,1,0,0:0:0:0:
256,192,25778,1,2,0:0:0:0:
256,192,25917,1,0,0:0:0:0:
256,192,26056,1,2,0:0:0:0:
256,192,26195,1,0,0:0:0:0:
256,192,26333,1,2,0:0:0:0:
260,188,26472,1,0,0:0:0:0:
260,188,26750,1,2,0:0:0:0:
260,188,26889,1,0,0:0:0:0:
260,188,27028,1,2,0:0:0:0:
260,188,27167,1,0,0:0:0:0:
260,188,27306,1,0,0:0:0:0:
260,188,27445,1,2,0:0:0:0:
260,188,27583,1,0,0:0:0:0:
260,188,27722,1,2,0:0:0:0:
260,188,27792,1,2,0:0:0:0:
260,188,27861,1,0,0:0:0:0:
260,188,28000,1,0,0:0:0:0:
260,188,28070,1,0,0:0:0:0:
260,188,28139,1,2,0:0:0:0:
260,188,28278,1,2,0:0:0:0:
260,188,28347,1,0,0:0:0:0:
260,188,28417,1,2,0:0:0:0:
260,188,28556,1,0,0:0:0:0:
260,188,28625,1,0,0:0:0:0:
260,188,28695,1,2,0:0:0:0:
260,188,28972,1,0,0:0:0:0:
260,188,29111,1,0,0:0:0:0:
260,188,29250,1,2,0:0:0:0:
260,188,29389,1,0,0:0:0:0:
260,188,29528,1,0,0:0:0:0:
260,188,29667,1,0,0:0:0:0:
260,188,29806,1,2,0:0:0:0:
260,188,29945,1,0,0:0:0:0:
260,188,30083,1,2,0:0:0:0:
260,188,30222,1,0,0:0:0:0:
260,188,30361,1,0,0:0:0:0:
260,188,30500,1,0,0:0:0:0:
260,188,30639,1,2,0:0:0:0:
260,188,30778,1,0,0:0:0:0:
260,188,30847,1,0,0:0:0:0:
260,188,30917,1,2,0:0:0:0:
260,188,31195,1,2,0:0:0:0:
260,188,31333,1,0,0:0:0:0:
260,188,31472,1,2,0:0:0:0:
260,188,31611,1,0,0:0:0:0:
260,188,31750,1,0,0:0:0:0:
260,188,31889,1,0,0:0:0:0:
260,188,32028,1,2,0:0:0:0:
260,188,32167,1,0,0:0:0:0:
260,188,32306,1,0,0:0:0:0:
260,188,32445,1,0,0:0:0:0:
260,188,32514,1,0,0:0:0:0:
260,188,32583,1,2,0:0:0:0:
260,188,32722,1,2,0:0:0:0:
260,188,32861,1,0,0:0:0:0:
260,188,33000,1,2,0:0:0:0:
260,188,33070,1,0,0:0:0:0:
260,188,33139,1,0,0:0:0:0:
260,188,33278,1,2,0:0:0:0:
260,188,33417,1,0,0:0:0:0:
260,188,33556,1,0,0:0:0:0:
260,188,33695,1,0,0:0:0:0:
260,188,33833,1,0,0:0:0:0:
260,188,33972,1,2,0:0:0:0:
260,188,34111,1,0,0:0:0:0:
260,188,34250,1,2,0:0:0:0:
260,188,34389,1,0,0:0:0:0:
260,188,34528,1,0,0:0:0:0:
260,188,34667,1,0,0:0:0:0:
260,188,34806,1,2,0:0:0:0:
260,188,34945,1,0,0:0:0:0:
260,188,35083,1,0,0:0:0:0:
260,188,35222,1,0,0:0:0:0:
260,188,35361,1,2,0:0:0:0:
260,188,35639,1,4,0:0:0:0:
256,192,36750,1,2,0:0:0:0:
256,192,36889,1,0,0:0:0:0:
256,192,37028,1,2,0:0:0:0:
256,192,37167,1,0,0:0:0:0:
256,192,37306,1,0,0:0:0:0:
256,192,37445,1,0,0:0:0:0:
256,192,37583,1,2,0:0:0:0:
256,192,37722,1,0,0:0:0:0:
256,192,37861,1,4,0:0:0:0:
256,192,38417,1,4,0:0:0:0:
264,192,38833,1,0,0:0:0:0:
264,192,38903,1,0,0:0:0:0:
264,192,38972,1,2,0:0:0:0:
256,192,39111,1,0,0:0:0:0:
256,192,39250,1,2,0:0:0:0:
256,192,39389,1,0,0:0:0:0:
260,192,39528,1,0,0:0:0:0:
260,192,39667,1,0,0:0:0:0:
260,192,39806,1,2,0:0:0:0:
256,192,39945,1,0,0:0:0:0:
256,192,40083,1,2,0:0:0:0:
256,192,40222,1,0,0:0:0:0:
256,192,40361,1,0,0:0:0:0:
252,192,40500,1,0,0:0:0:0:
252,192,40639,1,2,0:0:0:0:
248,192,40778,1,0,0:0:0:0:
248,192,40917,1,0,0:0:0:0:
248,192,41056,1,0,0:0:0:0:
248,192,41195,1,2,0:0:0:0:
244,192,41333,1,2,0:0:0:0:
244,192,41403,1,0,0:0:0:0:
248,192,41472,1,0,0:0:0:0:
252,192,41611,1,2,0:0:0:0:
248,192,41681,1,0,0:0:0:0:
248,192,41750,1,0,0:0:0:0:
256,192,41958,1,0,0:0:0:0:
256,192,42167,1,0,0:0:0:0:
256,192,42306,1,0,0:0:0:0:
256,192,42445,1,0,0:0:0:0:
252,192,42583,1,2,0:0:0:0:
248,192,42722,1,2,0:0:0:0:
256,192,42861,1,2,0:0:0:0:
256,192,43000,1,0,0:0:0:0:
256,192,43139,1,0,0:0:0:0:
256,192,43278,1,0,0:0:0:0:
256,192,43417,1,2,0:0:0:0:
252,192,43556,1,2,0:0:0:0:
248,192,43695,1,2,0:0:0:0:
256,192,43833,1,0,0:0:0:0:
256,192,43972,1,0,0:0:0:0:
256,192,44111,1,0,0:0:0:0:
256,192,44250,1,2,0:0:0:0:
256,192,44389,1,0,0:0:0:0:
252,192,44528,1,0,0:0:0:0:
252,192,44667,1,0,0:0:0:0:
256,192,44736,1,0,0:0:0:0:
256,192,44806,1,2,0:0:0:0:
256,192,44945,1,0,0:0:0:0:
256,192,45014,1,2,0:0:0:0:
256,192,45083,1,0,0:0:0:0:
256,192,45222,1,0,0:0:0:0:
256,192,45361,1,0,0:0:0:0:
252,192,45500,1,0,0:0:0:0:
256,192,45639,1,2,0:0:0:0:
256,192,45778,1,0,0:0:0:0:
256,192,45917,1,2,0:0:0:0:
256,192,46056,1,0,0:0:0:0:
256,192,46195,1,0,0:0:0:0:
256,192,46333,1,2,0:0:0:0:
252,192,46472,1,2,0:0:0:0:
256,192,46611,1,0,0:0:0:0:
256,192,46750,1,4,0:0:0:0:
256,188,47861,1,0,0:0:0:0:
256,188,48000,1,0,0:0:0:0:
256,188,48139,1,2,0:0:0:0:
256,188,48278,1,0,0:0:0:0:
256,188,48417,1,0,0:0:0:0:
256,188,48556,1,0,0:0:0:0:
256,188,48695,1,2,0:0:0:0:
256,188,48833,1,0,0:0:0:0:
256,188,48972,1,0,0:0:0:0:
256,188,49111,1,0,0:0:0:0:
256,188,49250,1,2,0:0:0:0:
256,188,49389,1,0,0:0:0:0:
256,188,49528,1,0,0:0:0:0:
256,188,49667,1,0,0:0:0:0:
256,188,49806,1,2,0:0:0:0:
256,188,49945,1,0,0:0:0:0:
256,188,50083,1,0,0:0:0:0:
256,188,50222,1,0,0:0:0:0:
256,188,50292,1,0,0:0:0:0:
256,188,50361,1,2,0:0:0:0:
256,188,50500,1,2,0:0:0:0:
256,188,50570,1,2,0:0:0:0:
256,188,50639,1,0,0:0:0:0:
256,188,50847,1,0,0:0:0:0:
256,188,51056,1,0,0:0:0:0:
256,188,51195,1,4,0:0:0:0:
256,188,51333,1,0,0:0:0:0:
256,188,51472,1,2,0:0:0:0:
256,188,51611,1,0,0:0:0:0:
256,188,51750,1,0,0:0:0:0:
256,188,51889,1,0,0:0:0:0:
256,188,52028,1,2,0:0:0:0:
256,188,52167,1,0,0:0:0:0:
256,188,52306,1,0,0:0:0:0:
256,188,52445,1,0,0:0:0:0:
256,188,52583,1,2,0:0:0:0:
256,188,52722,1,0,0:0:0:0:
256,188,52861,1,0,0:0:0:0:
256,188,52931,1,2,0:0:0:0:
256,188,53000,1,0,0:0:0:0:
256,188,53070,1,2,0:0:0:0:
256,188,53139,1,2,0:0:0:0:
256,188,53278,1,0,0:0:0:0:
256,188,53417,1,6,0:0:0:0:
256,188,55639,1,4,0:0:0:0:
256,188,55778,1,0,0:0:0:0:
256,188,55917,1,0,0:0:0:0:
256,188,56056,1,2,0:0:0:0:
256,188,56195,1,0,0:0:0:0:
256,188,56333,1,0,0:0:0:0:
256,188,56472,1,2,0:0:0:0:
256,188,56611,1,0,0:0:0:0:
256,188,56750,1,0,0:0:0:0:
256,188,56889,1,0,0:0:0:0:
256,188,56958,1,0,0:0:0:0:
256,188,57028,1,2,0:0:0:0:
256,188,57167,1,0,0:0:0:0:
256,188,57306,1,0,0:0:0:0:
256,188,57375,1,2,0:0:0:0:
256,188,57445,1,2,0:0:0:0:
256,188,57514,1,0,0:0:0:0:
256,188,57583,1,2,0:0:0:0:
256,188,57722,1,0,0:0:0:0:
256,188,57861,1,4,0:0:0:0:
256,188,58000,1,0,0:0:0:0:
256,188,58139,1,0,0:0:0:0:
256,188,58278,1,2,0:0:0:0:
256,188,58417,1,2,0:0:0:0:
256,188,58556,1,0,0:0:0:0:
256,188,58695,1,2,0:0:0:0:
256,188,58833,1,0,0:0:0:0:
256,188,58972,1,2,0:0:0:0:
256,188,59111,1,2,0:0:0:0:
256,188,59250,1,0,0:0:0:0:
256,188,59389,1,0,0:0:0:0:
256,188,59528,1,6,0:0:0:0:
256,188,59667,1,2,0:0:0:0:
256,188,59736,1,0,0:0:0:0:
256,188,59806,1,0,0:0:0:0:
256,188,60083,1,4,0:0:0:0:
256,188,60222,1,6,0:0:0:0:
256,188,60361,1,4,0:0:0:0:
256,188,60500,1,2,0:0:0:0:
256,188,60639,1,0,0:0:0:0:
256,188,60778,1,0,0:0:0:0:
256,188,60917,1,2,0:0:0:0:
256,188,61056,1,0,0:0:0:0:
256,188,61195,1,2,0:0:0:0:
256,188,61333,1,0,0:0:0:0:
256,188,61472,1,2,0:0:0:0:
256,188,61611,1,0,0:0:0:0:
256,188,61750,1,2,0:0:0:0:
256,188,61889,1,2,0:0:0:0:
256,188,62028,1,0,0:0:0:0:
256,188,62167,1,2,0:0:0:0:
256,188,62306,1,4,0:0:0:0:
256,188,62445,1,0,0:0:0:0:
256,188,62583,1,0,0:0:0:0:
256,188,62722,1,2,0:0:0:0:
256,188,62861,1,2,0:0:0:0:
256,188,63000,1,0,0:0:0:0:
256,188,63139,1,0,0:0:0:0:
256,188,63278,1,2,0:0:0:0:
256,188,63417,1,0,0:0:0:0:
256,188,63556,1,2,0:0:0:0:
256,188,63695,1,0,0:0:0:0:
256,188,63833,1,2,0:0:0:0:
256,188,63972,1,4,0:0:0:0:
256,188,64528,1,4,0:0:0:0:
256,188,64667,1,2,0:0:0:0:
256,188,64806,1,0,0:0:0:0:
256,188,64945,1,0,0:0:0:0:
256,188,65083,1,0,0:0:0:0:
256,188,65222,1,2,0:0:0:0:
256,188,65361,1,2,0:0:0:0:
256,188,65500,1,0,0:0:0:0:
256,188,65639,1,0,0:0:0:0:
256,188,65778,1,2,0:0:0:0:
256,188,65917,1,0,0:0:0:0:
256,188,66056,1,0,0:0:0:0:
256,188,66195,1,0,0:0:0:0:
256,188,66333,1,2,0:0:0:0:
256,188,66472,1,2,0:0:0:0:
256,188,66611,1,0,0:0:0:0:
256,188,66750,1,0,0:0:0:0:
256,188,66889,1,2,0:0:0:0:
256,188,67028,1,0,0:0:0:0:
256,188,67167,1,2,0:0:0:0:
256,188,67306,1,0,0:0:0:0:
256,188,67445,1,2,0:0:0:0:
256,188,67583,1,0,0:0:0:0:
256,188,67722,1,2,0:0:0:0:
256,188,67861,1,0,0:0:0:0:
256,188,68000,1,0,0:0:0:0:
256,188,68139,1,2,0:0:0:0:
256,188,68278,1,0,0:0:0:0:
256,188,68417,1,2,0:0:0:0:
256,188,68486,1,0,0:0:0:0:
256,188,68556,1,0,0:0:0:0:
256,188,68625,1,2,0:0:0:0:
256,188,68695,1,0,0:0:0:0:
256,188,68972,1,0,0:0:0:0:
256,188,69111,1,0,0:0:0:0:
256,188,69250,1,2,0:0:0:0:
256,188,69389,1,2,0:0:0:0:
256,188,69528,1,0,0:0:0:0:
256,188,69667,1,0,0:0:0:0:
256,188,69806,1,2,0:0:0:0:
256,188,69945,1,2,0:0:0:0:
256,188,70083,1,0,0:0:0:0:
256,188,70153,1,0,0:0:0:0:
256,188,70222,1,2,0:0:0:0:
256,188,70361,1,2,0:0:0:0:
256,188,70431,1,0,0:0:0:0:
256,188,70500,1,0,0:0:0:0:
256,188,70639,1,0,0:0:0:0:
256,188,70708,1,2,0:0:0:0:
256,188,70778,1,0,0:0:0:0:
256,188,70917,1,2,0:0:0:0:
260,184,70986,1,2,0:0:0:0:
256,188,71056,1,0,0:0:0:0:
256,188,71195,1,2,0:0:0:0:
256,188,71264,1,0,0:0:0:0:
256,188,71333,1,2,0:0:0:0:
256,188,71403,1,0,0:0:0:0:
256,188,71472,1,2,0:0:0:0:
256,188,71750,1,2,0:0:0:0:
256,188,71820,1,0,0:0:0:0:
256,188,71889,1,2,0:0:0:0:
256,188,71958,1,0,0:0:0:0:
256,188,72028,1,0,0:0:0:0:
256,188,72306,1,0,0:0:0:0:
256,188,72583,1,2,0:0:0:0:
256,188,72861,1,0,0:0:0:0:
256,188,72931,1,0,0:0:0:0:
256,188,73000,1,2,0:0:0:0:
256,188,73070,1,0,0:0:0:0:
256,188,73139,1,0,0:0:0:0:
256,188,73417,1,4,0:0:0:0:
260,192,75361,1,0,0:0:0:0:
260,192,75431,1,0,0:0:0:0:
260,192,75500,1,2,0:0:0:0:
256,192,77861,1,4,0:0:0:0:
256,192,78139,1,6,0:0:0:0:
256,192,78417,1,4,0:0:0:0:
256,192,78556,1,0,0:0:0:0:
256,192,78625,1,0,0:0:0:0:
256,192,78695,1,2,0:0:0:0:
264,192,78833,1,2,0:0:0:0:
264,192,78972,1,4,0:0:0:0:
264,192,79111,1,2,0:0:0:0:
264,192,79250,1,0,0:0:0:0:
264,192,79389,1,2,0:0:0:0:
256,192,79528,1,0,0:0:0:0:
256,192,79667,1,2,0:0:0:0:
256,192,79806,1,0,0:0:0:0:
256,192,79945,1,0,0:0:0:0:
256,192,80083,1,2,0:0:0:0:
256,192,80222,1,0,0:0:0:0:
256,192,80361,1,2,0:0:0:0:
256,192,80500,1,0,0:0:0:0:
256,192,80639,1,0,0:0:0:0:
256,192,80778,1,2,0:0:0:0:
256,192,80917,1,0,0:0:0:0:
256,192,81056,1,2,0:0:0:0:
256,192,81195,1,0,0:0:0:0:
256,192,81333,1,2,0:0:0:0:
256,192,81472,1,0,0:0:0:0:
256,192,81611,1,2,0:0:0:0:
256,192,81750,1,0,0:0:0:0:
256,192,81889,1,2,0:0:0:0:
256,192,82028,1,0,0:0:0:0:
256,192,82306,1,2,0:0:0:0:
256,192,82445,1,0,0:0:0:0:
256,192,82514,1,0,0:0:0:0:
256,192,82583,1,2,0:0:0:0:
256,192,82722,1,0,0:0:0:0:
256,192,82861,1,2,0:0:0:0:
256,192,83000,1,0,0:0:0:0:
256,192,83139,1,0,0:0:0:0:
256,192,83278,1,2,0:0:0:0:
256,192,83417,1,0,0:0:0:0:
256,192,83486,1,2,0:0:0:0:
256,192,83556,1,0,0:0:0:0:
256,192,83695,1,0,0:0:0:0:
256,192,83833,1,2,0:0:0:0:
260,192,83972,1,0,0:0:0:0:
260,192,84111,1,2,0:0:0:0:
260,192,84250,1,0,0:0:0:0:
260,192,84320,1,2,0:0:0:0:
260,192,84389,1,2,0:0:0:0:
260,192,84528,1,0,0:0:0:0:
260,192,84667,1,0,0:0:0:0:
260,192,84806,1,0,0:0:0:0:
260,192,84945,1,0,0:0:0:0:
260,192,85083,1,2,0:0:0:0:
260,192,85222,1,0,0:0:0:0:
260,192,85361,1,2,0:0:0:0:
260,192,85500,1,0,0:0:0:0:
260,192,85639,1,0,0:0:0:0:
260,192,85778,1,0,0:0:0:0:
260,192,85917,1,0,0:0:0:0:
260,192,86056,1,2,0:0:0:0:
260,192,86195,1,0,0:0:0:0:
260,192,86333,1,0,0:0:0:0:
260,192,86472,1,2,0:0:0:0:
260,192,86750,1,4,0:0:0:0:
260,192,86889,1,0,0:0:0:0:
260,192,87028,1,2,0:0:0:0:
260,192,87167,1,0,0:0:0:0:
260,192,87306,1,0,0:0:0:0:
260,192,87445,1,2,0:0:0:0:
260,192,87583,1,0,0:0:0:0:
260,192,87722,1,0,0:0:0:0:
260,192,87861,1,0,0:0:0:0:
260,192,88000,1,2,0:0:0:0:
260,192,88139,1,0,0:0:0:0:
260,192,88278,1,0,0:0:0:0:
260,192,88417,1,0,0:0:0:0:
260,192,88556,1,2,0:0:0:0:
260,192,88695,1,2,0:0:0:0:
260,192,88972,1,2,0:0:0:0:
260,192,89111,1,0,0:0:0:0:
260,192,89250,1,2,0:0:0:0:
260,192,89389,1,0,0:0:0:0:
260,192,89528,1,0,0:0:0:0:
260,192,89667,1,0,0:0:0:0:
260,192,89806,1,2,0:0:0:0:
260,192,89945,1,0,0:0:0:0:
260,192,90083,5,0,0:0:0:0:
260,192,90153,1,2,0:0:0:0:
260,192,90222,1,2,0:0:0:0:
260,192,90361,1,0,0:0:0:0:
256,192,90500,1,2,0:0:0:0:
256,192,90639,1,0,0:0:0:0:
256,192,90778,1,2,0:0:0:0:
256,192,90917,1,0,0:0:0:0:
256,192,91195,1,0,0:0:0:0:
256,192,91333,1,0,0:0:0:0:
256,192,91472,1,2,0:0:0:0:
256,192,91611,1,0,0:0:0:0:
256,192,91750,1,0,0:0:0:0:
256,192,91889,1,0,0:0:0:0:
256,192,92028,1,2,0:0:0:0:
256,192,92167,1,2,0:0:0:0:
256,192,92306,1,0,0:0:0:0:
256,192,92445,1,2,0:0:0:0:
256,192,92583,1,0,0:0:0:0:
256,192,92722,1,0,0:0:0:0:
256,192,92861,1,0,0:0:0:0:
256,192,93000,1,2,0:0:0:0:
256,192,93139,1,0,0:0:0:0:
256,192,93417,1,2,0:0:0:0:
256,192,93556,1,2,0:0:0:0:
256,192,93695,1,2,0:0:0:0:
256,192,93833,1,0,0:0:0:0:
256,192,93972,1,0,0:0:0:0:
256,192,94111,1,2,0:0:0:0:
256,192,94250,1,0,0:0:0:0:
256,192,94389,1,2,0:0:0:0:
256,192,94528,1,0,0:0:0:0:
256,192,94597,1,0,0:0:0:0:
256,192,94667,1,2,0:0:0:0:
256,192,94736,1,0,0:0:0:0:
256,192,94806,1,2,0:0:0:0:
256,192,94875,1,0,0:0:0:0:
256,192,94945,1,0,0:0:0:0:
256,192,95014,1,2,0:0:0:0:
256,192,95083,1,4,0:0:0:0:
256,192,95222,1,0,0:0:0:0:
256,192,95361,1,0,0:0:0:0:
256,192,95639,1,0,0:0:0:0:
256,192,95917,1,2,0:0:0:0:
256,192,95986,1,0,0:0:0:0:
256,192,96056,1,0,0:0:0:0:
256,192,96125,1,2,0:0:0:0:
256,192,96195,1,0,0:0:0:0:
256,192,96264,1,0,0:0:0:0:
256,192,96333,1,2,0:0:0:0:
256,192,96403,1,0,0:0:0:0:
256,192,96472,1,0,0:0:0:0:
260,192,96889,1,0,0:0:0:0:
260,192,97028,1,0,0:0:0:0:
260,192,97097,1,0,0:0:0:0:
260,192,97167,1,2,0:0:0:0:
260,192,97306,1,2,0:0:0:0:
260,192,97445,1,0,0:0:0:0:
260,192,97583,1,0,0:0:0:0:
260,192,97722,1,0,0:0:0:0:
260,192,97861,1,2,0:0:0:0:
260,192,98000,1,0,0:0:0:0:
260,192,98139,1,2,0:0:0:0:
260,192,98278,1,0,0:0:0:0:
260,192,98417,1,0,0:0:0:0:
260,192,98556,1,2,0:0:0:0:
260,192,98695,1,0,0:0:0:0:
260,192,98833,1,0,0:0:0:0:
260,192,98972,1,2,0:0:0:0:
264,192,99111,1,0,0:0:0:0:
264,192,99250,1,0,0:0:0:0:
264,192,99389,1,2,0:0:0:0:
260,192,99528,1,0,0:0:0:0:
260,192,99667,1,0,0:0:0:0:
260,192,99806,1,2,0:0:0:0:
256,192,100083,1,0,0:0:0:0:
256,192,100153,1,0,0:0:0:0:
256,192,100222,1,0,0:0:0:0:
256,192,100292,1,2,0:0:0:0:
256,192,100361,1,0,0:0:0:0:
260,192,100431,1,0,0:0:0:0:
260,192,100500,1,2,0:0:0:0:
260,192,100570,1,0,0:0:0:0:
260,192,100639,1,0,0:0:0:0:
260,192,100708,1,0,0:0:0:0:
260,192,100778,1,0,0:0:0:0:
256,192,100847,1,2,0:0:0:0:
256,192,100917,1,0,0:0:0:0:
256,192,100986,1,0,0:0:0:0:
256,192,101056,1,0,0:0:0:0:
256,192,101125,1,2,0:0:0:0:
260,196,101195,1,0,0:0:0:0:
260,192,101472,1,2,0:0:0:0:
260,192,101542,1,2,0:0:0:0:
260,192,101611,1,0,0:0:0:0:
260,192,101681,1,0,0:0:0:0:
260,192,101750,1,2,0:0:0:0:
256,192,101820,1,0,0:0:0:0:
256,192,101889,1,0,0:0:0:0:
256,192,101958,1,2,0:0:0:0:
256,192,102028,1,2,0:0:0:0:
256,192,102097,1,0,0:0:0:0:
260,192,102167,1,0,0:0:0:0:
260,192,102236,1,2,0:0:0:0:
260,192,102306,1,4,0:0:0:0:
260,192,102445,1,4,0:0:0:0:
260,192,102583,1,0,0:0:0:0:
260,192,102653,1,0,0:0:0:0:
260,192,102722,1,2,0:0:0:0:
260,188,102861,1,2,0:0:0:0:
260,188,102931,1,2,0:0:0:0:
260,188,103000,1,0,0:0:0:0:
260,192,103139,1,0,0:0:0:0:
260,192,103208,1,2,0:0:0:0:
260,192,103278,1,2,0:0:0:0:
260,192,103417,1,2,0:0:0:0:
260,192,103486,1,0,0:0:0:0:
260,192,103556,1,2,0:0:0:0:
260,192,103695,1,4,0:0:0:0:
260,188,103972,1,4,0:0:0:0:
260,192,104250,1,0,0:0:0:0:
256,192,104528,1,0,0:0:0:0:
256,192,104667,1,0,0:0:0:0:
256,192,104806,1,2,0:0:0:0:
256,192,104945,1,0,0:0:0:0:
256,192,105083,1,0,0:0:0:0:
260,192,105222,1,0,0:0:0:0:
256,192,105361,1,2,0:0:0:0:
256,192,105500,1,0,0:0:0:0:
256,192,105639,1,0,0:0:0:0:
256,192,105778,1,2,0:0:0:0:
256,192,105917,1,0,0:0:0:0:
256,192,106056,1,0,0:0:0:0:
260,192,106195,1,2,0:0:0:0:
256,192,106472,1,2,0:0:0:0:
256,192,106750,1,2,0:0:0:0:
256,192,106889,1,0,0:0:0:0:
256,192,107028,1,2,0:0:0:0:
260,192,107167,1,0,0:0:0:0:
256,192,107306,1,0,0:0:0:0:
256,192,107445,1,0,0:0:0:0:
256,192,107583,1,2,0:0:0:0:
256,192,107722,1,0,0:0:0:0:
256,192,107861,1,0,0:0:0:0:
256,192,108000,1,0,0:0:0:0:
260,192,108070,1,0,0:0:0:0:
260,192,108139,1,2,0:0:0:0:
256,192,108278,1,2,0:0:0:0:
256,192,108417,1,2,0:0:0:0:
256,192,108556,1,2,0:0:0:0:
256,192,108625,1,2,0:0:0:0:
256,192,108695,1,0,0:0:0:0:
256,192,108833,1,2,0:0:0:0:
260,192,108972,1,0,0:0:0:0:
260,192,109111,1,0,0:0:0:0:
264,192,109250,1,0,0:0:0:0:
264,192,109389,1,0,0:0:0:0:
264,192,109528,1,2,0:0:0:0:
264,192,109667,1,0,0:0:0:0:
264,192,109806,1,0,0:0:0:0:
260,192,109945,1,2,0:0:0:0:
260,192,110083,1,0,0:0:0:0:
264,192,110222,1,0,0:0:0:0:
264,192,110361,1,2,0:0:0:0:
264,192,110500,1,0,0:0:0:0:
264,192,110639,1,0,0:0:0:0:
264,192,110778,1,0,0:0:0:0:
260,192,110847,1,2,0:0:0:0:
260,192,110917,1,2,0:0:0:0:
256,192,111195,1,4,0:0:0:0:
256,192,112306,1,2,0:0:0:0:
256,192,112445,1,0,0:0:0:0:
256,192,112583,1,2,0:0:0:0:
256,192,112722,1,0,0:0:0:0:
256,192,112861,1,0,0:0:0:0:
256,192,113000,1,0,0:0:0:0:
256,192,113139,1,2,0:0:0:0:
256,192,113417,12,4,116750,0:0:0:0:
