osu file format v14

[General]
AudioFilename: O2i3_-_Ooi.mp3
AudioLeadIn: 0
PreviewTime: 74615
Countdown: 0
SampleSet: Normal
StackLeniency: 0.7
Mode: 1
LetterboxInBreaks: 0
WidescreenStoryboard: 1

[Editor]
DistanceSpacing: 1
BeatDivisor: 4
GridSize: 32
TimelineZoom: 2.4

[Metadata]
Title:Ooi
TitleUnicode:Ooi
Artist:O2i3
ArtistUnicode:O2i3
Creator:Capu
Version:Oni
Source:
Tags:instrumental electronic jaxalate records happy hardcore realy0_ [game edit] ver version
BeatmapID:2352119
BeatmapSetID:1125727

[Difficulty]
HPDrainRate:5.5
CircleSize:2
OverallDifficulty:6
ApproachRate:10
SliderMultiplier:1.4
SliderTickRate:1

[Events]
//Background and Video events
0,0,"5678213.jpg",0,25
//Break Periods
//Storyboard Layer 0 (Background)
//Storyboard Layer 1 (Fail)
//Storyboard Layer 2 (Pass)
//Storyboard Layer 3 (Foreground)
//Storyboard Layer 4 (Overlay)
//Storyboard Sound Samples

[TimingPoints]
39,277.777777777778,4,1,0,30,1,0
39,-100,4,1,0,30,0,0
11080,-100,4,1,0,80,0,0
20039,-100,4,1,0,90,0,1
28370,-100,4,1,0,90,0,1
28372,-100,4,1,0,90,0,0
28927,-100,4,1,0,90,0,1
35314,-100,4,1,0,90,0,1
35316,-100,4,1,0,90,0,0
78927,-100,4,1,0,90,0,1
86150,-100,4,1,0,90,0,0
86705,-100,4,1,0,90,0,1
94481,-100,4,1,0,90,0,1
94483,-100,4,1,0,80,0,0
95594,-93.4579439252336,4,1,0,90,0,1
103927,-93.4579439252336,4,1,0,90,0,0
104483,-93.4579439252336,4,1,0,90,0,1
111148,-93.4579439252336,4,1,0,90,0,1
111150,-93.4579439252336,4,1,0,90,0,0
112191,-100,4,1,0,90,0,0
113092,-83.3333333333333,4,1,0,90,0,0

[HitObjects]
256,192,2261,5,0,0:0:0:0:
256,192,2539,1,0,0:0:0:0:
256,192,2677,1,8,0:0:0:0:
256,192,2955,1,0,0:0:0:0:
256,192,3233,1,8,0:0:0:0:
256,192,3927,1,0,0:0:0:0:
256,192,4205,1,8,0:0:0:0:
256,192,4483,1,0,0:0:0:0:
256,192,4761,1,8,0:0:0:0:
256,192,5039,1,0,0:0:0:0:
256,192,5177,1,8,0:0:0:0:
256,192,5455,1,8,0:0:0:0:
256,192,6150,1,0,0:0:0:0:
256,192,6705,1,8,0:0:0:0:
256,192,6983,1,0,0:0:0:0:
256,192,7122,1,0,0:0:0:0:
256,192,7261,1,8,0:0:0:0:
256,192,7400,1,8,0:0:0:0:
256,192,7677,1,0,0:0:0:0:
256,192,8094,1,0,0:0:0:0:
256,192,8372,1,8,0:0:0:0:
256,192,8650,1,0,0:0:0:0:
256,192,8927,1,8,0:0:0:0:
256,192,8997,1,8,0:0:0:0:
256,192,9066,1,8,0:0:0:0:
256,192,10455,1,0,0:0:0:0:
256,192,10594,1,8,0:0:0:0:
256,192,10664,1,8,0:0:0:0:
256,192,10733,1,8,0:0:0:0:
256,192,10872,1,0,0:0:0:0:
256,192,11011,1,8,0:0:0:0:
256,192,11150,1,4,0:0:0:0:
256,192,11289,1,4,0:0:0:0:
256,192,11427,1,4,0:0:0:0:
256,192,11566,1,4,0:0:0:0:
256,192,11705,1,8,0:0:0:0:
256,192,12261,1,0,0:0:0:0:
256,192,12539,1,0,0:0:0:0:
256,192,12816,1,8,0:0:0:0:
256,192,13372,1,4,0:0:0:0:
256,192,13511,1,4,0:0:0:0:
256,192,13650,1,4,0:0:0:0:
256,192,13789,1,4,0:0:0:0:
256,192,13927,1,8,0:0:0:0:
256,192,14205,1,0,0:0:0:0:
256,192,14483,1,0,0:0:0:0:
256,192,14761,1,0,0:0:0:0:
256,192,15039,2,4,L|32:192,1,210
256,192,15594,1,4,0:0:0:0:
256,192,15733,1,4,0:0:0:0:
256,192,15872,1,4,0:0:0:0:
256,192,16011,1,4,0:0:0:0:
256,192,16150,1,8,0:0:0:0:
256,192,16289,1,0,0:0:0:0:
256,192,16358,1,0,0:0:0:0:
256,192,16427,1,8,0:0:0:0:
256,192,16566,1,0,0:0:0:0:
256,192,16705,1,8,0:0:0:0:
256,192,16844,1,8,0:0:0:0:
256,192,16983,1,0,0:0:0:0:
256,192,17122,1,0,0:0:0:0:
256,192,17261,1,8,0:0:0:0:
256,192,17400,1,0,0:0:0:0:
256,192,17469,1,0,0:0:0:0:
256,192,17539,1,8,0:0:0:0:
256,192,17677,1,8,0:0:0:0:
256,192,17816,1,4,0:0:0:0:
256,192,17955,1,4,0:0:0:0:
256,192,18094,1,4,0:0:0:0:
256,192,18233,1,4,0:0:0:0:
256,192,18372,1,8,0:0:0:0:
256,192,18511,1,8,0:0:0:0:
256,192,18580,1,0,0:0:0:0:
256,192,18650,1,8,0:0:0:0:
256,192,18789,1,8,0:0:0:0:
256,192,18927,1,4,0:0:0:0:
256,192,19066,1,4,0:0:0:0:
256,192,19205,1,4,0:0:0:0:
256,192,19344,1,4,0:0:0:0:
256,192,20039,1,12,0:0:0:0:
256,192,20177,1,0,0:0:0:0:
256,192,20247,1,0,0:0:0:0:
256,192,20316,1,8,0:0:0:0:
256,192,20455,1,0,0:0:0:0:
256,192,20594,1,8,0:0:0:0:
256,192,20664,1,0,0:0:0:0:
256,192,20733,1,8,0:0:0:0:
256,192,20872,1,0,0:0:0:0:
256,192,21011,1,8,0:0:0:0:
256,192,21150,1,0,0:0:0:0:
256,192,21289,1,8,0:0:0:0:
256,192,21427,1,0,0:0:0:0:
256,192,21566,1,8,0:0:0:0:
256,192,21636,1,0,0:0:0:0:
256,192,21705,1,0,0:0:0:0:
256,192,21844,1,8,0:0:0:0:
256,192,21983,1,0,0:0:0:0:
256,192,22052,1,0,0:0:0:0:
256,192,22122,1,8,0:0:0:0:
256,192,22261,1,8,0:0:0:0:
256,192,22400,1,0,0:0:0:0:
256,192,22539,1,8,0:0:0:0:
256,192,22677,1,0,0:0:0:0:
256,192,22747,1,0,0:0:0:0:
256,192,22816,1,8,0:0:0:0:
256,192,22955,1,8,0:0:0:0:
256,192,23233,1,8,0:0:0:0:
256,192,23372,1,0,0:0:0:0:
256,192,23441,1,0,0:0:0:0:
256,192,23511,1,8,0:0:0:0:
256,192,23650,1,0,0:0:0:0:
256,192,23789,1,8,0:0:0:0:
256,192,23927,1,0,0:0:0:0:
256,192,24066,1,0,0:0:0:0:
256,192,24205,1,0,0:0:0:0:
256,192,24483,1,8,0:0:0:0:
256,192,24622,1,0,0:0:0:0:
256,192,24691,1,0,0:0:0:0:
256,192,24761,1,8,0:0:0:0:
256,192,24900,1,0,0:0:0:0:
256,192,25039,1,8,0:0:0:0:
256,192,25177,1,8,0:0:0:0:
256,192,25316,1,0,0:0:0:0:
256,192,25455,1,8,0:0:0:0:
256,192,25594,1,0,0:0:0:0:
256,192,25664,1,0,0:0:0:0:
256,192,25733,1,8,0:0:0:0:
256,192,25872,1,0,0:0:0:0:
256,192,26011,1,8,0:0:0:0:
256,192,26080,1,8,0:0:0:0:
256,192,26150,1,0,0:0:0:0:
256,192,26289,1,8,0:0:0:0:
256,192,26427,1,0,0:0:0:0:
256,192,26497,1,0,0:0:0:0:
256,192,26566,1,8,0:0:0:0:
256,192,26705,1,8,0:0:0:0:
256,192,26983,1,0,0:0:0:0:
256,192,27122,1,8,0:0:0:0:
256,192,27191,1,0,0:0:0:0:
256,192,27261,1,8,0:0:0:0:
256,192,27400,1,0,0:0:0:0:
256,192,27539,1,0,0:0:0:0:
256,192,27677,1,8,0:0:0:0:
256,192,27816,1,0,0:0:0:0:
256,192,27886,1,0,0:0:0:0:
256,192,27955,1,8,0:0:0:0:
256,192,28094,1,8,0:0:0:0:
256,192,28233,1,0,0:0:0:0:
256,192,28372,1,8,0:0:0:0:
256,192,28511,1,8,0:0:0:0:
256,192,28927,5,12,0:0:0:0:
256,192,29066,1,0,0:0:0:0:
256,192,29205,1,8,0:0:0:0:
256,192,29344,1,0,0:0:0:0:
256,192,29414,1,0,0:0:0:0:
256,192,29483,1,8,0:0:0:0:
256,192,29622,1,0,0:0:0:0:
256,192,29761,1,8,0:0:0:0:
256,192,29830,1,8,0:0:0:0:
256,192,29900,1,0,0:0:0:0:
256,192,29969,1,0,0:0:0:0:
256,192,30039,1,8,0:0:0:0:
256,192,30177,1,0,0:0:0:0:
256,192,30316,1,8,0:0:0:0:
256,192,30455,1,0,0:0:0:0:
256,192,30525,1,0,0:0:0:0:
256,192,30594,1,8,0:0:0:0:
256,192,30872,1,8,0:0:0:0:
256,192,31150,1,8,0:0:0:0:
256,192,31289,1,0,0:0:0:0:
256,192,31427,1,8,0:0:0:0:
256,192,31566,1,0,0:0:0:0:
256,192,31636,1,0,0:0:0:0:
256,192,31705,1,8,0:0:0:0:
256,192,31844,1,0,0:0:0:0:
256,192,31983,1,8,0:0:0:0:
256,192,32122,1,0,0:0:0:0:
256,192,32261,1,8,0:0:0:0:
256,192,32330,1,0,0:0:0:0:
256,192,32400,1,0,0:0:0:0:
256,192,32469,1,8,0:0:0:0:
256,192,32539,1,0,0:0:0:0:
256,192,32677,1,8,0:0:0:0:
256,192,32816,1,8,0:0:0:0:
256,192,32955,1,0,0:0:0:0:
256,192,33025,1,0,0:0:0:0:
256,192,33094,1,8,0:0:0:0:
256,192,33372,1,8,0:0:0:0:
256,192,33511,1,0,0:0:0:0:
256,192,33650,1,8,0:0:0:0:
256,192,33789,1,0,0:0:0:0:
256,192,33858,1,8,0:0:0:0:
256,192,33927,1,0,0:0:0:0:
256,192,34066,1,0,0:0:0:0:
256,192,34136,1,8,0:0:0:0:
256,192,34205,1,8,0:0:0:0:
256,192,34275,1,0,0:0:0:0:
256,192,34344,1,8,0:0:0:0:
256,192,34483,1,0,0:0:0:0:
256,192,34622,1,8,0:0:0:0:
256,192,34691,1,8,0:0:0:0:
256,192,34761,1,0,0:0:0:0:
256,192,34900,1,8,0:0:0:0:
256,192,35039,1,8,0:0:0:0:
256,192,35108,1,0,0:0:0:0:
256,192,35177,1,0,0:0:0:0:
256,192,35247,1,0,0:0:0:0:
256,192,35316,1,8,0:0:0:0:
256,192,35594,1,0,0:0:0:0:
256,192,36705,1,0,0:0:0:0:
256,192,36844,1,0,0:0:0:0:
256,192,36983,1,8,0:0:0:0:
256,192,37122,1,0,0:0:0:0:
256,192,37261,1,8,0:0:0:0:
256,192,37400,1,8,0:0:0:0:
256,192,37539,1,0,0:0:0:0:
256,192,37816,1,4,0:0:0:0:
256,192,38372,1,4,0:0:0:0:
256,192,38511,1,0,0:0:0:0:
256,192,38650,1,0,0:0:0:0:
256,192,38789,1,8,0:0:0:0:
256,192,38858,1,0,0:0:0:0:
256,192,38927,1,8,0:0:0:0:
256,192,39066,1,0,0:0:0:0:
256,192,39205,1,12,0:0:0:0:
256,192,39483,1,8,0:0:0:0:
256,192,39622,1,8,0:0:0:0:
256,192,39761,1,0,0:0:0:0:
256,192,39830,1,0,0:0:0:0:
256,192,39900,1,0,0:0:0:0:
256,192,40039,1,8,0:0:0:0:
256,192,40108,1,8,0:0:0:0:
256,192,40177,1,8,0:0:0:0:
256,192,40316,1,0,0:0:0:0:
256,192,40455,1,0,0:0:0:0:
256,192,40594,1,8,0:0:0:0:
256,192,40733,1,8,0:0:0:0:
256,192,40872,1,0,0:0:0:0:
256,192,41011,1,8,0:0:0:0:
256,192,41150,1,8,0:0:0:0:
256,192,41219,1,8,0:0:0:0:
256,192,41289,1,0,0:0:0:0:
256,192,41358,1,0,0:0:0:0:
256,192,41427,1,8,0:0:0:0:
256,192,41566,1,0,0:0:0:0:
256,192,41636,1,0,0:0:0:0:
256,192,41705,1,8,0:0:0:0:
256,192,42261,1,4,0:0:0:0:
256,192,42400,1,8,0:0:0:0:
256,192,42539,1,8,0:0:0:0:
256,192,42677,1,0,0:0:0:0:
256,192,42816,1,8,0:0:0:0:
256,192,42886,1,8,0:0:0:0:
256,192,42955,1,0,0:0:0:0:
256,192,43094,1,8,0:0:0:0:
256,192,43233,1,0,0:0:0:0:
256,192,43372,1,8,0:0:0:0:
256,192,43511,1,8,0:0:0:0:
256,192,43650,1,0,0:0:0:0:
256,192,43789,1,0,0:0:0:0:
256,192,43927,1,8,0:0:0:0:
256,192,44066,1,8,0:0:0:0:
256,192,44205,1,0,0:0:0:0:
256,192,44344,1,0,0:0:0:0:
256,192,44483,1,12,0:0:0:0:
256,192,44622,1,0,0:0:0:0:
256,192,44691,1,0,0:0:0:0:
256,192,44761,1,8,0:0:0:0:
256,192,44900,1,0,0:0:0:0:
256,192,45039,1,4,0:0:0:0:
256,192,45177,1,8,0:0:0:0:
256,192,45247,1,0,0:0:0:0:
256,192,45316,1,8,0:0:0:0:
256,192,45455,1,8,0:0:0:0:
256,192,45594,1,4,0:0:0:0:
256,192,45733,1,0,0:0:0:0:
256,192,45872,1,12,0:0:0:0:
256,192,46011,1,8,0:0:0:0:
256,192,46150,1,4,0:0:0:0:
256,192,46289,1,12,0:0:0:0:
256,192,46427,1,12,0:0:0:0:
256,192,46705,1,4,0:0:0:0:
256,192,46983,1,8,0:0:0:0:
256,192,47261,1,0,0:0:0:0:
256,192,47539,1,0,0:0:0:0:
256,192,47816,1,8,0:0:0:0:
256,192,47955,1,8,0:0:0:0:
256,192,48094,1,4,0:0:0:0:
256,192,48233,1,0,0:0:0:0:
256,192,48302,1,0,0:0:0:0:
256,192,48372,1,8,0:0:0:0:
256,192,48511,1,8,0:0:0:0:
256,192,48650,1,0,0:0:0:0:
256,192,48719,1,0,0:0:0:0:
256,192,48789,1,0,0:0:0:0:
256,192,48927,1,8,0:0:0:0:
256,192,48997,1,8,0:0:0:0:
256,192,49066,1,8,0:0:0:0:
256,192,49205,1,8,0:0:0:0:
256,192,49344,1,8,0:0:0:0:
256,192,49483,1,0,0:0:0:0:
256,192,49622,1,0,0:0:0:0:
256,192,49761,1,8,0:0:0:0:
256,192,49900,1,0,0:0:0:0:
256,192,49969,1,0,0:0:0:0:
256,192,50039,1,8,0:0:0:0:
256,192,50177,1,0,0:0:0:0:
256,192,50247,1,8,0:0:0:0:
256,192,50316,1,0,0:0:0:0:
256,192,50455,1,8,0:0:0:0:
256,192,50525,1,0,0:0:0:0:
256,192,50594,1,8,0:0:0:0:
256,192,50802,1,8,0:0:0:0:
256,192,51011,1,8,0:0:0:0:
256,192,51150,1,4,0:0:0:0:
256,192,51289,1,8,0:0:0:0:
256,192,51427,1,8,0:0:0:0:
256,192,51566,1,8,0:0:0:0:
256,192,51705,1,0,0:0:0:0:
256,192,51775,1,0,0:0:0:0:
256,192,51844,1,0,0:0:0:0:
256,192,51983,1,0,0:0:0:0:
256,192,52261,1,12,0:0:0:0:
256,192,52400,1,8,0:0:0:0:
256,192,52539,1,0,0:0:0:0:
256,192,52677,1,0,0:0:0:0:
256,192,52816,1,8,0:0:0:0:
256,192,52886,1,8,0:0:0:0:
256,192,52955,1,0,0:0:0:0:
256,192,53025,1,0,0:0:0:0:
256,192,53094,1,8,0:0:0:0:
256,192,53233,1,0,0:0:0:0:
256,192,53372,12,0,55039,0:0:0:0:
256,192,55594,5,4,0:0:0:0:
256,192,55733,1,4,0:0:0:0:
256,192,55872,1,4,0:0:0:0:
256,192,56011,1,8,0:0:0:0:
256,192,56289,1,8,0:0:0:0:
256,192,56427,1,8,0:0:0:0:
256,192,56705,1,0,0:0:0:0:
256,192,56798,1,0,0:0:0:0:
256,192,56890,1,0,0:0:0:0:
256,192,56983,1,0,0:0:0:0:
256,192,57261,1,8,0:0:0:0:
256,192,57353,1,8,0:0:0:0:
256,192,57446,1,8,0:0:0:0:
256,192,57539,1,8,0:0:0:0:
256,192,57816,1,4,0:0:0:0:
256,192,57955,1,4,0:0:0:0:
256,192,58094,1,4,0:0:0:0:
256,192,58233,1,8,0:0:0:0:
256,192,58511,1,8,0:0:0:0:
256,192,58650,1,8,0:0:0:0:
256,192,58927,1,0,0:0:0:0:
256,192,59205,1,0,0:0:0:0:
256,192,59483,1,12,0:0:0:0:
256,192,59668,1,0,0:0:0:0:
256,192,59761,1,8,0:0:0:0:
256,192,60039,1,4,0:0:0:0:
256,192,60177,1,4,0:0:0:0:
256,192,60316,1,4,0:0:0:0:
256,192,60455,1,8,0:0:0:0:
256,192,60872,1,8,0:0:0:0:
256,192,61011,1,0,0:0:0:0:
256,192,61150,1,0,0:0:0:0:
256,192,61289,1,0,0:0:0:0:
256,192,61427,1,8,0:0:0:0:
256,192,61566,1,0,0:0:0:0:
256,192,61705,1,8,0:0:0:0:
256,192,61844,1,8,0:0:0:0:
256,192,61983,1,0,0:0:0:0:
256,192,62122,1,8,0:0:0:0:
256,192,62261,1,4,0:0:0:0:
256,192,62400,1,4,0:0:0:0:
256,192,62539,1,4,0:0:0:0:
256,192,62677,1,0,0:0:0:0:
256,192,62816,1,8,0:0:0:0:
256,192,62955,1,0,0:0:0:0:
256,192,63025,1,0,0:0:0:0:
256,192,63094,1,8,0:0:0:0:
256,192,63233,1,8,0:0:0:0:
256,192,63372,1,4,0:0:0:0:
256,192,63511,1,4,0:0:0:0:
256,192,63650,1,4,0:0:0:0:
256,192,63789,1,4,0:0:0:0:
256,192,63927,1,8,0:0:0:0:
256,192,64483,1,12,0:0:0:0:
256,192,64622,1,12,0:0:0:0:
256,192,64761,1,12,0:0:0:0:
256,192,64900,1,12,0:0:0:0:
256,192,65177,1,0,0:0:0:0:
256,192,65316,1,8,0:0:0:0:
256,192,65594,1,4,0:0:0:0:
256,192,65733,1,4,0:0:0:0:
256,192,65872,1,4,0:0:0:0:
256,192,66011,1,4,0:0:0:0:
256,192,66289,1,8,0:0:0:0:
256,192,66427,1,8,0:0:0:0:
256,192,66705,1,12,0:0:0:0:
256,192,66844,1,12,0:0:0:0:
256,192,66983,1,12,0:0:0:0:
256,192,67122,1,12,0:0:0:0:
256,192,67400,1,0,0:0:0:0:
256,192,67539,1,8,0:0:0:0:
256,192,67816,1,4,0:0:0:0:
256,192,67955,1,4,0:0:0:0:
256,192,68094,1,4,0:0:0:0:
256,192,68233,1,4,0:0:0:0:
256,192,68372,1,8,0:0:0:0:
256,192,68441,1,8,0:0:0:0:
256,192,68511,1,8,0:0:0:0:
256,192,68650,1,8,0:0:0:0:
256,192,68927,1,8,0:0:0:0:
256,192,69066,1,0,0:0:0:0:
256,192,69205,1,8,0:0:0:0:
256,192,69344,1,8,0:0:0:0:
256,192,69483,1,0,0:0:0:0:
256,192,69622,1,0,0:0:0:0:
256,192,69761,1,8,0:0:0:0:
256,192,69830,1,0,0:0:0:0:
256,192,69900,1,8,0:0:0:0:
256,192,70039,1,0,0:0:0:0:
256,192,70108,1,0,0:0:0:0:
256,192,70177,1,8,0:0:0:0:
256,192,70247,1,8,0:0:0:0:
256,192,70316,1,0,0:0:0:0:
256,192,70455,1,8,0:0:0:0:
256,192,70594,1,0,0:0:0:0:
256,192,70733,1,8,0:0:0:0:
256,192,70802,1,8,0:0:0:0:
256,192,70872,1,0,0:0:0:0:
256,192,70941,1,0,0:0:0:0:
256,192,71011,1,8,0:0:0:0:
256,192,71150,1,0,0:0:0:0:
256,192,71242,1,0,0:0:0:0:
256,192,71335,1,0,0:0:0:0:
256,192,71427,1,0,0:0:0:0:
256,192,71705,1,0,0:0:0:0:
256,192,71844,1,0,0:0:0:0:
256,192,71983,1,8,0:0:0:0:
256,192,72261,1,8,0:0:0:0:
256,192,72539,1,0,0:0:0:0:
256,192,72608,1,8,0:0:0:0:
256,192,72677,1,0,0:0:0:0:
256,192,72816,1,0,0:0:0:0:
256,192,73001,1,0,0:0:0:0:
256,192,73094,1,8,0:0:0:0:
256,192,73372,1,0,0:0:0:0:
256,192,77816,1,4,0:0:0:0:
256,192,78094,1,8,0:0:0:0:
256,192,78372,1,4,0:0:0:0:
256,192,78511,1,8,0:0:0:0:
256,192,78580,1,8,0:0:0:0:
256,192,78650,1,8,0:0:0:0:
256,192,78927,1,12,0:0:0:0:
256,192,79066,1,8,0:0:0:0:
256,192,79205,1,0,0:0:0:0:
256,192,79275,1,0,0:0:0:0:
256,192,79344,1,8,0:0:0:0:
256,192,79483,1,0,0:0:0:0:
256,192,79622,1,8,0:0:0:0:
256,192,79761,1,0,0:0:0:0:
256,192,79830,1,8,0:0:0:0:
256,192,79900,1,0,0:0:0:0:
256,192,79969,1,0,0:0:0:0:
256,192,80039,1,8,0:0:0:0:
256,192,80177,1,0,0:0:0:0:
256,192,80247,1,8,0:0:0:0:
256,192,80316,1,0,0:0:0:0:
256,192,80455,1,8,0:0:0:0:
256,192,80525,1,0,0:0:0:0:
256,192,80594,1,8,0:0:0:0:
256,192,80733,1,8,0:0:0:0:
256,192,80872,1,0,0:0:0:0:
256,192,81011,1,8,0:0:0:0:
256,192,81150,1,0,0:0:0:0:
256,192,81219,1,8,0:0:0:0:
256,192,81289,1,8,0:0:0:0:
256,192,81427,1,0,0:0:0:0:
256,192,81497,1,0,0:0:0:0:
256,192,81566,1,8,0:0:0:0:
256,192,81705,1,0,0:0:0:0:
256,192,81844,1,8,0:0:0:0:
256,192,81914,1,8,0:0:0:0:
256,192,81983,1,8,0:0:0:0:
256,192,82261,1,0,0:0:0:0:
256,192,82400,1,0,0:0:0:0:
256,192,82539,1,8,0:0:0:0:
256,192,82677,1,0,0:0:0:0:
256,192,82747,1,0,0:0:0:0:
256,192,82816,1,8,0:0:0:0:
256,192,82955,1,8,0:0:0:0:
256,192,83094,1,0,0:0:0:0:
256,192,83233,1,8,0:0:0:0:
256,192,83372,1,0,0:0:0:0:
256,192,83441,1,0,0:0:0:0:
256,192,83511,1,8,0:0:0:0:
256,192,83650,1,0,0:0:0:0:
256,192,83789,1,8,0:0:0:0:
256,192,83927,1,0,0:0:0:0:
256,192,84066,1,8,0:0:0:0:
256,192,84136,1,8,0:0:0:0:
256,192,84205,1,0,0:0:0:0:
256,192,84275,1,0,0:0:0:0:
256,192,84344,1,8,0:0:0:0:
256,192,84483,1,8,0:0:0:0:
256,192,84622,1,0,0:0:0:0:
256,192,84761,1,8,0:0:0:0:
256,192,84900,1,0,0:0:0:0:
256,192,84969,1,0,0:0:0:0:
256,192,85039,1,8,0:0:0:0:
256,192,85177,1,8,0:0:0:0:
256,192,85316,1,0,0:0:0:0:
256,192,85455,1,8,0:0:0:0:
256,192,85594,1,0,0:0:0:0:
256,192,85664,1,0,0:0:0:0:
256,192,85733,1,8,0:0:0:0:
256,192,85872,1,0,0:0:0:0:
256,192,86011,1,8,0:0:0:0:
256,192,86705,1,12,0:0:0:0:
256,192,86844,1,0,0:0:0:0:
256,192,86914,1,0,0:0:0:0:
256,192,86983,1,8,0:0:0:0:
256,192,87122,1,0,0:0:0:0:
256,192,87261,1,8,0:0:0:0:
256,192,87330,1,8,0:0:0:0:
256,192,87400,1,0,0:0:0:0:
256,192,87539,1,0,0:0:0:0:
256,192,87677,1,8,0:0:0:0:
256,192,87747,1,0,0:0:0:0:
256,192,87816,1,8,0:0:0:0:
256,192,87955,1,8,0:0:0:0:
256,192,88094,1,0,0:0:0:0:
256,192,88164,1,0,0:0:0:0:
256,192,88233,1,8,0:0:0:0:
256,192,88372,1,0,0:0:0:0:
256,192,88511,1,8,0:0:0:0:
256,192,88650,1,0,0:0:0:0:
256,192,88719,1,8,0:0:0:0:
256,192,88789,1,0,0:0:0:0:
256,192,88858,1,0,0:0:0:0:
256,192,88928,1,8,0:0:0:0:
256,192,89066,1,0,0:0:0:0:
256,192,89136,1,8,0:0:0:0:
256,192,89205,1,0,0:0:0:0:
256,192,89344,1,8,0:0:0:0:
256,192,89414,1,0,0:0:0:0:
256,192,89483,1,8,0:0:0:0:
256,192,89622,1,8,0:0:0:0:
256,192,89761,1,0,0:0:0:0:
256,192,89900,1,8,0:0:0:0:
256,192,90039,1,0,0:0:0:0:
256,192,90108,1,8,0:0:0:0:
256,192,90178,1,8,0:0:0:0:
256,192,90316,1,0,0:0:0:0:
256,192,90386,1,0,0:0:0:0:
256,192,90455,1,8,0:0:0:0:
256,192,90594,1,0,0:0:0:0:
256,192,90733,1,8,0:0:0:0:
256,192,90802,1,0,0:0:0:0:
256,192,90872,1,8,0:0:0:0:
256,192,91150,1,0,0:0:0:0:
256,192,91289,1,0,0:0:0:0:
256,192,91358,1,0,0:0:0:0:
256,192,91428,1,8,0:0:0:0:
256,192,91566,1,0,0:0:0:0:
256,192,91636,1,8,0:0:0:0:
256,192,91705,1,0,0:0:0:0:
256,192,91844,1,8,0:0:0:0:
256,192,91983,1,0,0:0:0:0:
256,192,92122,1,8,0:0:0:0:
256,192,92261,1,0,0:0:0:0:
256,192,92330,1,0,0:0:0:0:
256,192,92400,1,8,0:0:0:0:
256,192,92539,1,0,0:0:0:0:
256,192,92678,1,8,0:0:0:0:
256,192,92816,1,0,0:0:0:0:
256,192,92955,1,8,0:0:0:0:
256,192,93025,1,8,0:0:0:0:
256,192,93094,1,0,0:0:0:0:
256,192,93164,1,0,0:0:0:0:
256,192,93233,1,8,0:0:0:0:
256,192,93372,1,8,0:0:0:0:
256,192,93511,1,0,0:0:0:0:
256,192,93650,1,8,0:0:0:0:
256,192,93789,1,0,0:0:0:0:
256,192,93858,1,0,0:0:0:0:
256,192,93928,1,8,0:0:0:0:
256,192,94066,1,8,0:0:0:0:
256,192,94205,1,0,0:0:0:0:
256,192,94344,1,8,0:0:0:0:
256,192,94483,1,0,0:0:0:0:
256,192,94552,1,0,0:0:0:0:
256,192,94622,1,0,0:0:0:0:
256,192,94691,1,0,0:0:0:0:
256,192,94761,1,0,0:0:0:0:
256,192,94900,1,0,0:0:0:0:
256,192,94969,1,0,0:0:0:0:
256,192,95039,1,0,0:0:0:0:
256,192,95594,5,12,0:0:0:0:
256,192,95872,1,0,0:0:0:0:
256,192,95941,1,0,0:0:0:0:
256,192,96011,1,8,0:0:0:0:
256,192,96150,1,0,0:0:0:0:
256,192,96219,1,0,0:0:0:0:
256,192,96289,1,8,0:0:0:0:
256,192,96358,1,8,0:0:0:0:
256,192,96427,1,0,0:0:0:0:
256,192,96844,1,8,0:0:0:0:
256,192,96983,1,0,0:0:0:0:
256,192,97052,1,8,0:0:0:0:
256,192,97122,1,0,0:0:0:0:
256,192,97261,1,8,0:0:0:0:
256,192,97400,1,0,0:0:0:0:
256,192,97469,1,0,0:0:0:0:
256,192,97539,1,8,0:0:0:0:
256,192,97816,1,0,0:0:0:0:
256,192,98094,1,8,0:0:0:0:
256,192,98302,1,0,0:0:0:0:
256,192,98372,1,8,0:0:0:0:
256,192,98511,1,8,0:0:0:0:
256,192,98789,1,0,0:0:0:0:
256,192,98927,1,8,0:0:0:0:
256,192,99066,1,0,0:0:0:0:
256,192,99205,1,8,0:0:0:0:
256,192,99344,1,0,0:0:0:0:
256,192,99483,1,8,0:0:0:0:
256,192,99622,1,0,0:0:0:0:
256,192,99691,1,0,0:0:0:0:
256,192,99761,1,8,0:0:0:0:
256,192,100039,1,0,0:0:0:0:
256,192,100108,1,0,0:0:0:0:
256,192,100177,1,8,0:0:0:0:
256,192,100247,1,8,0:0:0:0:
256,192,100316,1,0,0:0:0:0:
256,192,100455,1,8,0:0:0:0:
256,192,100525,1,8,0:0:0:0:
256,192,100594,1,0,0:0:0:0:
256,192,100733,1,8,0:0:0:0:
256,192,100872,1,0,0:0:0:0:
256,192,100941,1,0,0:0:0:0:
256,192,101011,1,8,0:0:0:0:
256,192,101080,1,8,0:0:0:0:
256,192,101358,1,0,0:0:0:0:
256,192,101427,1,8,0:0:0:0:
256,192,101497,1,0,0:0:0:0:
256,192,101566,1,0,0:0:0:0:
256,192,101705,1,8,0:0:0:0:
256,192,101775,1,0,0:0:0:0:
256,192,101844,1,8,0:0:0:0:
256,192,101983,1,0,0:0:0:0:
256,192,102052,1,8,0:0:0:0:
256,192,102122,1,0,0:0:0:0:
256,192,102261,1,8,0:0:0:0:
256,192,102400,1,8,0:0:0:0:
256,192,102677,1,0,0:0:0:0:
256,192,102747,1,0,0:0:0:0:
256,192,102816,1,8,0:0:0:0:
256,192,102886,1,8,0:0:0:0:
256,192,102955,1,8,0:0:0:0:
256,192,103094,1,8,0:0:0:0:
256,192,103233,1,0,0:0:0:0:
256,192,103372,1,0,0:0:0:0:
256,192,103441,1,8,0:0:0:0:
256,192,103511,1,0,0:0:0:0:
256,192,103650,1,8,0:0:0:0:
256,192,103789,1,0,0:0:0:0:
256,192,103927,1,8,0:0:0:0:
256,192,104205,1,8,0:0:0:0:
256,192,104275,1,0,0:0:0:0:
256,192,104344,1,0,0:0:0:0:
256,192,104483,1,12,0:0:0:0:
256,192,104622,1,0,0:0:0:0:
256,192,104761,1,8,0:0:0:0:
256,192,104900,1,0,0:0:0:0:
256,192,104969,1,0,0:0:0:0:
256,192,105039,1,8,0:0:0:0:
256,192,105177,1,0,0:0:0:0:
256,192,105316,1,8,0:0:0:0:
256,192,105386,1,8,0:0:0:0:
256,192,105455,1,0,0:0:0:0:
256,192,105594,1,8,0:0:0:0:
256,192,105733,1,0,0:0:0:0:
256,192,105802,1,0,0:0:0:0:
256,192,105872,1,8,0:0:0:0:
256,192,106011,1,0,0:0:0:0:
256,192,106150,1,8,0:0:0:0:
256,192,106427,1,8,0:0:0:0:
256,192,106705,1,8,0:0:0:0:
256,192,106844,1,0,0:0:0:0:
256,192,106983,1,8,0:0:0:0:
256,192,107122,1,0,0:0:0:0:
256,192,107191,1,0,0:0:0:0:
256,192,107261,1,8,0:0:0:0:
256,192,107400,1,0,0:0:0:0:
256,192,107539,1,8,0:0:0:0:
256,192,107677,1,0,0:0:0:0:
256,192,107816,1,8,0:0:0:0:
256,192,107886,1,8,0:0:0:0:
256,192,107955,1,0,0:0:0:0:
256,192,108025,1,0,0:0:0:0:
256,192,108094,1,8,0:0:0:0:
256,192,108233,1,0,0:0:0:0:
256,192,108372,1,8,0:0:0:0:
256,192,108511,1,8,0:0:0:0:
256,192,108580,1,8,0:0:0:0:
256,192,108650,1,8,0:0:0:0:
256,192,108789,1,0,0:0:0:0:
256,192,108927,1,8,0:0:0:0:
256,192,109066,1,0,0:0:0:0:
256,192,109205,1,8,0:0:0:0:
256,192,109344,1,0,0:0:0:0:
256,192,109483,1,8,0:0:0:0:
256,192,109622,1,0,0:0:0:0:
256,192,109691,1,0,0:0:0:0:
256,192,109761,1,8,0:0:0:0:
256,192,109900,1,8,0:0:0:0:
256,192,110039,1,0,0:0:0:0:
256,192,110177,1,8,0:0:0:0:
256,192,110247,1,8,0:0:0:0:
256,192,110316,1,0,0:0:0:0:
256,192,110455,1,8,0:0:0:0:
256,192,110594,1,8,0:0:0:0:
256,192,110733,1,0,0:0:0:0:
256,192,110802,1,0,0:0:0:0:
256,192,110872,1,8,0:0:0:0:
256,192,111150,1,0,0:0:0:0:
256,192,112261,1,0,0:0:0:0:
256,192,112400,1,0,0:0:0:0:
256,192,112539,1,8,0:0:0:0:
256,192,112678,1,0,0:0:0:0:
256,192,112817,1,8,0:0:0:0:
256,192,112956,1,8,0:0:0:0:
256,192,113095,1,4,0:0:0:0:
256,192,113372,1,4,0:0:0:0:
256,192,113511,12,0,116566,0:0:0:0:
256,192,116705,5,8,0:0:0:0:
