osu file format v14

[General]
AudioFilename: audio.mp3
AudioLeadIn: 0
PreviewTime: 19977
Countdown: 0
SampleSet: Normal
StackLeniency: 0.7
Mode: 3
LetterboxInBreaks: 0
SpecialStyle: 0
WidescreenStoryboard: 1

[Editor]
DistanceSpacing: 0.8
BeatDivisor: 4
GridSize: 8
TimelineZoom: 1.7

[Metadata]
Title:Ooi
TitleUnicode:Ooi
Artist:O2i3
ArtistUnicode:O2i3
Creator:-mint-
Version:Drago's Party Advanced
Source:osu!
Tags:[game edit] jaxalate records disc 2 kantai collection kancolle happy hardcore qqqant hydria kamuy featured artist fa mappers' guild mg electronic instrumental
BeatmapID:1946563
BeatmapSetID:932214

[Difficulty]
HPDrainRate:7.7
CircleSize:4
OverallDifficulty:7.5
ApproachRate:5
SliderMultiplier:1.4
SliderTickRate:1

[Events]
//Background and Video events
0,0,"57180151_p0.jpg",0,0
//Break Periods
//Storyboard Layer 0 (Background)
//Storyboard Layer 1 (Fail)
//Storyboard Layer 2 (Pass)
//Storyboard Layer 3 (Foreground)
//Storyboard Layer 4 (Overlay)
//Storyboard Sound Samples
Sample,32755,0,"woo.wav",70
Sample,33033,0,"woo.wav",70
Sample,45533,0,"cymbal_short.wav",70
Sample,45811,0,"cymbal_short.wav",70
Sample,46088,0,"cymbal_short.wav",70
Sample,108311,0,"woo.wav",70
Sample,108588,0,"woo.wav",70

[TimingPoints]
2200,277.777777777778,4,1,1,70,1,0
19977,-100,4,1,1,70,0,1
35533,-100,4,1,1,70,0,0
78866,-100,4,1,1,70,0,1
111088,-100,4,1,1,70,0,0

[HitObjects]
192,192,2199,5,0,0:0:0:0:
320,192,2477,1,0,0:0:0:0:
448,192,2616,1,0,0:0:0:0:
192,192,2894,1,0,0:0:0:0:
448,192,3172,1,0,0:0:0:0:
64,192,3172,1,0,0:0:0:0:
448,192,3866,1,0,0:0:0:0:
192,192,4144,1,0,0:0:0:0:
320,192,4422,1,0,0:0:0:0:
64,192,4422,1,0,0:0:0:0:
448,192,4700,1,0,0:0:0:0:
192,192,4977,1,0,0:0:0:0:
448,192,5116,1,0,0:0:0:0:
320,192,5394,1,0,0:0:0:0:
192,192,5394,1,0,0:0:0:0:
192,192,6088,1,0,0:0:0:0:
448,192,6644,1,0,0:0:0:0:
64,192,6644,1,0,0:0:0:0:
192,192,6922,1,0,0:0:0:0:
320,192,7061,1,0,0:0:0:0:
448,192,7200,1,0,0:0:0:0:
320,192,7338,1,0,0:0:0:0:
192,192,7616,1,0,0:0:0:0:
64,192,7616,1,0,0:0:0:0:
320,192,8033,1,0,0:0:0:0:
448,192,8311,1,0,0:0:0:0:
192,192,8588,1,0,0:0:0:0:
64,192,8866,1,0,0:0:0:0:
448,192,8936,1,0,0:0:0:0:
64,192,10394,1,0,0:0:0:0:
448,192,10533,1,0,0:0:0:0:
448,192,10672,1,0,0:0:0:0:
320,192,10811,1,0,0:0:0:0:
320,192,10950,1,0,0:0:0:0:
192,192,11088,1,0,0:0:0:70:cymbal_short.wav
64,192,11088,1,2,0:0:0:0:
192,192,11227,1,0,0:0:0:70:cymbal_short.wav
64,192,11227,1,2,0:0:0:0:
448,192,11366,1,0,0:0:0:70:cymbal_short.wav
320,192,11366,1,2,0:0:0:0:
448,192,11505,1,0,0:0:0:70:cymbal_short.wav
320,192,11505,1,2,0:0:0:0:
64,192,11644,1,0,0:0:0:0:
192,192,11922,1,0,0:0:0:0:
320,192,12200,1,0,0:0:0:0:
448,192,12477,1,0,0:0:0:0:
192,192,12755,1,0,0:0:0:0:
64,192,13033,1,0,0:0:0:0:
448,192,13311,1,0,0:0:0:70:cymbal_short.wav
320,192,13311,1,2,0:0:0:0:
448,192,13450,1,0,0:0:0:70:cymbal_short.wav
320,192,13450,1,2,0:0:0:0:
192,192,13588,1,0,0:0:0:70:cymbal_short.wav
64,192,13588,1,2,0:0:0:0:
192,192,13727,1,0,0:0:0:70:cymbal_short.wav
64,192,13727,1,2,0:0:0:0:
448,192,13866,1,0,0:0:0:0:
320,192,14144,1,0,0:0:0:0:
64,192,14422,1,0,0:0:0:0:
192,192,14700,1,0,0:0:0:0:
448,192,14977,128,4,15533:0:0:0:0:
320,192,14977,1,2,0:0:0:0:
192,192,15533,1,0,0:0:0:70:cymbal_short.wav
64,192,15533,1,2,0:0:0:0:
192,192,15672,1,0,0:0:0:70:cymbal_short.wav
64,192,15672,1,2,0:0:0:0:
448,192,15811,1,0,0:0:0:70:cymbal_short.wav
320,192,15811,1,2,0:0:0:0:
448,192,15950,1,0,0:0:0:70:cymbal_short.wav
320,192,15950,1,2,0:0:0:0:
64,192,16088,1,0,0:0:0:0:
192,192,16366,1,0,0:0:0:0:
448,192,16644,1,0,0:0:0:0:
320,192,16922,1,0,0:0:0:0:
192,192,17200,1,0,0:0:0:0:
64,192,17477,1,0,0:0:0:0:
448,192,17755,1,0,0:0:0:70:cymbal_short.wav
320,192,17755,1,2,0:0:0:0:
448,192,17894,1,0,0:0:0:70:cymbal_short.wav
320,192,17894,1,2,0:0:0:0:
192,192,18033,1,0,0:0:0:70:cymbal_short.wav
64,192,18033,1,2,0:0:0:0:
192,192,18172,1,0,0:0:0:70:cymbal_short.wav
64,192,18172,1,2,0:0:0:0:
320,192,18311,1,0,0:0:0:0:
448,192,18588,1,0,0:0:0:0:
192,192,18866,1,0,0:0:0:70:cymbal_short.wav
64,192,18866,1,2,0:0:0:0:
192,192,19005,1,0,0:0:0:70:cymbal_short.wav
64,192,19005,1,2,0:0:0:0:
448,192,19144,1,0,0:0:0:70:cymbal_short.wav
320,192,19144,1,2,0:0:0:0:
448,192,19283,1,0,0:0:0:70:cymbal_short.wav
320,192,19283,1,2,0:0:0:0:
192,192,19422,1,0,0:0:0:70:growl.wav
64,192,19422,128,2,19977:0:0:0:0:
448,192,19977,1,0,0:0:0:70:swoosh.wav
192,192,19977,1,6,0:0:0:0:
448,192,20255,1,0,0:0:0:0:
192,192,20255,1,8,0:0:0:0:
448,192,20533,1,0,0:0:0:0:
320,192,20533,1,2,0:0:0:0:
192,192,20672,1,0,0:0:0:0:
320,192,20950,1,0,0:0:0:0:
64,192,20950,1,0,0:0:0:0:
320,192,21227,1,0,0:0:0:0:
64,192,21227,1,0,0:0:0:0:
448,192,21505,1,0,0:0:0:0:
320,192,21505,1,0,0:0:0:0:
192,192,21783,1,0,0:0:0:0:
64,192,21783,1,0,0:0:0:0:
192,192,22061,1,0,0:0:0:0:
448,192,22200,1,0,0:0:0:0:
320,192,22200,1,2,0:0:0:0:
448,192,22477,1,0,0:0:0:0:
320,192,22477,1,8,0:0:0:0:
64,192,22755,1,2,0:0:0:0:
448,192,22894,1,0,0:0:0:0:
320,192,22894,1,0,0:0:0:0:
448,192,23172,1,0,0:0:0:0:
192,192,23172,1,0,0:0:0:0:
320,192,23450,1,0,0:0:0:0:
192,192,23450,1,0,0:0:0:0:
320,192,23727,1,0,0:0:0:0:
64,192,23727,1,0,0:0:0:0:
64,192,24005,128,2,24422:0:0:0:0:
448,192,24422,1,0,0:0:0:0:
192,192,24422,1,2,0:0:0:0:
448,192,24700,1,0,0:0:0:0:
192,192,24700,1,8,0:0:0:0:
448,192,24977,1,0,0:0:0:0:
320,192,24977,1,2,0:0:0:0:
192,192,25116,1,0,0:0:0:0:
320,192,25394,1,0,0:0:0:0:
64,192,25394,1,0,0:0:0:0:
320,192,25672,1,0,0:0:0:0:
64,192,25672,1,0,0:0:0:0:
448,192,25950,1,0,0:0:0:0:
320,192,25950,1,0,0:0:0:0:
192,192,26227,1,0,0:0:0:0:
64,192,26227,1,0,0:0:0:0:
192,192,26505,1,0,0:0:0:0:
448,192,26644,1,0,0:0:0:0:
320,192,26644,1,2,0:0:0:0:
448,192,26922,1,0,0:0:0:0:
320,192,26922,1,8,0:0:0:0:
64,192,27200,1,2,0:0:0:0:
448,192,27338,1,0,0:0:0:0:
320,192,27338,1,2,0:0:0:0:
448,192,27616,1,0,0:0:0:0:
192,192,27616,1,2,0:0:0:0:
320,192,27894,1,0,0:0:0:0:
192,192,27894,1,0,0:0:0:0:
320,192,28172,1,0,0:0:0:0:
64,192,28172,1,0,0:0:0:0:
64,192,28311,1,0,0:0:0:0:
64,192,28450,1,0,0:0:0:0:
448,192,28588,1,0,0:0:0:0:
320,192,28727,1,0,0:0:0:0:
64,192,28866,1,12,0:0:0:0:
64,192,29005,1,0,0:0:0:0:
320,192,29144,1,8,0:0:0:0:
320,192,29283,1,0,0:0:0:0:
64,192,29422,1,8,0:0:0:0:
448,192,29700,1,8,0:0:0:0:
448,192,29838,1,0,0:0:0:0:
192,192,29977,1,8,0:0:0:0:
192,192,30116,1,0,0:0:0:0:
448,192,30255,1,8,0:0:0:0:
448,192,30394,1,0,0:0:0:0:
192,192,30533,1,8,0:0:0:0:
448,192,30811,1,0,0:0:0:70:woo.wav
64,192,30811,1,8,0:0:0:0:
320,192,31088,1,8,0:0:0:0:
320,192,31227,1,0,0:0:0:0:
64,192,31366,1,8,0:0:0:0:
64,192,31505,1,0,0:0:0:0:
320,192,31644,1,8,0:0:0:0:
192,192,31922,1,8,0:0:0:0:
192,192,32061,1,0,0:0:0:0:
448,192,32200,1,8,0:0:0:0:
448,192,32338,1,0,0:0:0:0:
192,192,32477,1,8,0:0:0:0:
192,192,32616,1,0,0:0:0:0:
64,192,32755,1,8,0:0:0:0:
64,192,32894,1,2,0:0:0:0:
448,192,33033,1,8,0:0:0:0:
448,192,33172,1,0,0:0:0:70:woo.wav
320,192,33311,1,8,0:0:0:0:
320,192,33450,1,0,0:0:0:0:
64,192,33588,1,8,0:0:0:0:
64,192,33727,1,0,0:0:0:0:
320,192,33866,1,8,0:0:0:0:
192,192,34005,1,0,0:0:0:0:
448,192,34144,1,8,0:0:0:0:
64,192,34283,1,0,0:0:0:0:
448,192,34422,1,8,0:0:0:0:
192,192,34561,1,0,0:0:0:0:
448,192,34700,1,8,0:0:0:0:
64,192,34838,1,0,0:0:0:0:
320,192,34977,1,8,0:0:0:0:
320,192,35116,1,2,0:0:0:0:
448,192,35255,128,2,35533:0:0:0:0:
192,192,35533,1,0,0:0:0:70:swoosh.wav
64,192,35533,1,2,0:0:0:0:
448,192,35950,1,0,0:0:0:0:
64,192,36088,1,0,0:0:0:0:
448,192,36227,1,0,0:0:0:0:
192,192,36366,1,0,0:0:0:0:
448,192,36505,1,0,0:0:0:0:
64,192,36644,1,0,0:0:0:70:123456.wav
64,192,36783,1,0,0:0:0:0:
192,192,36922,1,0,0:0:0:0:
192,192,37061,1,0,0:0:0:0:
320,192,37200,1,0,0:0:0:0:
320,192,37338,1,0,0:0:0:0:
64,192,37477,1,0,0:0:0:0:
448,192,37616,1,0,0:0:0:0:
192,192,37755,128,0,38311:0:0:0:70:growl.wav
64,192,37755,1,0,0:0:0:70:cymbal_short.wav
448,192,38311,1,0,0:0:0:70:cymbal_short.wav
320,192,38311,1,2,0:0:0:0:
64,192,38450,1,0,0:0:0:0:
64,192,38588,1,0,0:0:0:0:
320,192,38727,1,0,0:0:0:0:
448,192,38866,1,0,0:0:0:0:
64,192,39005,1,2,0:0:0:0:
448,192,39144,1,4,0:0:0:0:
192,192,39144,1,8,0:0:0:0:
320,192,39422,1,2,0:0:0:0:
320,192,39561,1,0,0:0:0:0:
192,192,39700,1,0,0:0:0:0:
64,192,39700,128,8,39977:0:0:0:0:
448,192,39977,128,0,40255:0:0:0:0:
320,192,39977,1,2,0:0:0:0:
192,192,40255,1,8,0:0:0:0:
192,192,40394,1,0,0:0:0:0:
448,192,40533,1,2,0:0:0:0:
448,192,40672,1,0,0:0:0:0:
320,192,40811,1,0,0:0:0:0:
64,192,40811,1,8,0:0:0:0:
448,192,41088,1,2,0:0:0:0:
192,192,41227,1,2,0:0:0:0:
448,192,41366,1,8,0:0:0:0:
192,192,41505,1,2,0:0:0:0:
448,192,41644,1,0,0:0:0:70:cymbal_short.wav
320,192,41644,1,2,0:0:0:0:
192,192,41852,1,0,0:0:0:70:cymbal_short.wav
64,192,41852,1,2,0:0:0:0:
448,192,42061,1,0,0:0:0:70:cymbal_short.wav
320,192,42061,1,2,0:0:0:0:
192,192,42200,1,4,0:0:0:0:
64,192,42200,1,2,0:0:0:0:
448,192,42338,1,0,0:0:0:0:
64,192,42477,1,8,0:0:0:0:
448,192,42616,1,0,0:0:0:0:
192,192,42755,128,0,43033:0:0:0:0:
64,192,43033,128,8,43311:0:0:0:0:
448,192,43311,1,2,0:0:0:0:
448,192,43450,1,0,0:0:0:0:
320,192,43588,1,8,0:0:0:0:
320,192,43727,1,0,0:0:0:0:
64,192,43866,1,2,0:0:0:0:
64,192,44005,1,2,0:0:0:0:
192,192,44144,1,2,0:0:0:0:
448,192,44422,1,0,0:0:0:70:cymbal_short.wav
320,192,44422,1,2,0:0:0:0:
448,192,44700,1,0,0:0:0:0:
192,192,44700,1,8,0:0:0:0:
320,192,44977,1,0,0:0:0:70:cymbal_short.wav
64,192,44977,1,2,0:0:0:0:
192,192,45116,1,2,0:0:0:0:
448,192,45255,1,8,0:0:0:0:
320,192,45394,1,2,0:0:0:0:
64,192,45533,1,8,0:0:0:0:
64,192,45672,1,2,0:0:0:0:
192,192,45811,1,8,0:0:0:0:
192,192,45950,1,2,0:0:0:0:
320,192,46088,1,8,0:0:0:0:
448,192,46227,1,2,0:0:0:0:
448,192,46366,1,2,0:0:0:0:
64,192,46644,128,6,46922:0:0:0:0:
320,192,46922,128,0,47200:0:0:0:0:
192,192,47200,128,0,47338:0:0:0:0:
192,192,47477,128,0,47755:0:0:0:0:
448,192,47755,1,0,0:0:0:0:
64,192,47894,1,2,0:0:0:0:
448,192,48033,1,4,0:0:0:0:
192,192,48033,1,8,0:0:0:0:
320,192,48311,1,2,0:0:0:0:
320,192,48450,1,0,0:0:0:0:
192,192,48588,1,0,0:0:0:0:
64,192,48588,128,8,48866:0:0:0:0:
448,192,48866,128,0,49144:0:0:0:0:
320,192,48866,1,2,0:0:0:0:
192,192,49144,1,8,0:0:0:0:
192,192,49283,1,0,0:0:0:0:
448,192,49422,1,2,0:0:0:0:
448,192,49561,1,0,0:0:0:0:
320,192,49700,1,0,0:0:0:0:
64,192,49700,1,8,0:0:0:0:
448,192,49977,1,2,0:0:0:0:
192,192,50116,1,2,0:0:0:0:
448,192,50255,1,8,0:0:0:0:
192,192,50394,1,2,0:0:0:0:
448,192,50533,1,0,0:0:0:70:cymbal_short.wav
320,192,50533,1,2,0:0:0:0:
192,192,50741,1,0,0:0:0:70:cymbal_short.wav
64,192,50741,1,2,0:0:0:0:
448,192,50950,1,0,0:0:0:70:cymbal_short.wav
320,192,50950,1,2,0:0:0:0:
192,192,51088,1,2,0:0:0:0:
64,192,51088,1,4,0:0:0:0:
448,192,51227,1,0,0:0:0:0:
64,192,51366,1,8,0:0:0:0:
448,192,51505,1,0,0:0:0:0:
192,192,51644,128,2,51922:0:0:0:0:
64,192,51922,128,8,52200:0:0:0:0:
448,192,52200,1,6,0:0:0:0:
448,192,52338,1,0,0:0:0:0:
192,192,52477,1,8,0:0:0:0:
192,192,52616,1,0,0:0:0:0:
320,192,52755,1,2,0:0:0:0:
64,192,52894,1,2,0:0:0:0:
320,192,53033,1,8,0:0:0:0:
64,192,53172,1,0,0:0:0:0:
448,192,53311,128,2,54422:0:0:0:0:
192,192,55533,1,0,0:0:0:70:cymbal_short.wav
64,192,55533,1,2,0:0:0:0:
448,192,55672,1,0,0:0:0:70:cymbal_short.wav
320,192,55672,1,2,0:0:0:0:
192,192,55811,1,0,0:0:0:70:cymbal_short.wav
64,192,55811,1,2,0:0:0:0:
448,192,55950,1,0,0:0:0:0:
192,192,56227,1,0,0:0:0:0:
192,192,56366,1,0,0:0:0:0:
64,192,56644,1,0,0:0:0:0:
320,192,56737,1,0,0:0:0:0:
192,192,56829,1,0,0:0:0:0:
448,192,56922,1,0,0:0:0:0:
448,192,57200,1,0,0:0:0:0:
192,192,57292,1,0,0:0:0:0:
320,192,57385,1,0,0:0:0:0:
64,192,57477,1,0,0:0:0:0:
448,192,57755,1,0,0:0:0:70:cymbal_short.wav
320,192,57755,1,2,0:0:0:0:
192,192,57894,1,0,0:0:0:70:cymbal_short.wav
64,192,57894,1,2,0:0:0:0:
448,192,58033,1,0,0:0:0:70:cymbal_short.wav
320,192,58033,1,2,0:0:0:0:
64,192,58172,1,0,0:0:0:0:
320,192,58450,1,0,0:0:0:0:
320,192,58588,1,0,0:0:0:0:
448,192,58866,1,0,0:0:0:0:
448,192,59144,1,0,0:0:0:0:
192,192,59422,1,4,0:0:0:0:
64,192,59422,1,2,0:0:0:0:
320,192,59514,1,0,0:0:0:0:
64,192,59607,1,0,0:0:0:0:
448,192,59700,128,0,59977:0:0:0:0:
192,192,59977,1,0,0:0:0:70:cymbal_short.wav
64,192,59977,1,2,0:0:0:0:
448,192,60116,1,0,0:0:0:70:cymbal_short.wav
320,192,60116,1,2,0:0:0:0:
192,192,60255,1,0,0:0:0:70:cymbal_short.wav
64,192,60255,1,2,0:0:0:0:
448,192,60394,128,0,60811:0:0:0:0:
320,192,60811,128,0,61088:0:0:0:0:
192,192,61088,128,0,61227:0:0:0:0:
192,192,61366,128,0,61505:0:0:0:0:
64,192,61644,128,0,61783:0:0:0:0:
64,192,61922,128,0,62061:0:0:0:0:
448,192,62200,1,0,0:0:0:70:cymbal_short.wav
320,192,62200,1,2,0:0:0:0:
192,192,62338,1,0,0:0:0:70:cymbal_short.wav
64,192,62338,1,2,0:0:0:0:
448,192,62477,1,0,0:0:0:70:cymbal_short.wav
320,192,62477,1,2,0:0:0:0:
64,192,62616,1,0,0:0:0:0:
448,192,62755,1,0,0:0:0:0:
64,192,62894,1,0,0:0:0:0:
448,192,63033,1,0,0:0:0:0:
64,192,63172,1,0,0:0:0:0:
448,192,63311,1,0,0:0:0:70:cymbal_short.wav
320,192,63311,1,2,0:0:0:0:
192,192,63450,1,0,0:0:0:70:cymbal_short.wav
64,192,63450,1,2,0:0:0:0:
448,192,63588,1,0,0:0:0:70:cymbal_short.wav
320,192,63588,1,2,0:0:0:0:
192,192,63727,1,0,0:0:0:70:cymbal_short.wav
64,192,63727,1,2,0:0:0:0:
448,192,63866,128,2,64422:0:0:0:0:
192,192,64422,1,4,0:0:0:0:
64,192,64422,1,2,0:0:0:0:
448,192,64561,1,0,0:0:0:70:cymbal_short.wav
320,192,64561,1,2,0:0:0:0:
192,192,64700,1,0,0:0:0:70:cymbal_short.wav
64,192,64700,1,2,0:0:0:0:
448,192,64838,1,0,0:0:0:0:
64,192,64977,1,0,0:0:0:0:
448,192,65116,1,0,0:0:0:0:
64,192,65255,1,0,0:0:0:0:
448,192,65394,1,0,0:0:0:0:
192,192,65533,1,0,0:0:0:70:cymbal_short.wav
64,192,65533,1,2,0:0:0:0:
448,192,65672,1,0,0:0:0:70:cymbal_short.wav
320,192,65672,1,2,0:0:0:0:
192,192,65811,1,0,0:0:0:70:cymbal_short.wav
64,192,65811,1,2,0:0:0:0:
448,192,65950,1,0,0:0:0:0:
64,192,66088,1,0,0:0:0:0:
320,192,66227,1,0,0:0:0:70:woo.wav
320,192,66366,1,0,0:0:0:70:woo.wav
192,192,66644,1,0,0:0:0:70:cymbal_short.wav
64,192,66644,1,2,0:0:0:0:
448,192,66783,1,0,0:0:0:70:cymbal_short.wav
320,192,66783,1,2,0:0:0:0:
192,192,66922,1,0,0:0:0:70:cymbal_short.wav
64,192,66922,1,2,0:0:0:0:
448,192,67061,1,0,0:0:0:0:
64,192,67200,1,0,0:0:0:0:
448,192,67338,1,0,0:0:0:0:
64,192,67477,1,0,0:0:0:0:
448,192,67616,1,0,0:0:0:0:
192,192,67755,1,0,0:0:0:70:cymbal_short.wav
64,192,67755,1,2,0:0:0:0:
448,192,67894,1,0,0:0:0:70:cymbal_short.wav
320,192,67894,1,2,0:0:0:0:
192,192,68033,1,0,0:0:0:70:cymbal_short.wav
64,192,68033,1,2,0:0:0:0:
448,192,68172,1,0,0:0:0:0:
192,192,68311,1,0,0:0:0:0:
320,192,68450,1,0,0:0:0:0:
192,192,68588,1,0,0:0:0:70:woo.wav
448,192,68866,1,0,0:0:0:70:cymbal_short.wav
320,192,68866,1,2,0:0:0:0:
192,192,69144,1,0,0:0:0:70:cymbal_short.wav
64,192,69144,1,2,0:0:0:0:
448,192,69422,1,0,0:0:0:70:cymbal_short.wav
320,192,69422,1,2,0:0:0:0:
192,192,69700,1,0,0:0:0:70:cymbal_short.wav
64,192,69700,1,2,0:0:0:0:
448,192,69838,1,0,0:0:0:70:cymbal_short.wav
320,192,69838,1,2,0:0:0:0:
192,192,69977,1,0,0:0:0:0:
64,192,69977,1,2,0:0:0:0:
448,192,70116,1,2,0:0:0:0:
320,192,70255,1,0,0:0:0:0:
192,192,70255,1,2,0:0:0:0:
64,192,70394,1,2,0:0:0:0:
448,192,70533,1,0,0:0:0:0:
320,192,70533,1,2,0:0:0:0:
64,192,70672,1,2,0:0:0:0:
320,192,70811,1,0,0:0:0:0:
192,192,70811,1,2,0:0:0:0:
448,192,70950,1,2,0:0:0:0:
64,192,71088,1,2,0:0:0:0:
448,192,71366,1,0,0:0:0:0:
320,192,71644,1,0,0:0:0:0:
64,192,71922,1,0,0:0:0:0:
448,192,72200,1,0,0:0:0:0:
320,192,72477,1,0,0:0:0:0:
192,192,72755,1,0,0:0:0:0:
192,192,73033,1,0,0:0:0:0:
448,192,73311,1,0,0:0:0:70:swoosh.wav
320,192,73311,1,2,0:0:0:0:
192,192,77755,1,0,0:0:0:70:cymbal_short.wav
64,192,77755,1,2,0:0:0:0:
448,192,78033,1,0,0:0:0:70:woo.wav
192,192,78311,1,0,0:0:0:70:cymbal_short.wav
64,192,78311,1,2,0:0:0:0:
448,192,78450,1,0,0:0:0:0:
448,192,78588,1,0,0:0:0:70:woo.wav
320,192,78866,1,0,0:0:0:0:
192,192,78866,1,2,0:0:0:0:
64,192,79005,1,0,0:0:0:0:
448,192,79283,1,0,0:0:0:0:
192,192,79283,1,0,0:0:0:0:
192,192,79561,1,0,0:0:0:0:
64,192,79561,1,0,0:0:0:0:
192,192,79838,1,0,0:0:0:0:
448,192,79977,1,0,0:0:0:0:
320,192,79977,1,2,0:0:0:0:
448,192,80255,1,0,0:0:0:0:
320,192,80255,1,8,0:0:0:0:
64,192,80533,1,2,0:0:0:0:
448,192,80672,1,0,0:0:0:0:
320,192,80672,1,0,0:0:0:0:
448,192,80950,1,0,0:0:0:0:
192,192,80950,1,0,0:0:0:0:
320,192,81227,1,0,0:0:0:0:
192,192,81227,1,0,0:0:0:0:
320,192,81505,1,0,0:0:0:0:
64,192,81505,1,0,0:0:0:0:
64,192,81783,128,2,82200:0:0:0:0:
448,192,82200,1,0,0:0:0:0:
192,192,82200,1,2,0:0:0:0:
448,192,82477,1,0,0:0:0:0:
192,192,82477,1,8,0:0:0:0:
448,192,82755,1,0,0:0:0:0:
320,192,82755,1,2,0:0:0:0:
192,192,82894,1,0,0:0:0:0:
320,192,83172,1,0,0:0:0:0:
64,192,83172,1,0,0:0:0:0:
320,192,83450,1,0,0:0:0:0:
64,192,83450,1,0,0:0:0:0:
448,192,83727,1,0,0:0:0:0:
320,192,83727,1,0,0:0:0:0:
192,192,84005,1,0,0:0:0:0:
64,192,84005,1,0,0:0:0:0:
192,192,84283,1,0,0:0:0:0:
448,192,84422,1,0,0:0:0:0:
320,192,84422,1,2,0:0:0:0:
448,192,84700,1,0,0:0:0:0:
320,192,84700,1,8,0:0:0:0:
64,192,84977,1,2,0:0:0:0:
448,192,85116,1,0,0:0:0:0:
320,192,85116,1,0,0:0:0:0:
448,192,85394,1,0,0:0:0:0:
192,192,85394,1,0,0:0:0:0:
320,192,85672,1,0,0:0:0:0:
192,192,85672,1,0,0:0:0:0:
320,192,85950,1,0,0:0:0:0:
64,192,85950,1,0,0:0:0:0:
192,192,86088,1,0,0:0:0:0:
192,192,86227,1,0,0:0:0:0:
448,192,86366,1,0,0:0:0:0:
64,192,86505,1,0,0:0:0:0:
448,192,86644,1,0,0:0:0:70:swoosh.wav
192,192,86644,1,6,0:0:0:0:
448,192,86922,1,0,0:0:0:0:
192,192,86922,1,8,0:0:0:0:
448,192,87200,1,0,0:0:0:0:
320,192,87200,1,2,0:0:0:0:
192,192,87338,1,0,0:0:0:0:
320,192,87616,1,0,0:0:0:0:
64,192,87616,1,0,0:0:0:0:
320,192,87894,1,0,0:0:0:0:
64,192,87894,1,0,0:0:0:0:
448,192,88172,1,0,0:0:0:0:
320,192,88172,1,0,0:0:0:0:
192,192,88450,1,0,0:0:0:0:
64,192,88450,1,0,0:0:0:0:
192,192,88727,1,0,0:0:0:0:
448,192,88866,1,0,0:0:0:0:
320,192,88866,1,2,0:0:0:0:
448,192,89144,1,0,0:0:0:0:
320,192,89144,1,8,0:0:0:0:
64,192,89422,1,2,0:0:0:0:
448,192,89561,1,0,0:0:0:0:
320,192,89561,1,0,0:0:0:0:
448,192,89838,1,0,0:0:0:0:
192,192,89838,1,0,0:0:0:0:
320,192,90116,1,0,0:0:0:0:
192,192,90116,1,0,0:0:0:0:
320,192,90394,1,0,0:0:0:0:
64,192,90394,1,0,0:0:0:0:
64,192,90672,128,2,91088:0:0:0:0:
448,192,91088,1,0,0:0:0:0:
192,192,91088,1,2,0:0:0:0:
448,192,91366,1,0,0:0:0:0:
192,192,91366,1,8,0:0:0:0:
448,192,91644,1,0,0:0:0:0:
320,192,91644,1,2,0:0:0:0:
192,192,91783,1,0,0:0:0:0:
320,192,92061,1,0,0:0:0:0:
64,192,92061,1,0,0:0:0:0:
320,192,92338,1,0,0:0:0:0:
64,192,92338,1,0,0:0:0:0:
448,192,92616,1,0,0:0:0:0:
320,192,92616,1,0,0:0:0:0:
192,192,92894,1,0,0:0:0:0:
64,192,92894,1,0,0:0:0:0:
192,192,93172,1,0,0:0:0:0:
448,192,93311,1,0,0:0:0:0:
320,192,93311,1,2,0:0:0:0:
448,192,93588,1,0,0:0:0:0:
320,192,93588,1,8,0:0:0:0:
64,192,93866,1,2,0:0:0:0:
448,192,94005,1,0,0:0:0:0:
320,192,94005,1,0,0:0:0:0:
448,192,94283,1,0,0:0:0:0:
192,192,94283,1,0,0:0:0:0:
64,192,94422,1,2,0:0:0:0:
320,192,94561,1,2,0:0:0:0:
64,192,94700,1,2,0:0:0:0:
320,192,94838,1,2,0:0:0:0:
192,192,94977,1,2,0:0:0:0:
192,192,95116,1,0,0:0:0:0:
64,192,95255,1,0,0:0:0:0:
448,192,95533,1,0,0:0:0:70:swoosh.wav
64,192,95533,1,6,0:0:0:0:
320,192,95811,1,8,0:0:0:0:
192,192,95950,1,0,0:0:0:0:
448,192,96088,1,2,0:0:0:0:
320,192,96227,1,0,0:0:0:0:
64,192,96366,1,8,0:0:0:0:
192,192,96644,1,2,0:0:0:0:
448,192,96922,1,8,0:0:0:0:
320,192,97061,1,0,0:0:0:0:
64,192,97200,1,2,0:0:0:0:
448,192,97338,1,0,0:0:0:0:
192,192,97477,1,8,0:0:0:0:
64,192,97755,1,2,0:0:0:0:
320,192,98033,1,8,0:0:0:0:
192,192,98311,1,2,0:0:0:0:
448,192,98450,1,0,0:0:0:0:
64,192,98727,1,0,0:0:0:0:
320,192,98866,1,2,0:0:0:0:
320,192,99144,1,8,0:0:0:0:
448,192,99422,1,2,0:0:0:0:
320,192,99700,1,8,0:0:0:0:
64,192,99977,1,2,0:0:0:0:
192,192,100116,1,0,0:0:0:0:
448,192,100255,1,8,0:0:0:0:
64,192,100394,1,0,0:0:0:0:
320,192,100533,1,2,0:0:0:0:
448,192,100672,1,0,0:0:0:0:
64,192,100811,1,8,0:0:0:0:
192,192,100950,1,0,0:0:0:0:
448,192,101088,1,2,0:0:0:0:
320,192,101366,1,8,0:0:0:0:
448,192,101505,1,0,0:0:0:0:
320,192,101644,1,2,0:0:0:0:
64,192,101783,1,0,0:0:0:0:
448,192,101922,1,8,0:0:0:0:
192,192,102061,1,0,0:0:0:0:
64,192,102200,1,2,0:0:0:0:
64,192,102338,1,0,0:0:0:0:
320,192,102477,1,8,0:0:0:0:
448,192,102616,1,0,0:0:0:0:
192,192,102755,1,2,0:0:0:0:
448,192,102894,1,0,0:0:0:0:
64,192,103033,1,8,0:0:0:0:
448,192,103172,1,0,0:0:0:0:
320,192,103311,1,2,0:0:0:0:
64,192,103450,1,0,0:0:0:0:
448,192,103588,1,8,0:0:0:0:
192,192,103727,1,0,0:0:0:0:
64,192,103866,1,0,0:0:0:0:
64,192,104005,1,0,0:0:0:0:
192,192,104144,1,0,0:0:0:0:
192,192,104283,1,0,0:0:0:0:
448,192,104422,1,12,0:0:0:0:
448,192,104561,1,0,0:0:0:0:
192,192,104700,1,8,0:0:0:0:
192,192,104838,1,0,0:0:0:0:
448,192,104977,1,8,0:0:0:0:
64,192,105255,1,8,0:0:0:0:
64,192,105394,1,0,0:0:0:0:
320,192,105533,1,8,0:0:0:0:
320,192,105672,1,0,0:0:0:0:
64,192,105811,1,8,0:0:0:0:
64,192,105950,1,0,0:0:0:0:
320,192,106088,1,8,0:0:0:0:
448,192,106366,1,0,0:0:0:70:woo.wav
64,192,106366,1,8,0:0:0:0:
192,192,106644,1,8,0:0:0:0:
192,192,106783,1,0,0:0:0:0:
448,192,106922,1,8,0:0:0:0:
448,192,107061,1,0,0:0:0:0:
192,192,107200,1,8,0:0:0:0:
320,192,107477,1,8,0:0:0:0:
320,192,107616,1,0,0:0:0:0:
64,192,107755,1,8,0:0:0:0:
64,192,107894,1,0,0:0:0:0:
320,192,108033,1,8,0:0:0:0:
320,192,108172,1,0,0:0:0:0:
448,192,108311,1,8,0:0:0:0:
448,192,108450,1,2,0:0:0:0:
64,192,108588,1,8,0:0:0:0:
64,192,108727,1,0,0:0:0:70:woo.wav
192,192,108866,1,8,0:0:0:0:
192,192,109005,1,0,0:0:0:0:
448,192,109144,1,8,0:0:0:0:
448,192,109283,1,0,0:0:0:0:
192,192,109422,1,8,0:0:0:0:
320,192,109561,1,0,0:0:0:0:
64,192,109700,1,8,0:0:0:0:
448,192,109838,1,0,0:0:0:0:
64,192,109977,1,8,0:0:0:0:
320,192,110116,1,0,0:0:0:0:
64,192,110255,1,8,0:0:0:0:
448,192,110394,1,0,0:0:0:0:
192,192,110533,1,8,0:0:0:0:
192,192,110672,1,2,0:0:0:0:
448,192,110811,128,2,111088:0:0:0:0:
192,192,111088,1,0,0:0:0:70:swoosh.wav
64,192,111088,1,2,0:0:0:0:
448,192,111505,1,0,0:0:0:0:
64,192,111644,1,0,0:0:0:0:
448,192,111783,1,0,0:0:0:0:
192,192,111922,1,0,0:0:0:0:
448,192,112061,1,0,0:0:0:0:
64,192,112200,1,0,0:0:0:70:1234.wav
64,192,112338,1,0,0:0:0:0:
192,192,112477,1,0,0:0:0:0:
192,192,112616,1,0,0:0:0:0:
448,192,112755,1,0,0:0:0:0:
320,192,112755,1,8,0:0:0:0:
64,192,112894,1,2,0:0:0:0:
448,192,113033,1,0,0:0:0:70:woo.wav
320,192,113033,1,8,0:0:0:0:
192,192,113311,128,0,116644:0:0:0:70:woo.wav
64,192,113311,1,6,0:0:0:0:
64,192,116644,1,8,0:0:0:0:
448,192,116783,1,0,0:0:0:0:
