osu file format v14

[General]
AudioFilename: O2i3 - Ooi.mp3
AudioLeadIn: 0
PreviewTime: 77792
Countdown: 0
SampleSet: None
StackLeniency: 0.2
Mode: 2
LetterboxInBreaks: 0
WidescreenStoryboard: 1

[Editor]
DistanceSpacing: 1
BeatDivisor: 4
GridSize: 8
TimelineZoom: 2.799999

[Metadata]
Title:Ooi [Game Edit]
TitleUnicode:Ooi [Game Edit]
Artist:O2i3
ArtistUnicode:O2i3
Creator:xi-False
Version:VI (Deluge)
Source:
Tags:Jaxalate Records disc 2 Hardcore high bpm
BeatmapID:968035
BeatmapSetID:451239

[Difficulty]
HPDrainRate:5
CircleSize:3.5
OverallDifficulty:9
ApproachRate:9.5
SliderMultiplier:2.5
SliderTickRate:2

[Events]
//Background and Video events
0,0,"Ooi Hard!.jpg",0,0
//Break Periods
//Storyboard Layer 0 (Background)
//Storyboard Layer 1 (Fail)
//Storyboard Layer 2 (Pass)
//Storyboard Layer 3 (Foreground)
//Storyboard Sound Samples

[TimingPoints]
1195,277.777777777778,4,2,0,100,1,0
1295,-100,4,3,0,100,0,0

[Colours]
Combo1 : 210,226,7
Combo2 : 10,34,118
Combo3 : 231,24,138
Combo4 : 72,225,164
Combo5 : 205,123,63
Combo6 : 116,221,239
Combo7 : 155,32,238
Combo8 : 233,63,105

[HitObjects]
112,304,2306,5,0,0:0:0:0:
352,224,2583,2,8,L|208:176,1,125
432,160,3000,1,0,0:0:0:0:
256,96,3278,1,8,0:0:0:0:
432,288,3695,1,8,0:0:0:0:
256,336,3972,6,8,P|160:304|64:176,1,250,8|0,0:0|0:0,0:0:0:0:
256,192,4528,1,0,0:0:0:0:
64,112,4806,1,0,0:0:0:0:
192,272,5083,2,8,L|64:208,1,125
368,192,5500,1,0,0:0:0:0:
256,192,6195,1,0,0:0:0:0:
336,288,6750,6,0,P|448:272|464:144,1,250,8|0,0:0|0:0,0:0:0:0:
384,96,7167,1,8,0:0:0:0:
288,80,7306,1,0,0:0:0:0:
192,80,7445,1,8,0:0:0:0:
416,240,7722,1,8,0:0:0:0:
256,208,8139,2,0,B|64:208|64:208|144:208,1,250
320,128,8695,2,0,L|32:128,1,250,0|8,0:0|0:0,0:0:0:0:
256,192,9111,12,0,10986,0:0:0:0:
208,336,11195,5,8,0:0:0:0:
160,304,11264,1,0,0:0:0:0:
128,248,11333,1,0,0:0:0:0:
128,192,11403,1,0,0:0:0:0:
320,336,11472,5,8,0:0:0:0:
368,304,11541,1,0,0:0:0:0:
400,248,11610,1,0,0:0:0:0:
416,184,11680,1,0,0:0:0:0:
160,272,11750,5,0,0:0:0:0:
112,240,11819,1,0,0:0:0:0:
80,184,11888,1,0,0:0:0:0:
64,120,11958,1,0,0:0:0:0:
336,288,12028,5,0,0:0:0:0:
384,256,12097,1,0,0:0:0:0:
416,200,12166,1,0,0:0:0:0:
416,136,12236,1,0,0:0:0:0:
176,336,12306,5,0,0:0:0:0:
120,336,12375,1,0,0:0:0:0:
120,272,12445,1,0,0:0:0:0:
176,272,12514,1,0,0:0:0:0:
424,328,12583,5,0,0:0:0:0:
400,272,12652,1,0,0:0:0:0:
360,232,12722,1,0,0:0:0:0:
312,216,12791,1,0,0:0:0:0:
144,208,12861,5,0,0:0:0:0:
88,208,12930,1,0,0:0:0:0:
88,144,13000,1,0,0:0:0:0:
144,144,13069,1,0,0:0:0:0:
488,184,13139,5,0,0:0:0:0:
464,128,13208,1,0,0:0:0:0:
424,88,13278,1,0,0:0:0:0:
376,72,13347,1,0,0:0:0:0:
240,360,13417,6,8,L|168:336,1,62.5,8|0,0:0|0:0,0:0:0:0:
24,304,13556,2,0,L|80:256,1,62.5,8|0,0:0|0:0,0:0:0:0:
248,272,13695,2,0,L|312:256,1,62.5,8|0,0:0|0:0,0:0:0:0:
472,280,13833,2,0,L|504:224,1,62.5,8|0,0:0|0:0,0:0:0:0:
168,248,13972,5,0,0:0:0:0:
152,192,14041,1,0,0:0:0:0:
192,144,14111,1,0,0:0:0:0:
248,144,14180,1,0,0:0:0:0:
424,232,14250,5,0,0:0:0:0:
488,232,14320,1,0,0:0:0:0:
488,160,14389,1,0,0:0:0:0:
424,160,14459,1,0,0:0:0:0:
72,168,14528,5,0,0:0:0:0:
56,112,14597,1,0,0:0:0:0:
96,64,14667,1,0,0:0:0:0:
152,64,14736,1,0,0:0:0:0:
344,352,14806,5,0,0:0:0:0:
400,352,14876,1,0,0:0:0:0:
408,288,14945,1,0,0:0:0:0:
344,288,15015,1,0,0:0:0:0:
280,288,15083,1,0,0:0:0:0:
216,288,15153,2,0,B|144:312|32:248|32:248|104:112|104:112|176:112,1,375
288,192,15639,6,0,L|360:168,1,62.5,8|0,0:0|0:0,0:0:0:0:
504,136,15778,2,0,L|448:88,1,62.5,8|0,0:0|0:0,0:0:0:0:
280,104,15917,2,0,L|216:88,1,62.5,8|0,0:0|0:0,0:0:0:0:
56,112,16055,2,0,L|24:56,1,62.5,8|0,0:0|0:0,0:0:0:0:
216,344,16195,5,0,0:0:0:0:
272,312,16264,1,0,0:0:0:0:
272,240,16333,1,0,0:0:0:0:
232,184,16403,1,0,0:0:0:0:
184,184,16472,1,0,0:0:0:0:
136,232,16542,1,0,0:0:0:0:
136,296,16611,1,0,0:0:0:0:
184,344,16680,1,0,0:0:0:0:
424,216,16750,5,0,0:0:0:0:
480,184,16819,1,0,0:0:0:0:
480,112,16888,1,0,0:0:0:0:
440,56,16958,1,0,0:0:0:0:
384,216,17027,1,0,0:0:0:0:
336,168,17096,1,0,0:0:0:0:
336,104,17165,1,0,0:0:0:0:
384,56,17235,1,0,0:0:0:0:
184,288,17306,5,0,0:0:0:0:
128,272,17375,1,0,0:0:0:0:
96,224,17445,1,0,0:0:0:0:
112,168,17514,1,0,0:0:0:0:
368,264,17583,5,0,0:0:0:0:
424,248,17652,1,0,0:0:0:0:
456,200,17722,1,0,0:0:0:0:
440,144,17791,1,0,0:0:0:0:
224,288,17861,6,0,L|136:288,1,62.5,8|0,0:0|0:0,0:0:0:0:
336,288,18000,2,0,L|416:288,1,62.5,8|0,0:0|0:0,0:0:0:0:
176,224,18139,6,0,L|88:224,1,62.5,8|0,0:0|0:0,0:0:0:0:
288,224,18278,2,0,L|368:224,1,62.5,8|0,0:0|0:0,0:0:0:0:
160,144,18417,1,8,0:0:0:0:
96,144,18486,1,0,0:0:0:0:
48,112,18556,1,0,0:0:0:0:
96,80,18625,1,0,0:0:0:0:
352,304,18695,5,0,0:0:0:0:
416,304,18764,1,0,0:0:0:0:
464,272,18833,1,0,0:0:0:0:
416,240,18903,1,0,0:0:0:0:
256,240,18972,6,8,L|352:160,1,125
128,192,19250,2,0,L|224:96,1,125
128,352,19528,2,0,P|48:304|176:112,1,375,8|0,0:0|0:0,0:0:0:0:
320,112,20014,1,0,0:0:0:0:
496,112,20083,1,0,0:0:0:0:
240,288,20222,5,4,0:0:0:0:
144,288,20361,1,0,0:0:0:0:
96,240,20431,1,0,0:0:0:0:
64,176,20500,1,0,0:0:0:0:
320,176,20639,2,0,L|192:128,1,125,4|0,0:0|0:0,0:0:0:0:
416,240,21056,6,0,B|480:160|480:160|432:240,1,187.5,4|0,0:0|0:0,0:0:0:0:
392,232,21333,1,4,0:0:0:0:
360,192,21403,1,0,0:0:0:0:
400,160,21472,1,0,0:0:0:0:
96,240,21611,6,0,B|32:160|32:160|80:240,1,187.5,4|0,0:0|0:0,0:0:0:0:
120,232,21889,1,4,0:0:0:0:
144,192,21959,1,0,0:0:0:0:
112,160,22028,1,0,0:0:0:0:
336,128,22167,1,4,0:0:0:0:
256,128,22236,1,0,0:0:0:0:
176,128,22306,1,4,0:0:0:0:
448,240,22583,5,4,0:0:0:0:
240,352,22861,2,4,L|368:352,1,125
160,256,23208,5,8,0:0:0:0:
96,256,23278,1,4,0:0:0:0:
32,256,23347,2,0,B|32:176|32:176|80:176,1,125
352,208,23556,5,8,0:0:0:0:
416,208,23625,2,0,B|432:144|432:144|352:144,1,125
192,128,23833,5,8,0:0:0:0:
128,128,23903,2,0,B|96:64|96:64|176:64,1,125,4|0,0:0|0:0,0:0:0:0:
496,336,24111,2,8,B|320:240|320:240|432:336,1,312.5
464,336,24528,1,2,0:0:0:0:
80,288,24806,5,4,0:0:0:0:
48,176,24876,1,0,0:0:0:0:
48,240,24945,1,0,0:0:0:0:
320,320,25083,2,0,P|400:272|432:208,1,125
112,112,25361,1,4,0:0:0:0:
192,352,25500,6,0,B|48:352|48:352|80:224,1,250
432,288,25917,1,4,0:0:0:0:
224,192,26056,2,0,B|464:192|464:192|416:192,1,250
96,176,26472,1,4,0:0:0:0:
416,96,26611,2,0,L|304:32,1,125
48,160,27028,5,4,0:0:0:0:
240,160,27306,2,0,L|80:160,1,125
480,96,27583,1,4,0:0:0:0:
368,176,27722,2,0,L|496:176,1,125
432,96,27931,1,0,0:0:0:0:
192,336,28000,2,0,L|64:336,1,125,0|4,0:0|0:0,0:0:0:0:
128,288,28209,1,0,0:0:0:0:
176,240,28278,1,0,0:0:0:0:
288,256,28417,5,0,0:0:0:0:
48,192,28556,1,0,0:0:0:0:
352,112,28695,1,4,0:0:0:0:
144,160,28972,6,0,B|64:160|64:160|64:112,1,125,4|0,0:0|0:0,0:0:0:0:
368,160,29250,2,0,B|448:160|448:160|448:112,1,125,4|0,0:0|0:0,0:0:0:0:
48,224,29528,1,4,0:0:0:0:
192,208,29806,6,0,B|96:208|96:208|64:256,1,125,4|0,0:0|0:0,0:0:0:0:
288,128,30083,2,0,B|192:128|192:128|160:176,1,125,4|0,0:0|0:0,0:0:0:0:
384,128,30361,2,0,B|401:104|401:104|497:104,1,125,4|0,0:0|0:0,0:0:0:0:
112,288,30639,1,4,0:0:0:0:
352,288,30917,1,0,0:0:0:0:
240,224,31195,6,0,B|336:224|336:224|368:272,1,125,4|0,0:0|0:0,0:0:0:0:
144,144,31472,2,0,B|240:144|240:144|272:192,1,125,4|0,0:0|0:0,0:0:0:0:
32,224,31750,1,4,0:0:0:0:
432,256,32028,2,0,L|304:208,2,125,4|0|0,0:0|0:0|0:0,0:0:0:0:
208,192,32445,5,8,0:0:0:0:
256,224,32514,1,8,0:0:0:0:
304,192,32583,1,8,0:0:0:0:
64,256,32722,2,4,B|128:256|128:256|48:256,1,125
304,112,33000,5,8,0:0:0:0:
256,80,33070,1,8,0:0:0:0:
208,112,33138,1,8,0:0:0:0:
432,176,33278,1,8,0:0:0:0:
256,352,33417,6,0,B|336:352|336:352|368:304,1,125,4|0,0:0|0:0,0:0:0:0:
160,272,33695,2,0,B|240:272|240:272|272:224,1,125,4|0,0:0|0:0,0:0:0:0:
64,192,33972,1,4,0:0:0:0:
304,176,34111,1,8,0:0:0:0:
256,176,34181,1,8,0:0:0:0:
208,176,34249,1,8,0:0:0:0:
464,128,34389,6,8,B|416:80|416:80|464:48,1,125,12|8,0:0|0:0,0:0:0:0:
208,48,34667,1,8,0:0:0:0:
256,48,34737,1,8,0:0:0:0:
304,48,34805,1,8,0:0:0:0:
96,144,34945,1,0,0:0:0:0:
240,144,35083,1,4,0:0:0:0:
368,144,35221,1,0,0:0:0:0:
480,144,35361,6,0,P|448:288|384:336,1,187.5,4|0,0:0|0:0,0:0:0:0:
96,304,35639,1,8,0:0:0:0:
432,208,36750,5,8,0:0:0:0:
80,208,36889,1,8,0:0:0:0:
128,160,37028,1,8,0:0:0:0:
384,160,37167,1,8,0:0:0:0:
336,112,37306,1,8,0:0:0:0:
64,112,37445,1,8,0:0:0:0:
432,80,37583,2,4,B|308:80|308:80|440:80,1,250,4|8,0:0|0:0,0:0:0:0:
288,224,38417,6,0,L|416:224,1,125,4|8,0:0|0:0,0:0:0:0:
176,160,38695,1,0,0:0:0:0:
288,144,38833,1,8,0:0:0:0:
304,96,38903,1,8,0:0:0:0:
288,48,38972,1,8,0:0:0:0:
32,224,39111,1,0,0:0:0:0:
352,240,39250,5,4,0:0:0:0:
240,240,39528,2,0,L|112:240,1,125
352,176,39806,1,4,0:0:0:0:
176,160,40083,1,0,0:0:0:0:
352,272,40361,6,0,B|432:240|432:240|416:176,1,125,4|0,0:0|0:0,0:0:0:0:
128,240,40639,2,0,B|48:208|48:208|96:144,1,125
416,256,40917,1,4,0:0:0:0:
320,192,41056,5,0,0:0:0:0:
336,192,41125,1,0,0:0:0:0:
352,192,41195,1,0,0:0:0:0:
240,112,41333,5,0,0:0:0:0:
256,112,41402,1,0,0:0:0:0:
272,112,41472,1,4,0:0:0:0:
208,256,41611,5,0,0:0:0:0:
192,256,41680,1,0,0:0:0:0:
176,256,41750,1,0,0:0:0:0:
304,320,41889,2,0,L|336:240,1,62.5
176,240,42028,1,4,0:0:0:0:
32,224,42097,2,0,L|0:160,1,62.5
304,192,42306,5,0,0:0:0:0:
416,192,42445,1,4,0:0:0:0:
160,192,42583,1,4,0:0:0:0:
272,192,42722,1,4,0:0:0:0:
128,192,42861,1,4,0:0:0:0:
384,112,43000,5,0,0:0:0:0:
320,112,43070,1,0,0:0:0:0:
256,112,43139,1,0,0:0:0:0:
304,304,43278,5,0,0:0:0:0:
416,304,43417,1,4,0:0:0:0:
160,304,43555,1,4,0:0:0:0:
272,304,43694,1,0,0:0:0:0:
112,208,43833,2,4,L|0:112,1,125,4|0,0:0|0:0,0:0:0:0:
240,192,44110,2,0,L|144:96,1,125
416,192,44389,6,0,L|496:80,1,125
336,352,44667,5,8,0:0:0:0:
304,304,44736,1,4,0:0:0:0:
336,256,44806,1,4,0:0:0:0:
192,288,44945,5,0,0:0:0:0:
192,240,45014,1,4,0:0:0:0:
192,192,45083,1,4,0:0:0:0:
48,240,45222,5,8,0:0:0:0:
80,192,45291,1,4,0:0:0:0:
48,144,45361,1,4,0:0:0:0:
256,352,45500,5,8,0:0:0:0:
352,256,45639,1,0,0:0:0:0:
144,256,45778,1,0,0:0:0:0:
384,192,45917,1,0,0:0:0:0:
112,192,46056,1,0,0:0:0:0:
416,128,46195,1,0,0:0:0:0:
96,128,46333,1,4,0:0:0:0:
480,80,46472,5,2,0:0:0:0:
384,256,46750,2,0,B|176:256|176:256|352:256|352:256|224:256,1,500,4|0,0:0|0:0,0:0:0:0:
64,128,47583,1,0,0:0:0:0:
320,208,47861,5,4,0:0:0:0:
48,208,48000,1,4,0:0:0:0:
256,208,48139,2,0,B|256:64|256:64|256:144,1,187.5,8|0,0:0|0:0,0:0:0:0:
192,208,48417,5,4,0:0:0:0:
464,208,48556,1,4,0:0:0:0:
256,208,48695,2,0,B|256:352|256:352|256:308,1,187.5,8|0,0:0|0:0,0:0:0:0:
320,208,48972,5,4,0:0:0:0:
48,208,49111,1,4,0:0:0:0:
256,208,49250,2,0,B|256:64|256:64|256:144,1,187.5,8|0,0:0|0:0,0:0:0:0:
192,208,49528,1,0,0:0:0:0:
384,336,49806,5,8,0:0:0:0:
240,352,49945,1,0,0:0:0:0:
192,320,50014,1,0,0:0:0:0:
192,272,50083,1,0,0:0:0:0:
352,320,50222,2,0,P|384:256|368:192,1,125,0|8,0:0|0:0,0:0:0:0:
320,192,50500,5,0,0:0:0:0:
256,192,50569,1,0,0:0:0:0:
192,192,50638,1,4,0:0:0:0:
320,128,50778,1,4,0:0:0:0:
256,112,50847,1,4,0:0:0:0:
400,64,50986,1,4,0:0:0:0:
336,48,51055,1,4,0:0:0:0:
128,288,51195,6,8,L|32:192,2,125
256,224,51611,2,0,P|272:128|240:80,1,125
128,288,52028,2,0,L|64:176,3,125,8|0|8|0,0:0|0:0|0:0|0:0,0:0:0:0:
352,224,52583,2,0,L|480:160,3,125,4|0|4|0,0:0|0:0|0:0|0:0,0:0:0:0:
160,208,53139,6,0,L|32:176,1,125
288,352,53417,6,0,B|448:240|448:240|368:80|368:80|240:80|240:80|512:80|512:80|352:160,1,937.5,2|0,0:0|0:0,0:0:0:0:
176,352,54528,6,0,P|64:272|288:96,2,500,2|0|2,0:0|0:0|0:0,0:0:0:0:
416,336,55778,5,4,0:0:0:0:
160,224,55917,1,0,0:0:0:0:
448,176,56056,1,4,0:0:0:0:
368,256,56333,1,4,0:0:0:0:
80,304,56472,1,4,0:0:0:0:
192,288,56750,5,0,0:0:0:0:
192,256,56843,1,0,0:0:0:0:
192,224,56935,1,0,0:0:0:0:
192,192,57028,1,0,0:0:0:0:
432,256,57306,5,0,0:0:0:0:
432,224,57399,1,0,0:0:0:0:
432,192,57491,1,0,0:0:0:0:
432,160,57584,1,0,0:0:0:0:
240,288,57861,5,4,0:0:0:0:
496,176,58000,1,0,0:0:0:0:
208,128,58139,1,4,0:0:0:0:
352,96,58278,1,4,0:0:0:0:
256,176,58556,1,0,0:0:0:0:
16,192,58695,2,0,P|128:240|224:336,2,250
192,176,59528,5,0,0:0:0:0:
192,160,59620,1,0,0:0:0:0:
192,144,59713,1,0,0:0:0:0:
192,128,59806,1,0,0:0:0:0:
336,224,60083,6,0,B|512:224|512:224|432:224,1,250,4|0,0:0|0:0,0:0:0:0:
176,272,60500,1,4,0:0:0:0:
256,144,60778,1,4,0:0:0:0:
176,144,60917,1,4,0:0:0:0:
368,304,61195,5,0,0:0:0:0:
416,256,61264,1,0,0:0:0:0:
432,184,61333,1,0,0:0:0:0:
408,120,61403,1,0,0:0:0:0:
344,88,61472,1,0,0:0:0:0:
272,96,61542,1,0,0:0:0:0:
216,136,61611,5,0,0:0:0:0:
208,204,61681,1,0,0:0:0:0:
240,268,61750,1,0,0:0:0:0:
300,308,61820,1,0,0:0:0:0:
368,304,61889,1,0,0:0:0:0:
428,264,61958,1,0,0:0:0:0:
452,196,62028,5,0,0:0:0:0:
432,124,62097,1,0,0:0:0:0:
384,68,62167,1,0,0:0:0:0:
316,48,62236,1,0,0:0:0:0:
128,128,62306,2,0,L|56:128,1,62.5,8|0,0:0|0:0,0:0:0:0:
256,128,62445,2,0,L|328:128,1,62.5,8|0,0:0|0:0,0:0:0:0:
96,352,62583,5,0,0:0:0:0:
32,352,62653,1,0,0:0:0:0:
32,288,62722,1,0,0:0:0:0:
96,288,62792,1,0,0:0:0:0:
336,336,62861,5,0,0:0:0:0:
400,320,62931,1,0,0:0:0:0:
456,280,63000,1,0,0:0:0:0:
488,216,63070,1,0,0:0:0:0:
488,152,63139,5,0,0:0:0:0:
456,88,63208,1,0,0:0:0:0:
408,40,63278,1,0,0:0:0:0:
344,16,63347,1,0,0:0:0:0:
176,304,63417,6,0,L|104:304,1,62.5,8|0,0:0|0:0,0:0:0:0:
304,304,63556,2,0,L|376:304,1,62.5,8|0,0:0|0:0,0:0:0:0:
128,240,63695,6,0,L|56:240,1,62.5,8|0,0:0|0:0,0:0:0:0:
256,240,63834,2,0,L|328:240,1,62.5,8|0,0:0|0:0,0:0:0:0:
88,176,63972,5,2,0:0:0:0:
400,344,64528,5,0,0:0:0:0:
144,328,64667,1,8,0:0:0:0:
224,296,64945,1,0,0:0:0:0:
256,264,65222,1,0,0:0:0:0:
288,232,65500,1,0,0:0:0:0:
320,200,65778,1,0,0:0:0:0:
352,168,66056,1,0,0:0:0:0:
0,168,66333,5,8,0:0:0:0:
232,96,66472,1,12,0:0:0:0:
304,336,66750,5,0,0:0:0:0:
272,304,66889,1,0,0:0:0:0:
240,272,67167,1,0,0:0:0:0:
208,240,67445,1,0,0:0:0:0:
176,208,67722,1,0,0:0:0:0:
144,176,68000,1,0,0:0:0:0:
112,144,68278,1,4,0:0:0:0:
384,304,68417,5,8,0:0:0:0:
432,256,68486,1,8,0:0:0:0:
456,192,68556,1,8,0:0:0:0:
448,128,68625,1,8,0:0:0:0:
408,64,68695,1,8,0:0:0:0:
160,352,68972,6,0,L|80:216,1,125,8|0,0:0|0:0,0:0:0:0:
352,352,69250,6,0,L|432:216,1,125,8|0,0:0|0:0,0:0:0:0:
16,220,69528,2,0,L|84:104,1,125,8|0,0:0|0:0,0:0:0:0:
432,212,69806,2,0,L|344:116,1,125,8|0,0:0|0:0,0:0:0:0:
216,32,70083,6,0,L|216:100,1,62.5,8|0,0:0|0:0,0:0:0:0:
288,40,70222,2,0,L|304:116,1,62.5,8|0,0:0|0:0,0:0:0:0:
208,112,70361,6,0,L|160:176,1,62.5,8|0,0:0|0:0,0:0:0:0:
320,160,70500,2,0,L|384:224,1,62.5,8|0,0:0|0:0,0:0:0:0:
176,176,70639,6,0,L|112:224,1,62.5,8|0,0:0|0:0,0:0:0:0:
352,240,70778,2,0,L|416:288,1,62.5,8|0,0:0|0:0,0:0:0:0:
144,256,70917,6,0,L|80:304,1,62.5,8|0,0:0|0:0,0:0:0:0:
384,320,71056,2,0,L|448:320,1,62.5,8|0,0:0|0:0,0:0:0:0:
96,304,71195,5,4,0:0:0:0:
64,240,71333,1,4,0:0:0:0:
112,176,71472,1,4,0:0:0:0:
240,208,71750,6,4,L|344:136,4,125
80,192,72583,1,0,0:0:0:0:
256,192,72861,1,0,0:0:0:0:
432,192,73139,1,0,0:0:0:0:
256,352,73417,5,2,0:0:0:0:
176,240,77861,5,0,0:0:0:0:
384,192,78000,1,0,0:0:0:0:
128,144,78139,1,2,0:0:0:0:
288,144,78417,1,0,0:0:0:0:
128,352,78556,5,0,0:0:0:0:
176,352,78625,1,0,0:0:0:0:
416,352,78695,1,2,0:0:0:0:
416,224,78972,2,0,P|464:144|448:96,1,125,4|0,0:0|0:0,0:0:0:0:
96,160,79389,1,4,0:0:0:0:
256,192,79667,5,4,0:0:0:0:
128,320,79945,2,0,P|64:272|64:192,1,125
400,288,80361,1,0,0:0:0:0:
144,208,80639,2,0,L|304:208,1,125
416,208,80986,5,0,0:0:0:0:
464,160,81056,1,4,0:0:0:0:
496,96,81125,2,0,P|432:48|384:32,1,125
144,320,81333,5,4,0:0:0:0:
112,256,81402,2,0,P|176:208|224:192,1,125
384,288,81611,5,4,0:0:0:0:
416,224,81680,2,0,P|352:176|304:160,1,125
128,288,81889,5,4,0:0:0:0:
80,272,81958,2,0,P|32:224|160:96,1,250
304,272,82306,1,0,0:0:0:0:
112,192,82583,1,4,0:0:0:0:
320,192,82861,6,0,L|192:192,1,125
464,200,83139,1,2,0:0:0:0:
388,264,83278,2,0,L|464:84,1,187.5,8|0,0:0|0:0,0:0:0:0:
192,240,83556,2,0,L|112:56,1,187.5,8|0,0:0|0:0,0:0:0:0:
296,44,83833,2,0,L|368:216,1,187.5,8|0,0:0|0:0,0:0:0:0:
100,68,84111,2,0,L|25:239,1,187.5,8|0,0:0|0:0,0:0:0:0:
256,336,84389,6,0,L|112:288,1,125,8|0,0:0|0:0,0:0:0:0:
416,192,84806,1,2,0:0:0:0:
240,96,85083,2,8,L|384:48,1,125
116,48,85500,2,0,L|44:272,1,187.5,8|0,0:0|0:0,0:0:0:0:
348,340,85778,2,0,L|404:128,1,187.5,8|0,0:0|0:0,0:0:0:0:
96,272,86056,5,4,0:0:0:0:
224,128,86195,2,8,L|96:128,1,125
352,80,86472,1,4,0:0:0:0:
272,336,86750,2,8,P|464:272|480:224,1,250
256,236,87306,2,8,L|416:236,1,125
144,256,87722,6,0,L|56:68,1,187.5,8|0,0:0|0:0,0:0:0:0:
368,240,88000,2,0,L|464:64,1,187.5,8|0,0:0|0:0,0:0:0:0:
208,348,88278,2,0,L|312:152,1,187.5,8|0,0:0|0:0,0:0:0:0:
464,144,88555,1,4,0:0:0:0:
288,240,88833,6,8,L|344:176,1,62.5
100,244,88972,2,0,L|20:40,1,187.5,4|0,0:0|0:0,0:0:0:0:
384,176,89250,1,8,0:0:0:0:
192,320,89528,6,8,P|64:320|16:304,1,125
352,272,89806,1,0,0:0:0:0:
400,272,89876,1,0,0:0:0:0:
448,272,89945,2,0,B|512:208|512:208|480:160,1,125
176,192,90153,5,0,0:0:0:0:
128,176,90222,2,0,P|66:171|64:112,1,125,4|0,0:0|0:0,0:0:0:0:
288,320,90431,5,0,0:0:0:0:
336,304,90500,2,0,P|398:299|400:240,1,125,4|0,0:0|0:0,0:0:0:0:
352,208,90708,5,8,0:0:0:0:
416,192,90778,2,0,P|480:144|352:48,1,250,4|0,0:0|0:0,0:0:0:0:
352,32,91126,1,4,0:0:0:0:
80,304,91195,6,0,P|80:192|144:96,1,187.5,8|0,0:0|0:0,0:0:0:0:
400,288,91472,2,0,B|368:160|368:160|320:128,1,187.5,8|0,0:0|0:0,0:0:0:0:
64,160,91750,1,8,0:0:0:0:
416,176,91889,1,4,0:0:0:0:
368,336,92167,2,0,P|336:240|256:160,1,187.5,8|0,0:0|0:0,0:0:0:0:
64,272,92445,2,0,B|96:160|112:112|112:112|144:96,1,187.5,8|0,0:0|0:0,0:0:0:0:
352,304,92722,6,0,P|432:256|464:144,1,187.5,8|0,0:0|0:0,0:0:0:0:
256,288,93000,2,0,P|176:224|192:112,1,187.5,8|0,0:0|0:0,0:0:0:0:
480,128,93278,1,8,0:0:0:0:
256,128,93417,1,4,0:0:0:0:
416,352,93695,2,0,B|368:192|368:192|320:160,1,187.5,8|0,0:0|0:0,0:0:0:0:
48,240,93972,2,0,L|112:112,1,125,8|0,0:0|0:0,0:0:0:0:
296,360,94181,5,0,0:0:0:0:
224,360,94389,1,0,0:0:0:0:
272,288,94528,1,0,0:0:0:0:
320,296,94597,1,0,0:0:0:0:
296,240,94667,1,0,0:0:0:0:
344,248,94736,1,0,0:0:0:0:
320,200,94806,1,0,0:0:0:0:
368,208,94875,5,0,0:0:0:0:
344,152,94945,1,0,0:0:0:0:
392,160,95014,1,0,0:0:0:0:
336,112,95083,1,4,0:0:0:0:
128,128,95222,1,8,0:0:0:0:
384,32,95361,1,4,0:0:0:0:
256,352,95639,6,0,P|120:320|48:192,1,250,0|0,0:0|0:0,0:0:0:0:
24,184,95986,1,0,0:0:0:0:
32,120,96056,1,0,0:0:0:0:
64,56,96125,1,0,0:0:0:0:
128,32,96195,1,0,0:0:0:0:
200,32,96264,1,0,0:0:0:0:
264,72,96333,1,0,0:0:0:0:
288,136,96403,1,0,0:0:0:0:
288,208,96472,6,0,P|256:328|112:192,1,375,0|0,0:0|0:0,0:0:0:0:
128,160,96958,1,0,0:0:0:0:
184,128,97028,1,0,0:0:0:0:
256,136,97097,1,0,0:0:0:0:
304,184,97167,1,0,0:0:0:0:
296,248,97236,1,0,0:0:0:0:
96,336,97306,6,0,L|24:336,1,62.5,0|0,0:0|0:0,0:0:0:0:
208,336,97445,2,0,L|288:336,1,62.5
64,192,97583,5,0,0:0:0:0:
16,192,97653,1,0,0:0:0:0:
16,128,97722,1,0,0:0:0:0:
64,128,97792,1,0,0:0:0:0:
304,240,97861,5,4,0:0:0:0:
368,240,97931,1,0,0:0:0:0:
416,208,98000,1,0,0:0:0:0:
368,176,98070,1,0,0:0:0:0:
144,112,98139,5,4,0:0:0:0:
96,112,98209,1,0,0:0:0:0:
96,48,98278,1,0,0:0:0:0:
144,48,98348,1,0,0:0:0:0:
432,192,98417,2,0,L|480:128,1,62.5,4|0,0:0|0:0,0:0:0:0:
224,352,98556,5,4,0:0:0:0:
160,336,98625,1,0,0:0:0:0:
112,288,98695,1,0,0:0:0:0:
80,224,98764,1,0,0:0:0:0:
80,160,98833,1,0,0:0:0:0:
112,96,98903,1,0,0:0:0:0:
336,256,98972,5,4,0:0:0:0:
384,256,99042,1,0,0:0:0:0:
384,192,99111,1,0,0:0:0:0:
336,192,99181,1,0,0:0:0:0:
176,256,99250,5,4,0:0:0:0:
128,256,99320,1,0,0:0:0:0:
128,192,99389,1,0,0:0:0:0:
176,192,99459,1,0,0:0:0:0:
352,352,99528,5,4,0:0:0:0:
416,352,99597,1,0,0:0:0:0:
464,320,99667,1,0,0:0:0:0:
416,288,99736,1,0,0:0:0:0:
160,352,99806,5,4,0:0:0:0:
96,352,99875,1,0,0:0:0:0:
48,320,99945,1,0,0:0:0:0:
96,288,100014,1,0,0:0:0:0:
304,48,100083,5,0,0:0:0:0:
368,64,100153,1,0,0:0:0:0:
416,112,100222,1,0,0:0:0:0:
432,176,100292,1,0,0:0:0:0:
416,240,100361,1,0,0:0:0:0:
368,288,100431,1,0,0:0:0:0:
304,304,100500,1,0,0:0:0:0:
240,288,100570,5,0,0:0:0:0:
192,240,100639,1,0,0:0:0:0:
176,176,100708,1,0,0:0:0:0:
192,112,100778,1,0,0:0:0:0:
240,64,100847,1,0,0:0:0:0:
304,48,100917,1,0,0:0:0:0:
368,64,100986,1,0,0:0:0:0:
416,112,101056,5,0,0:0:0:0:
432,176,101125,2,0,P|416:256|272:336,1,250,2|0,0:0|0:0,0:0:0:0:
208,336,101472,1,0,0:0:0:0:
144,320,101542,1,0,0:0:0:0:
96,288,101611,1,0,0:0:0:0:
64,240,101681,1,0,0:0:0:0:
48,176,101750,1,0,0:0:0:0:
64,112,101820,5,0,0:0:0:0:
112,64,101889,1,0,0:0:0:0:
176,48,101958,1,0,0:0:0:0:
240,64,102028,1,0,0:0:0:0:
288,112,102097,1,0,0:0:0:0:
304,176,102167,1,0,0:0:0:0:
288,240,102236,1,0,0:0:0:0:
96,352,102306,6,0,L|0:352,1,62.5,4|0,0:0|0:0,0:0:0:0:
240,352,102445,2,0,L|320:352,1,62.5,4|0,0:0|0:0,0:0:0:0:
80,288,102583,1,0,0:0:0:0:
48,224,102653,1,0,0:0:0:0:
48,160,102722,1,0,0:0:0:0:
80,96,102792,1,0,0:0:0:0:
128,48,102861,1,0,0:0:0:0:
192,32,102931,5,0,0:0:0:0:
256,32,103000,1,0,0:0:0:0:
320,48,103070,1,0,0:0:0:0:
368,96,103139,1,0,0:0:0:0:
384,160,103208,1,0,0:0:0:0:
368,224,103278,1,0,0:0:0:0:
336,288,103347,1,0,0:0:0:0:
272,320,103417,5,0,0:0:0:0:
200,312,103486,1,0,0:0:0:0:
152,264,103556,1,0,0:0:0:0:
144,192,103625,1,0,0:0:0:0:
168,128,103695,1,0,0:0:0:0:
224,88,103764,1,0,0:0:0:0:
296,88,103833,1,0,0:0:0:0:
344,144,103903,5,0,0:0:0:0:
336,208,103972,1,4,0:0:0:0:
208,208,104111,1,4,0:0:0:0:
448,208,104250,1,4,0:0:0:0:
320,208,104389,1,4,0:0:0:0:
96,192,104528,6,8,L|16:80,1,125
416,192,104806,2,8,L|496:80,1,125
208,192,105083,1,8,0:0:0:0:
416,192,105361,6,8,L|496:80,1,125
96,192,105639,2,8,L|16:80,1,125
416,192,105917,2,8,L|496:80,1,125
176,192,106195,1,8,0:0:0:0:
304,192,106472,1,2,0:0:0:0:
96,192,106750,6,8,L|16:80,1,125
416,192,107028,2,8,L|496:80,1,125
192,192,107306,1,0,0:0:0:0:
320,288,107583,6,0,L|195:288,1,125,8|0,0:0|0:0,0:0:0:0:
80,192,107861,1,4,0:0:0:0:
304,128,108000,1,8,0:0:0:0:
256,128,108070,1,8,0:0:0:0:
208,128,108139,1,8,0:0:0:0:
432,224,108278,6,8,B|480:176|480:176|448:128,1,125
208,48,108556,1,8,0:0:0:0:
256,48,108625,1,8,0:0:0:0:
304,48,108695,1,8,0:0:0:0:
96,80,108833,1,4,0:0:0:0:
256,288,108972,5,0,0:0:0:0:
144,288,109111,1,0,0:0:0:0:
384,288,109250,1,0,0:0:0:0:
288,288,109389,1,0,0:0:0:0:
80,224,109528,5,0,0:0:0:0:
64,176,109597,1,0,0:0:0:0:
80,144,109667,1,8,0:0:0:0:
464,128,109736,1,8,0:0:0:0:
240,192,109875,2,8,L|176:192,1,62.5
400,240,110083,6,0,P|448:192|464:128,1,125,8|0,0:0|0:0,0:0:0:0:
112,240,110361,2,0,P|64:192|48:128,1,125,8|0,0:0|0:0,0:0:0:0:
320,240,110639,1,8,0:0:0:0:
96,160,110778,1,8,0:0:0:0:
416,96,110917,1,0,0:0:0:0:
256,96,111195,1,2,0:0:0:0:
368,336,112306,6,8,L|464:240,1,125
208,288,112583,6,8,L|336:176,1,125
84,192,112861,6,8,L|20:80,1,125
448,80,113139,1,8,0:0:0:0:
64,80,113417,1,2,0:0:0:0:
256,192,113556,12,0,116611,0:0:0:0:
256,112,116750,5,0,0:0:0:0:
