osu file format v14

[General]
AudioFilename: O2i3 - Ooi.mp3
AudioLeadIn: 0
PreviewTime: 77722
Countdown: 0
SampleSet: Soft
StackLeniency: 0.2
Mode: 2
LetterboxInBreaks: 0
WidescreenStoryboard: 1

[Editor]
Bookmarks: 2306,6750,11195,15639,20083,24528,28972,33417,37861,42306,46750,51195,55639,60083,64528,68972,73417,77861,78972,82306,86750,91195,95639,100083,104528,108972,113417
DistanceSpacing: 0.5
BeatDivisor: 2
GridSize: 8
TimelineZoom: 2

[Metadata]
Title:Ooi [Game Edit]
TitleUnicode:Ooi [Game Edit]
Artist:O2i3
ArtistUnicode:O2i3
Creator:xi-False
Version:I (cup)
Source:
Tags:Jaxalate Records disc 2 Hardcore high bpm
BeatmapID:968029
BeatmapSetID:451239

[Difficulty]
HPDrainRate:5
CircleSize:2.5
OverallDifficulty:6.5
ApproachRate:6.5
SliderMultiplier:1.3
SliderTickRate:1

[Events]
//Background and Video events
0,0,"Ooi Hard!.jpg",0,0
//Break Periods
//Storyboard Layer 0 (Background)
//Storyboard Layer 1 (Fail)
//Storyboard Layer 2 (Pass)
//Storyboard Layer 3 (Foreground)
//Storyboard Sound Samples

[TimingPoints]
1195,277.777777777778,4,2,0,100,1,0

[Colours]
Combo1 : 210,226,7
Combo2 : 10,34,118
Combo3 : 231,24,138
Combo4 : 72,225,164
Combo5 : 205,123,63
Combo6 : 116,221,239
Combo7 : 155,32,238
Combo8 : 233,63,105

[HitObjects]
176,208,2306,6,0,P|198:267|254:298,1,130
320,304,2722,2,0,P|400:272|400:240,2,130
176,304,3695,1,0,0:0:0:0:
256,224,3972,6,0,L|112:224,1,130
256,144,4528,1,0,0:0:0:0:
128,144,4806,1,0,0:0:0:0:
256,256,5083,2,0,L|304:192,1,65
224,256,5500,1,0,0:0:0:0:
384,208,6195,5,0,0:0:0:0:
240,352,6750,2,0,P|144:320|96:256,1,130
72,256,7167,1,0,0:0:0:0:
40,192,7306,1,0,0:0:0:0:
56,120,7445,1,0,0:0:0:0:
192,128,7722,5,0,0:0:0:0:
320,128,8139,2,0,L|368:0,2,130
192,208,8972,1,0,0:0:0:0:
256,192,9111,12,0,10917,0:0:0:0:
192,352,11195,5,0,0:0:0:0:
128,320,11333,1,0,0:0:0:0:
88,256,11472,1,0,0:0:0:0:
96,184,11611,1,0,0:0:0:0:
152,136,11750,1,0,0:0:0:0:
272,80,12028,5,0,0:0:0:0:
392,72,12306,5,0,0:0:0:0:
448,120,12445,1,0,0:0:0:0:
456,192,12584,1,0,0:0:0:0:
416,256,12723,1,0,0:0:0:0:
352,288,12861,1,0,0:0:0:0:
256,288,13139,1,0,0:0:0:0:
144,288,13417,5,0,0:0:0:0:
80,288,13556,1,0,0:0:0:0:
48,256,13695,1,0,0:0:0:0:
80,224,13833,1,0,0:0:0:0:
144,224,13972,1,0,0:0:0:0:
288,224,14250,5,0,0:0:0:0:
368,192,14528,1,0,0:0:0:0:
336,160,14667,1,0,0:0:0:0:
288,160,14806,1,0,0:0:0:0:
224,160,14945,1,0,0:0:0:0:
160,160,15083,2,0,P|96:192|128:320,1,195
160,304,15639,5,0,0:0:0:0:
224,304,15778,1,0,0:0:0:0:
288,304,15917,1,0,0:0:0:0:
336,288,16056,1,0,0:0:0:0:
352,240,16195,1,0,0:0:0:0:
224,224,16472,5,0,0:0:0:0:
96,176,16750,1,0,0:0:0:0:
120,152,16889,1,0,0:0:0:0:
168,136,17028,1,0,0:0:0:0:
232,136,17167,1,0,0:0:0:0:
296,136,17306,1,0,0:0:0:0:
240,208,17583,5,0,0:0:0:0:
160,320,17861,1,0,0:0:0:0:
184,344,18000,1,0,0:0:0:0:
232,360,18139,1,0,0:0:0:0:
296,360,18278,1,0,0:0:0:0:
360,360,18417,1,0,0:0:0:0:
288,288,18695,5,0,0:0:0:0:
392,256,18972,1,0,0:0:0:0:
464,232,19111,1,0,0:0:0:0:
480,160,19250,1,0,0:0:0:0:
448,88,19389,1,0,0:0:0:0:
376,88,19528,1,0,0:0:0:0:
224,336,20083,6,0,P|160:296|136:248,1,130
288,240,20639,1,0,0:0:0:0:
304,208,20778,1,0,0:0:0:0:
176,240,21056,2,0,P|128:160|144:112,1,130
248,176,21611,2,0,B|344:176|344:176|296:176,1,130
208,272,22167,5,0,0:0:0:0:
160,240,22306,2,0,P|112:192|144:128,1,130
288,240,22861,1,0,0:0:0:0:
352,240,23000,1,0,0:0:0:0:
272,352,23278,6,0,L|144:272,3,130
352,352,24528,2,0,P|384:256|384:192,1,130
240,208,25083,5,0,0:0:0:0:
208,176,25222,1,0,0:0:0:0:
320,320,25500,2,0,L|416:192,2,130
192,304,26333,2,0,P|112:256|112:224,1,130
144,176,26750,5,0,0:0:0:0:
304,176,27028,1,0,0:0:0:0:
176,96,27306,1,0,0:0:0:0:
192,80,27445,1,0,0:0:0:0:
304,352,27722,2,0,L|208:240,2,130
128,336,28972,6,0,P|64:224|48:176,1,130
192,224,29528,2,0,L|368:224,1,130
432,208,30083,2,0,L|272:160,1,130
176,160,30639,1,0,0:0:0:0:
384,336,31195,6,0,L|464:224,1,130
336,192,31750,2,0,L|192:192,1,130
96,192,32306,2,0,L|192:96,1,130
288,288,32861,6,0,L|320:208,3,65
208,336,33417,2,0,L|80:288,1,130
192,240,33972,2,0,L|352:240,1,130
432,240,34528,2,0,L|304:128,1,130
208,224,35083,5,0,0:0:0:0:
176,192,35222,1,0,0:0:0:0:
224,144,35361,2,0,P|288:112|368:112,1,130
176,40,36195,5,0,0:0:0:0:
400,336,36750,1,0,0:0:0:0:
392,320,36889,1,0,0:0:0:0:
304,296,37028,1,0,0:0:0:0:
296,280,37167,1,0,0:0:0:0:
208,256,37306,1,0,0:0:0:0:
200,240,37445,1,0,0:0:0:0:
112,224,37583,6,0,P|72:144|144:120,2,130
248,228,38417,5,0,0:0:0:0:
288,184,38556,1,0,0:0:0:0:
256,144,38695,1,0,0:0:0:0:
160,128,38972,1,0,0:0:0:0:
120,84,39111,1,0,0:0:0:0:
152,44,39250,1,0,0:0:0:0:
256,56,39528,5,0,0:0:0:0:
360,44,39806,1,0,0:0:0:0:
400,48,39945,1,0,0:0:0:0:
432,80,40083,2,0,P|424:176|368:232,1,130
256,228,40639,5,0,0:0:0:0:
160,208,40917,1,0,0:0:0:0:
224,152,41195,1,0,0:0:0:0:
128,132,41472,1,0,0:0:0:0:
288,312,41750,2,0,L|368:256,2,86.6666666666667
176,312,42306,5,0,0:0:0:0:
104,288,42445,1,0,0:0:0:0:
56,232,42583,1,0,0:0:0:0:
64,160,42722,1,0,0:0:0:0:
120,112,42861,1,0,0:0:0:0:
256,80,43139,1,0,0:0:0:0:
392,96,43417,5,0,0:0:0:0:
448,144,43556,1,0,0:0:0:0:
456,216,43695,1,0,0:0:0:0:
408,272,43833,1,0,0:0:0:0:
336,296,43972,1,0,0:0:0:0:
200,328,44250,6,0,P|264:296|248:216,1,130
224,200,44667,1,0,0:0:0:0:
192,200,44736,1,0,0:0:0:0:
152,200,44806,1,0,0:0:0:0:
232,112,45083,2,0,P|168:40|200:0,1,130
320,344,45639,5,0,0:0:0:0:
328,328,45778,1,0,0:0:0:0:
416,288,45917,1,0,0:0:0:0:
424,272,46056,1,0,0:0:0:0:
496,224,46195,1,0,0:0:0:0:
504,208,46334,1,0,0:0:0:0:
424,200,46472,6,0,P|336:240|312:272,2,130
320,344,47306,2,0,P|232:312|184:272,1,130
296,208,47861,5,0,0:0:0:0:
352,208,48000,1,0,0:0:0:0:
376,168,48139,1,0,0:0:0:0:
288,136,48417,1,0,0:0:0:0:
232,136,48556,1,0,0:0:0:0:
208,96,48695,1,0,0:0:0:0:
376,72,48972,5,0,0:0:0:0:
288,352,49250,1,0,0:0:0:0:
232,352,49389,1,0,0:0:0:0:
208,312,49528,1,0,0:0:0:0:
208,248,49667,2,0,P|240:208|256:192,1,65
392,144,50083,6,0,L|232:144,1,130
144,160,50639,2,0,L|94:244,2,97.5
232,160,51195,1,0,0:0:0:0:
288,160,51333,1,0,0:0:0:0:
344,160,51472,1,0,0:0:0:0:
376,160,51611,1,0,0:0:0:0:
392,136,51750,1,0,0:0:0:0:
304,240,52028,5,0,0:0:0:0:
200,240,52306,1,0,0:0:0:0:
144,240,52444,1,0,0:0:0:0:
88,240,52583,1,0,0:0:0:0:
56,240,52722,1,0,0:0:0:0:
40,216,52861,1,0,0:0:0:0:
144,160,53139,5,0,0:0:0:0:
256,192,53417,12,0,55361,0:0:0:0:
296,288,55639,6,0,L|344:224,2,65
208,288,56056,1,0,0:0:0:0:
112,232,56333,2,0,P|96:184|96:160,1,65
192,160,56750,1,0,0:0:0:0:
256,160,56889,1,0,0:0:0:0:
320,160,57028,1,0,0:0:0:0:
416,160,57306,6,0,L|464:96,2,65
320,320,57861,1,0,0:0:0:0:
248,320,58000,1,0,0:0:0:0:
184,280,58139,1,0,0:0:0:0:
152,208,58278,1,0,0:0:0:0:
184,144,58417,2,0,L|320:144,1,130
184,320,58972,6,0,L|112:208,2,130
256,192,60083,1,0,0:0:0:0:
312,192,60222,1,0,0:0:0:0:
368,192,60361,1,0,0:0:0:0:
400,168,60500,1,0,0:0:0:0:
256,264,60917,5,0,0:0:0:0:
176,16,61195,1,0,0:0:0:0:
208,32,61333,1,0,0:0:0:0:
272,40,61472,1,0,0:0:0:0:
328,96,61611,1,0,0:0:0:0:
360,168,61750,1,0,0:0:0:0:
352,248,61889,5,0,0:0:0:0:
304,312,62028,1,0,0:0:0:0:
232,320,62167,1,0,0:0:0:0:
160,312,62306,1,0,0:0:0:0:
104,256,62445,1,0,0:0:0:0:
96,176,62583,1,0,0:0:0:0:
120,104,62722,5,0,0:0:0:0:
192,72,62861,1,0,0:0:0:0:
272,80,63000,1,0,0:0:0:0:
336,120,63139,1,0,0:0:0:0:
360,192,63278,1,0,0:0:0:0:
360,272,63417,1,0,0:0:0:0:
296,320,63556,5,0,0:0:0:0:
224,312,63695,1,0,0:0:0:0:
192,240,63833,1,0,0:0:0:0:
232,176,63972,1,0,0:0:0:0:
384,208,64528,5,0,0:0:0:0:
400,192,64667,1,0,0:0:0:0:
304,336,64945,2,0,L|224:232,1,130
104,232,65500,2,0,L|200:120,1,130
336,128,66056,2,0,P|360:168|360:272,1,130
272,352,66472,1,0,0:0:0:0:
136,320,66750,6,0,L|96:240,1,65
232,192,67167,2,0,L|376:192,1,130
224,48,67722,1,0,0:0:0:0:
160,88,67861,1,0,0:0:0:0:
120,152,68000,1,0,0:0:0:0:
120,224,68139,1,0,0:0:0:0:
256,240,68417,5,0,0:0:0:0:
312,240,68556,1,0,0:0:0:0:
368,240,68695,1,0,0:0:0:0:
312,344,68972,1,0,0:0:0:0:
240,328,69111,1,0,0:0:0:0:
200,264,69250,1,0,0:0:0:0:
224,192,69389,5,0,0:0:0:0:
296,168,69528,1,0,0:0:0:0:
360,208,69667,1,0,0:0:0:0:
368,288,69806,1,0,0:0:0:0:
304,336,69945,1,0,0:0:0:0:
208,288,70083,5,0,0:0:0:0:
168,224,70222,1,0,0:0:0:0:
168,144,70361,1,0,0:0:0:0:
208,88,70500,1,0,0:0:0:0:
304,288,70639,5,0,0:0:0:0:
344,224,70778,1,0,0:0:0:0:
344,144,70917,1,0,0:0:0:0:
304,88,71056,1,0,0:0:0:0:
208,288,71195,6,0,L|72:256,1,130
176,144,71750,2,0,L|304:64,1,130
408,272,72306,2,0,L|344:136,1,130
208,232,72861,2,0,L|120:120,2,130
256,192,73556,12,0,77514,0:0:0:0:
312,264,77861,6,0,L|424:176,1,130
248,208,78417,1,0,0:0:0:0:
192,208,78556,1,0,0:0:0:0:
136,208,78695,1,0,0:0:0:0:
248,128,78972,1,0,0:0:0:0:
304,128,79111,1,0,0:0:0:0:
224,280,79389,6,0,L|64:208,1,130
208,352,79945,1,0,0:0:0:0:
264,352,80084,1,0,0:0:0:0:
376,344,80361,6,0,P|432:288|416:248,1,130
312,240,80778,1,0,0:0:0:0:
208,240,81056,2,0,B|120:240|120:240|136:184,1,130
248,152,81611,2,0,B|336:152|336:152|320:96,1,130
144,352,82306,6,0,P|96:288|104:224,1,130
224,232,82861,1,0,0:0:0:0:
280,232,83000,1,0,0:0:0:0:
400,272,83278,2,0,P|448:208|440:144,1,130
312,128,83833,6,0,P|216:136|176:152,1,130
296,232,84389,1,0,0:0:0:0:
352,232,84528,1,0,0:0:0:0:
264,344,84806,2,0,P|192:328|128:272,1,130
56,168,85222,6,0,P|136:144|200:136,2,130
152,144,85986,1,0,0:0:0:0:
280,192,86195,1,0,0:0:0:0:
336,192,86333,1,0,0:0:0:0:
392,192,86472,1,0,0:0:0:0:
336,344,86750,6,0,P|248:360|208:344,1,130
296,232,87306,1,0,0:0:0:0:
352,232,87445,1,0,0:0:0:0:
456,144,87722,2,0,P|392:136|312:144,1,130
160,56,88278,2,0,P|144:112|152:200,1,130
256,224,88833,5,0,0:0:0:0:
384,296,88972,2,0,P|416:256|408:176,1,130
280,200,89528,1,0,0:0:0:0:
224,200,89667,1,0,0:0:0:0:
80,232,89945,6,0,P|64:192|104:96,1,130
216,272,90500,2,0,L|352:208,1,130
384,336,91195,2,0,L|248:336,1,130
120,288,91750,5,0,0:0:0:0:
136,264,91889,1,0,0:0:0:0:
256,240,92167,2,0,L|336:112,2,130
96,208,93000,5,0,0:0:0:0:
216,144,93278,1,0,0:0:0:0:
264,144,93417,1,0,0:0:0:0:
416,160,93695,2,0,P|408:240|400:296,1,130
272,320,94111,1,0,0:0:0:0:
192,320,94389,1,0,0:0:0:0:
168,296,94528,1,0,0:0:0:0:
272,192,95083,5,0,0:0:0:0:
328,192,95222,1,0,0:0:0:0:
384,192,95361,1,0,0:0:0:0:
224,344,95639,1,0,0:0:0:0:
152,320,95778,1,0,0:0:0:0:
112,256,95917,1,0,0:0:0:0:
104,176,96056,5,0,0:0:0:0:
136,112,96195,1,0,0:0:0:0:
200,88,96333,1,0,0:0:0:0:
264,88,96472,1,0,0:0:0:0:
424,88,96889,5,0,0:0:0:0:
456,160,97028,1,0,0:0:0:0:
456,232,97167,1,0,0:0:0:0:
424,304,97306,1,0,0:0:0:0:
368,352,97445,1,0,0:0:0:0:
296,368,97583,1,0,0:0:0:0:
224,344,97722,5,0,0:0:0:0:
168,288,97861,1,0,0:0:0:0:
320,216,98139,1,0,0:0:0:0:
168,176,98417,1,0,0:0:0:0:
144,152,98556,1,0,0:0:0:0:
272,168,98972,6,0,L|408:168,3,130
256,352,100083,1,0,0:0:0:0:
192,320,100222,1,0,0:0:0:0:
160,256,100361,1,0,0:0:0:0:
200,200,100500,1,0,0:0:0:0:
256,224,100639,5,0,0:0:0:0:
312,200,100778,1,0,0:0:0:0:
352,256,100917,1,0,0:0:0:0:
320,320,101056,1,0,0:0:0:0:
256,352,101195,5,0,0:0:0:0:
152,312,101472,1,0,0:0:0:0:
88,272,101611,1,0,0:0:0:0:
56,208,101750,1,0,0:0:0:0:
64,136,101889,1,0,0:0:0:0:
128,88,102028,1,0,0:0:0:0:
272,72,102306,5,0,0:0:0:0:
344,96,102445,1,0,0:0:0:0:
400,152,102583,1,0,0:0:0:0:
408,232,102722,1,0,0:0:0:0:
376,304,102861,1,0,0:0:0:0:
312,352,103000,1,0,0:0:0:0:
240,344,103139,5,0,0:0:0:0:
176,304,103278,1,0,0:0:0:0:
144,232,103417,1,0,0:0:0:0:
144,152,103556,1,0,0:0:0:0:
192,96,103695,1,0,0:0:0:0:
264,64,103833,1,0,0:0:0:0:
344,72,103972,5,0,0:0:0:0:
408,120,104111,1,0,0:0:0:0:
416,200,104250,1,0,0:0:0:0:
320,352,104528,5,0,0:0:0:0:
312,336,104667,1,0,0:0:0:0:
208,304,104806,1,0,0:0:0:0:
200,288,104945,1,0,0:0:0:0:
96,248,105083,1,0,0:0:0:0:
200,184,105361,5,0,0:0:0:0:
208,168,105500,1,0,0:0:0:0:
312,136,105639,1,0,0:0:0:0:
320,120,105778,1,0,0:0:0:0:
424,96,105917,1,0,0:0:0:0:
432,80,106056,1,0,0:0:0:0:
312,248,106195,5,0,0:0:0:0:
200,248,106472,1,0,0:0:0:0:
88,256,106750,1,0,0:0:0:0:
96,240,106889,1,0,0:0:0:0:
192,160,107028,1,0,0:0:0:0:
200,144,107167,1,0,0:0:0:0:
304,96,107306,1,0,0:0:0:0:
160,48,107583,5,0,0:0:0:0:
104,88,107722,1,0,0:0:0:0:
80,160,107861,1,0,0:0:0:0:
104,240,108000,1,0,0:0:0:0:
176,288,108139,1,0,0:0:0:0:
256,280,108278,5,0,0:0:0:0:
312,224,108417,1,0,0:0:0:0:
336,152,108556,1,0,0:0:0:0:
336,152,108695,1,0,0:0:0:0:
312,224,108833,1,0,0:0:0:0:
256,280,108972,1,0,0:0:0:0:
176,288,109111,5,0,0:0:0:0:
104,240,109250,1,0,0:0:0:0:
80,160,109389,1,0,0:0:0:0:
104,88,109528,1,0,0:0:0:0:
224,168,109806,6,0,L|272:96,2,65
312,176,110361,1,0,0:0:0:0:
392,176,110639,2,0,L|344:104,2,65
256,272,111195,5,0,0:0:0:0:
72,264,111750,1,0,0:0:0:0:
200,256,112306,5,0,0:0:0:0:
280,256,112445,1,0,0:0:0:0:
360,256,112583,1,0,0:0:0:0:
392,216,112722,5,0,0:0:0:0:
360,184,112861,1,0,0:0:0:0:
280,184,113000,1,0,0:0:0:0:
200,184,113139,1,0,0:0:0:0:
328,96,113417,1,0,0:0:0:0:
256,192,113556,12,0,116333,0:0:0:0:
256,104,116750,5,0,0:0:0:0:
