osu file format v14

[General]
AudioFilename: O2i3 - Ooi.mp3
AudioLeadIn: 0
PreviewTime: 77769
Countdown: 0
SampleSet: Soft
StackLeniency: 0.2
Mode: 2
LetterboxInBreaks: 0
WidescreenStoryboard: 1

[Editor]
DistanceSpacing: 1
BeatDivisor: 4
GridSize: 8
TimelineZoom: 2.4

[Metadata]
Title:Ooi [Game Edit]
TitleUnicode:Ooi [Game Edit]
Artist:O2i3
ArtistUnicode:O2i3
Creator:xi-False
Version:V (Overdose)
Source:
Tags:Jaxalate Records disc 2 Hardcore high bpm
BeatmapID:968034
BeatmapSetID:451239

[Difficulty]
HPDrainRate:5
CircleSize:3.5
OverallDifficulty:9.6
ApproachRate:9.1
SliderMultiplier:2.6
SliderTickRate:2

[Events]
//Background and Video events
0,0,"Ooi Hard!.jpg",0,0
//Break Periods
//Storyboard Layer 0 (Background)
//Storyboard Layer 1 (Fail)
//Storyboard Layer 2 (Pass)
//Storyboard Layer 3 (Foreground)
//Storyboard Sound Samples

[TimingPoints]
1195,277.777777777778,4,2,1,40,1,0
2306,-200,4,2,1,40,0,0
3278,-166.666666666667,4,2,1,40,0,0
3695,-200,4,2,1,40,0,0
5500,-166.666666666667,4,2,1,40,0,0
5917,-200,4,2,1,40,0,0
11195,-200,4,2,1,100,0,0
19528,-200,4,2,9,100,0,0
19563,-200,4,2,2,100,0,0
20083,-100,4,2,1,100,0,0
28417,-100,4,2,9,100,0,0
28486,-100,4,2,1,100,0,0
28972,-100,4,2,2,100,0,0
30917,-66.6666666666667,4,2,4,100,0,0
30986,-100,4,2,2,100,0,0
32861,-100,4,2,4,100,0,0
32931,-100,4,2,1,100,0,0
33000,-100,4,2,4,100,0,0
33139,-66.6666666666667,4,2,4,100,0,0
33417,-100,4,2,2,100,0,0
35361,-200,4,2,99,100,0,0
36750,-100,4,2,4,100,0,0
37792,-100,4,2,1,30,0,0
37861,-100,4,2,1,100,0,0
38417,-100,4,2,9,100,0,0
38486,-100,4,2,1,100,0,0
42445,-100,4,2,9,100,0,0
42514,-100,4,2,1,100,0,0
45639,-100,4,2,4,100,0,0
45778,-100,4,2,1,100,0,0
46750,-200,4,2,9,100,0,0
47306,-142.857142857143,4,2,1,100,0,0
47445,-100,4,2,9,100,0,0
47861,-100,4,2,1,100,0,0
48139,-100,4,2,20,100,0,0
48208,-100,4,2,1,100,0,0
50083,-100,4,2,70,100,0,0
50361,-100,4,2,1,100,0,0
51195,-100,4,2,1,100,0,0
51889,-100,4,2,9,100,0,0
51958,-100,4,2,1,100,0,0
52306,-100,4,2,4,100,0,0
52375,-100,4,2,1,100,0,0
53417,-100,4,2,9,45,0,0
54250,-100,4,2,9,45,0,0
54528,-100,4,2,9,45,0,0
55639,-142.857142857143,4,2,1,45,0,0
61195,-142.857142857143,4,2,1,70,0,0
61333,-125,4,2,1,70,0,0
61472,-111.111111111111,4,2,1,70,0,0
61611,-100,4,2,1,70,0,0
61750,-90.909090909091,4,2,1,70,0,0
61889,-83.3333333333333,4,2,1,70,0,0
62028,-76.9230769230769,4,2,1,70,0,0
62167,-71.4285714285714,4,2,1,70,0,0
62306,-142.857142857143,4,2,1,70,0,0
63972,-200,4,2,1,70,0,0
66333,-100,4,2,4,70,0,0
66750,-100,4,2,1,70,0,0
68417,-100,4,2,4,45,0,0
68972,-100,4,2,1,70,0,0
71195,-200,4,1,9,70,0,0
72306,-100,4,1,9,70,0,0
73417,-1000,4,2,99,70,0,0
76750,-1000,4,2,74,40,0,0
76785,-1000,4,2,99,70,0,0
77861,-66.6666666666667,4,2,1,70,0,0
78139,-100,4,2,4,70,0,0
78417,-66.6666666666667,4,2,1,70,0,0
78695,-100,4,2,4,70,0,0
78972,-83.3333333333333,4,2,1,100,0,1
79111,-83.3333333333333,4,2,30,100,0,1
79250,-83.3333333333333,4,2,1,100,0,1
79389,-83.3333333333333,4,2,20,100,0,1
79528,-83.3333333333333,4,2,1,100,0,1
79667,-83.3333333333333,4,2,20,100,0,1
79806,-83.3333333333333,4,2,1,100,0,1
79945,-83.3333333333333,4,2,20,100,0,1
80083,-83.3333333333333,4,2,1,100,0,1
80222,-83.3333333333333,4,2,20,100,0,1
80361,-83.3333333333333,4,2,1,100,0,1
80500,-83.3333333333333,4,2,20,100,0,1
80639,-83.3333333333333,4,2,1,100,0,1
80778,-83.3333333333333,4,2,20,100,0,1
80917,-83.3333333333333,4,2,1,100,0,1
81056,-83.3333333333333,4,2,20,100,0,1
81195,-83.3333333333333,4,2,1,100,0,1
81333,-83.3333333333333,4,2,20,100,0,1
81472,-83.3333333333333,4,2,1,100,0,1
81611,-83.3333333333333,4,2,20,100,0,1
81750,-83.3333333333333,4,2,1,100,0,1
81889,-83.3333333333333,4,2,20,100,0,1
82028,-83.3333333333333,4,2,1,100,0,1
82167,-83.3333333333333,4,2,20,100,0,1
82306,-83.3333333333333,4,2,1,100,0,1
82445,-83.3333333333333,4,2,20,100,0,1
82583,-83.3333333333333,4,2,1,100,0,1
82722,-83.3333333333333,4,2,20,100,0,1
82861,-83.3333333333333,4,2,1,100,0,1
83000,-83.3333333333333,4,2,20,100,0,1
83139,-83.3333333333333,4,2,1,100,0,1
83278,-83.3333333333333,4,2,20,100,0,1
83417,-83.3333333333333,4,2,1,100,0,1
83556,-83.3333333333333,4,2,20,100,0,1
83695,-83.3333333333333,4,2,1,100,0,1
83833,-83.3333333333333,4,2,20,100,0,1
83972,-83.3333333333333,4,2,1,100,0,1
84111,-83.3333333333333,4,2,20,100,0,1
84250,-83.3333333333333,4,2,1,100,0,1
84389,-83.3333333333333,4,2,20,100,0,1
84528,-83.3333333333333,4,2,1,100,0,1
84667,-83.3333333333333,4,2,20,100,0,1
84806,-83.3333333333333,4,2,1,100,0,1
84945,-83.3333333333333,4,2,20,100,0,1
85083,-83.3333333333333,4,2,1,100,0,1
85222,-83.3333333333333,4,2,20,100,0,1
85361,-83.3333333333333,4,2,1,100,0,1
85500,-83.3333333333333,4,2,20,100,0,1
85639,-83.3333333333333,4,2,4,100,0,1
85778,-83.3333333333333,4,2,20,100,0,1
85917,-83.3333333333333,4,2,1,100,0,1
86056,-83.3333333333333,4,2,20,100,0,1
86472,-83.3333333333333,4,2,20,100,0,1
86750,-83.3333333333333,4,2,30,100,0,1
86889,-83.3333333333333,4,2,4,100,0,1
87028,-83.3333333333333,4,2,1,100,0,1
87167,-83.3333333333333,4,2,4,100,0,1
87306,-83.3333333333333,4,2,1,100,0,1
87445,-83.3333333333333,4,2,4,100,0,1
87583,-83.3333333333333,4,2,1,100,0,1
87722,-83.3333333333333,4,2,4,100,0,1
87861,-83.3333333333333,4,2,1,100,0,1
88000,-83.3333333333333,4,2,4,100,0,1
88139,-83.3333333333333,4,2,1,100,0,1
88278,-83.3333333333333,4,2,4,100,0,1
88417,-83.3333333333333,4,2,1,100,0,1
88556,-83.3333333333333,4,2,4,100,0,1
88972,-83.3333333333333,4,2,1,100,0,1
89111,-83.3333333333333,4,2,4,100,0,1
89250,-83.3333333333333,4,2,1,100,0,1
89389,-83.3333333333333,4,2,4,100,0,1
89528,-83.3333333333333,4,2,1,100,0,1
89667,-83.3333333333333,4,2,4,100,0,1
89806,-83.3333333333333,4,2,1,100,0,1
89945,-83.3333333333333,4,2,4,100,0,1
90083,-83.3333333333333,4,2,1,100,0,1
90222,-83.3333333333333,4,2,4,100,0,1
90361,-83.3333333333333,4,2,1,100,0,1
90500,-83.3333333333333,4,2,4,100,0,1
90639,-83.3333333333333,4,2,1,100,0,1
90778,-83.3333333333333,4,2,4,100,0,1
91195,-83.3333333333333,4,2,1,100,0,1
91333,-83.3333333333333,4,2,4,100,0,1
91472,-83.3333333333333,4,2,1,100,0,1
91611,-83.3333333333333,4,2,4,100,0,1
91750,-83.3333333333333,4,2,1,100,0,1
91889,-83.3333333333333,4,2,4,100,0,1
92028,-83.3333333333333,4,2,1,100,0,1
92167,-83.3333333333333,4,2,4,100,0,1
92306,-83.3333333333333,4,2,1,100,0,1
92445,-83.3333333333333,4,2,4,100,0,1
92583,-83.3333333333333,4,2,1,100,0,1
92722,-83.3333333333333,4,2,4,100,0,1
92861,-83.3333333333333,4,2,1,100,0,1
93000,-83.3333333333333,4,2,4,100,0,1
93417,-83.3333333333333,4,2,1,100,0,1
93556,-83.3333333333333,4,2,4,100,0,1
93695,-83.3333333333333,4,2,1,100,0,1
93833,-83.3333333333333,4,2,4,100,0,1
93972,-83.3333333333333,4,2,1,100,0,1
94111,-83.3333333333333,4,2,4,100,0,1
94250,-83.3333333333333,4,2,1,100,0,1
94389,-83.3333333333333,4,2,4,100,0,1
94528,-100,4,2,4,100,0,0
95083,-100,4,2,9,100,0,0
95639,-100,4,2,30,100,0,1
95674,-100,4,2,1,100,0,1
97167,-100,4,2,72,100,0,1
97236,-100,4,2,1,100,0,1
99667,-100,4,2,9,100,0,1
99736,-100,4,2,1,100,0,1
100639,-100,4,2,4,100,0,1
102028,-100,4,2,4,100,0,1
102097,-100,4,2,1,100,0,1
102861,-100,4,2,4,100,0,1
102931,-100,4,2,4,100,0,1
103000,-100,4,2,4,100,0,1
103070,-100,4,2,4,100,0,1
103139,-100,4,2,4,100,0,1
103208,-100,4,2,4,100,0,1
103278,-100,4,2,4,100,0,1
103347,-100,4,2,4,100,0,1
103417,-100,4,2,1,100,0,1
103695,-100,4,2,4,100,0,1
103972,-100,4,2,4,100,0,0
104528,-83.3333333333333,4,2,30,100,0,1
104563,-83.3333333333333,4,2,4,100,0,1
106056,-83.3333333333333,4,2,69,100,0,1
106195,-83.3333333333333,4,2,4,100,0,1
106472,-66.6666666666667,4,2,4,100,0,1
106750,-83.3333333333333,4,2,30,100,0,1
106785,-83.3333333333333,4,2,4,100,0,1
110917,-200,4,2,99,100,0,1
111195,-200,4,2,99,100,0,0
112306,-100,4,2,4,100,0,0
113417,-100,4,2,30,100,0,0
113451,-100,4,2,4,100,0,0
116750,-100,4,2,1,100,0,0

[Colours]
Combo1 : 210,226,7
Combo2 : 10,34,118
Combo3 : 231,24,138
Combo4 : 72,225,164
Combo5 : 205,123,63
Combo6 : 116,221,239
Combo7 : 155,32,238
Combo8 : 233,63,105

[HitObjects]
256,304,2306,6,0,P|312:288|352:208,1,130
232,200,2722,2,0,B|144:200|144:200|216:200,1,130
376,120,3278,2,0,L|120:120,1,233.999992858887
320,192,3972,5,0,0:0:0:0:
136,192,4250,1,0,0:0:0:0:
320,280,4528,2,0,B|424:224|424:224|384:224,1,130
248,200,5083,2,0,P|184:184|176:176,1,65
440,152,5500,5,0,0:0:0:0:
144,152,6195,1,0,0:0:0:0:
328,304,6750,5,0,0:0:0:0:
168,304,7028,1,0,0:0:0:0:
128,256,7167,1,0,0:0:0:0:
112,192,7306,1,0,0:0:0:0:
136,136,7445,1,0,0:0:0:0:
392,160,7722,5,0,0:0:0:0:
120,152,8139,2,0,L|272:152,2,130
352,160,8972,1,0,0:0:0:0:
392,344,11195,5,0,0:0:0:0:
432,304,11264,1,0,0:0:0:0:
448,240,11333,1,0,0:0:0:0:
432,176,11403,1,0,0:0:0:0:
384,144,11472,5,0,0:0:0:0:
352,176,11542,1,0,0:0:0:0:
320,240,11611,1,0,0:0:0:0:
352,304,11681,1,0,0:0:0:0:
104,256,11750,5,0,0:0:0:0:
64,224,11819,1,0,0:0:0:0:
40,160,11888,1,0,0:0:0:0:
64,96,11958,1,0,0:0:0:0:
112,64,12027,5,0,0:0:0:0:
160,96,12097,1,0,0:0:0:0:
176,160,12166,1,0,0:0:0:0:
152,224,12236,1,0,0:0:0:0:
344,336,12306,5,0,0:0:0:0:
400,336,12375,1,0,0:0:0:0:
448,312,12445,1,0,0:0:0:0:
456,264,12514,1,0,0:0:0:0:
456,216,12583,5,0,0:0:0:0:
424,184,12653,1,0,0:0:0:0:
376,160,12722,1,0,0:0:0:0:
336,168,12792,1,0,0:0:0:0:
128,304,12861,5,0,0:0:0:0:
168,264,12930,1,0,0:0:0:0:
192,200,12999,1,0,0:0:0:0:
168,136,13069,1,0,0:0:0:0:
128,96,13138,5,0,0:0:0:0:
96,136,13208,1,0,0:0:0:0:
64,200,13277,1,0,0:0:0:0:
88,264,13347,1,0,0:0:0:0:
344,272,13417,5,0,0:0:0:0:
392,272,13486,1,0,0:0:0:0:
432,224,13556,1,0,0:0:0:0:
416,160,13625,1,0,0:0:0:0:
160,208,13695,5,0,0:0:0:0:
112,208,13764,1,0,0:0:0:0:
72,160,13834,1,0,0:0:0:0:
88,96,13903,1,0,0:0:0:0:
368,32,13972,5,0,0:0:0:0:
416,32,14041,1,0,0:0:0:0:
456,80,14111,1,0,0:0:0:0:
440,144,14180,1,0,0:0:0:0:
224,336,14250,5,0,0:0:0:0:
176,336,14319,1,0,0:0:0:0:
176,272,14389,1,0,0:0:0:0:
224,272,14458,1,0,0:0:0:0:
384,208,14528,5,0,0:0:0:0:
432,208,14597,1,0,0:0:0:0:
432,144,14667,1,0,0:0:0:0:
384,144,14736,1,0,0:0:0:0:
192,176,14806,5,0,0:0:0:0:
128,176,14875,1,0,0:0:0:0:
80,176,14945,1,0,0:0:0:0:
80,112,15014,1,0,0:0:0:0:
128,112,15083,2,0,B|304:112|304:112|224:112,1,227.5
64,272,15639,5,0,0:0:0:0:
16,272,15708,1,0,0:0:0:0:
16,336,15777,1,0,0:0:0:0:
64,336,15847,1,0,0:0:0:0:
272,240,15917,5,0,0:0:0:0:
320,240,15987,1,0,0:0:0:0:
320,176,16056,1,0,0:0:0:0:
272,176,16125,1,0,0:0:0:0:
112,160,16195,5,0,0:0:0:0:
64,160,16265,1,0,0:0:0:0:
64,96,16334,1,0,0:0:0:0:
112,96,16403,1,0,0:0:0:0:
320,128,16472,5,0,0:0:0:0:
368,128,16542,1,0,0:0:0:0:
368,64,16611,1,0,0:0:0:0:
320,64,16680,1,0,0:0:0:0:
160,288,16750,5,0,0:0:0:0:
96,288,16819,1,0,0:0:0:0:
48,248,16889,1,0,0:0:0:0:
96,224,16958,1,0,0:0:0:0:
336,240,17028,5,0,0:0:0:0:
400,240,17097,1,0,0:0:0:0:
448,200,17167,1,0,0:0:0:0:
400,176,17236,1,0,0:0:0:0:
192,128,17306,5,0,0:0:0:0:
128,128,17375,1,0,0:0:0:0:
80,88,17445,1,0,0:0:0:0:
128,64,17514,1,0,0:0:0:0:
336,128,17583,5,0,0:0:0:0:
400,128,17652,1,0,0:0:0:0:
448,88,17722,1,0,0:0:0:0:
400,64,17791,1,0,0:0:0:0:
192,192,17861,2,0,L|144:192,1,32.5
304,192,18000,2,0,L|360:192,1,32.5
128,144,18139,2,0,L|80:144,1,32.5
352,128,18278,2,0,L|392:128,1,32.5
152,320,18417,1,0,0:0:0:0:
80,312,18486,1,0,0:0:0:0:
32,256,18556,5,0,0:0:0:0:
8,192,18625,1,0,0:0:0:0:
16,128,18695,1,0,0:0:0:0:
56,72,18764,1,0,0:0:0:0:
112,40,18833,1,0,0:0:0:0:
176,48,18903,1,0,0:0:0:0:
360,160,18972,5,0,0:0:0:0:
408,160,19041,1,0,0:0:0:0:
448,144,19111,1,0,0:0:0:0:
472,112,19180,1,0,0:0:0:0:
192,240,19250,5,0,0:0:0:0:
144,240,19319,1,0,0:0:0:0:
104,224,19389,1,0,0:0:0:0:
80,192,19458,1,0,0:0:0:0:
368,232,19528,5,0,0:0:0:0:
144,232,20083,5,0,0:0:0:0:
328,232,20361,5,0,0:0:0:0:
192,208,20639,2,0,L|288:96,1,130
160,328,21056,2,0,P|72:304|80:136,1,260
448,256,21611,2,0,P|496:208|408:64,1,260
208,208,22167,2,0,L|296:104,1,130
144,208,22583,1,0,0:0:0:0:
304,208,22861,2,0,L|216:104,1,130
368,224,23278,5,0,0:0:0:0:
408,192,23347,2,0,B|464:160|464:160|400:120,1,130
168,240,23556,1,0,0:0:0:0:
128,208,23625,2,0,B|72:176|72:176|136:136,1,130
304,160,23833,5,0,0:0:0:0:
344,128,23902,2,0,B|400:96|400:96|336:56,1,130
120,72,24111,1,0,0:0:0:0:
368,256,24528,6,0,B|256:160|256:160|344:72,1,260
128,296,25083,2,0,L|232:168,1,130
312,320,25500,6,0,P|384:272|384:184,1,130
168,192,25778,2,0,P|104:104|136:64,1,130
400,328,26056,2,0,L|240:96,1,260
392,224,26611,6,0,P|368:144|320:120,1,130
120,160,27028,1,0,0:0:0:0:
312,208,27306,2,0,P|376:192|424:112,1,130
152,96,27722,1,0,0:0:0:0:
360,96,28000,1,0,0:0:0:0:
176,184,28278,2,0,L|96:56,1,130
336,200,28556,2,0,L|408:80,1,130
144,312,28972,2,0,P|64:256|80:224,1,130
376,304,29250,2,0,L|416:144,1,130
312,304,29528,5,0,0:0:0:0:
392,304,29806,2,0,P|472:248|456:216,1,130
112,304,30084,2,0,L|72:144,1,130
184,304,30362,1,0,0:0:0:0:
64,168,30500,2,0,L|8:48,1,130
400,144,30917,5,0,0:0:0:0:
192,192,31195,2,0,B|104:160|104:160|88:112,1,130
320,192,31472,2,0,B|408:160|408:160|424:112,1,130
168,80,31750,1,0,0:0:0:0:
384,192,32028,6,0,L|464:64,2,130
280,192,32445,1,0,0:0:0:0:
224,192,32514,1,0,0:0:0:0:
168,192,32583,1,0,0:0:0:0:
96,128,32722,2,0,P|39:158|3:212,1,130
248,128,33000,5,0,0:0:0:0:
304,128,33069,1,0,0:0:0:0:
360,128,33138,1,0,0:0:0:0:
96,272,33278,1,0,0:0:0:0:
160,272,33417,1,0,0:0:0:0:
392,256,33556,6,0,B|456:192|456:192|472:144,1,130
192,232,33833,2,0,B|128:168|128:168|112:120,1,130
384,184,34111,1,0,0:0:0:0:
432,160,34181,1,0,0:0:0:0:
464,384,34250,1,0,0:0:0:0:
464,384,34389,1,0,0:0:0:0:
88,320,34528,5,0,0:0:0:0:
48,232,34667,1,0,0:0:0:0:
64,120,34806,1,0,0:0:0:0:
152,48,34945,1,0,0:0:0:0:
400,192,35083,1,0,0:0:0:0:
448,160,35153,1,0,0:0:0:0:
400,128,35222,1,0,0:0:0:0:
104,176,35361,5,0,0:0:0:0:
312,168,35639,1,0,0:0:0:0:
304,272,36750,2,0,L|368:144,1,130
128,256,37028,2,0,L|64:112,1,130
280,208,37306,2,0,L|336:64,1,130
32,72,37583,1,0,0:0:0:0:
216,80,37861,1,0,0:0:0:0:
384,280,38417,5,0,0:0:0:0:
440,216,38556,1,0,0:0:0:0:
440,128,38695,1,0,0:0:0:0:
168,232,38833,5,0,0:0:0:0:
120,192,38903,1,0,0:0:0:0:
104,128,38972,1,0,0:0:0:0:
336,176,39111,2,0,L|400:32,1,130
176,320,39389,2,0,L|112:144,1,130
400,240,39667,1,0,0:0:0:0:
272,240,39806,1,0,0:0:0:0:
112,136,40083,1,0,0:0:0:0:
400,344,40361,5,0,0:0:0:0:
448,288,40500,1,0,0:0:0:0:
456,208,40639,1,0,0:0:0:0:
432,136,40778,1,0,0:0:0:0:
104,136,40917,1,0,0:0:0:0:
320,152,41195,1,0,0:0:0:0:
184,304,41333,5,0,0:0:0:0:
144,272,41403,1,0,0:0:0:0:
112,240,41472,1,0,0:0:0:0:
360,192,41611,2,0,P|424:136|424:96,1,130
168,160,41935,1,0,0:0:0:0:
304,88,42120,1,0,0:0:0:0:
24,64,42306,1,0,0:0:0:0:
232,288,42445,6,0,L|368:232,2,130
112,176,42861,1,0,0:0:0:0:
384,184,43139,1,0,0:0:0:0:
224,192,43417,2,0,B|192:112|192:112|232:80,1,130
320,192,43695,2,0,B|408:144|408:144|368:152,1,130
144,192,43972,2,0,B|96:104|96:104|96:56,1,130
424,72,44250,1,0,0:0:0:0:
184,192,44528,5,0,0:0:0:0:
328,192,44667,1,0,0:0:0:0:
280,192,44736,1,0,0:0:0:0:
232,192,44806,1,0,0:0:0:0:
80,112,44945,1,0,0:0:0:0:
128,112,45014,1,0,0:0:0:0:
176,112,45084,1,0,0:0:0:0:
320,112,45222,5,0,0:0:0:0:
368,112,45291,1,0,0:0:0:0:
408,112,45361,1,0,0:0:0:0:
256,272,45500,1,0,0:0:0:0:
136,208,45639,6,0,B|72:168|72:168|40:112,1,130
352,216,45917,2,0,B|416:176|416:176|448:120,1,130
216,136,46195,2,0,B|152:96|152:96|120:40,1,130
464,56,46472,1,0,0:0:0:0:
304,272,46750,6,0,L|144:272,1,130
368,48,47306,2,0,L|440:136,2,90.9999972229005
224,192,47861,6,0,L|80:192,1,130
312,136,48139,1,0,0:0:0:0:
288,328,48417,2,0,L|432:328,1,130
200,272,48695,1,0,0:0:0:0:
352,272,48972,5,0,0:0:0:0:
160,192,49250,2,0,L|56:96,1,130
352,192,49528,2,0,L|456:96,2,130
144,232,49945,2,0,B|80:160|80:160|72:88,1,130
376,272,50361,1,0,0:0:0:0:
312,192,50570,6,0,L|352:120,1,65
248,192,50847,2,0,L|216:248,1,65
368,176,51195,2,0,B|440:128|440:128|448:72,1,130
160,240,51472,2,0,B|88:192|88:192|80:136,1,130
280,96,51750,1,0,0:0:0:0:
112,144,52028,1,0,0:0:0:0:
328,248,52306,6,0,B|376:192|376:192|376:128,1,130
376,288,52445,1,0,0:0:0:0:
136,224,52583,2,0,L|216:112,2,130
387,225,53000,2,0,L|312:120,2,130
128,288,53417,6,0,B|264:216|296:48|296:48|88:120,1,520
440,280,54528,6,0,B|296:256|256:80|256:80|416:192|416:192|344:192,1,520
168,240,55639,5,0,0:0:0:0:
152,224,55778,1,0,0:0:0:0:
136,208,55917,1,0,0:0:0:0:
120,192,56056,1,0,0:0:0:0:
136,136,56333,1,0,0:0:0:0:
424,136,56472,5,0,0:0:0:0:
304,320,56750,1,0,0:0:0:0:
304,272,56843,1,0,0:0:0:0:
304,248,56935,1,0,0:0:0:0:
304,224,57028,1,0,0:0:0:0:
128,224,57306,5,0,0:0:0:0:
128,176,57398,1,0,0:0:0:0:
128,152,57491,1,0,0:0:0:0:
128,128,57584,1,0,0:0:0:0:
320,280,57861,6,0,P|384:240|400:200,1,90.9999972229005
160,240,58139,2,0,P|120:184|120:144,1,90.9999972229005
400,296,58556,2,0,L|312:224,1,90.9999972229005
120,136,58972,5,0,0:0:0:0:
328,144,59250,1,0,0:0:0:0:
208,224,59528,5,0,0:0:0:0:
208,136,59620,1,0,0:0:0:0:
208,96,59713,1,0,0:0:0:0:
208,56,59806,1,0,0:0:0:0:
400,216,60083,6,0,L|496:152,1,90.9999972229005
400,120,60361,2,0,L|480:64,1,90.9999972229005
160,200,60917,1,0,0:0:0:0:
328,240,61195,6,0,L|400:152,3,90.9999972229005
128,240,61750,2,0,L|40:104,3,143.000004364014
376,208,62306,6,0,L|496:208,3,90.9999972229005
168,184,62861,6,0,B|112:152|112:152|96:120,1,90.9999972229005
344,184,63139,2,0,B|400:152|400:152|416:120,1,90.9999972229005
168,184,63417,2,0,B|112:152|112:152|96:120,1,90.9999972229005
344,184,63695,2,0,B|400:152|400:152|416:120,1,90.9999972229005
80,56,63972,1,0,0:0:0:0:
400,296,64528,5,0,0:0:0:0:
160,256,64667,1,0,0:0:0:0:
176,224,64945,1,0,0:0:0:0:
192,192,65222,1,0,0:0:0:0:
208,160,65500,1,0,0:0:0:0:
224,128,65778,1,0,0:0:0:0:
240,96,66056,1,0,0:0:0:0:
256,64,66333,5,0,0:0:0:0:
496,64,66472,1,0,0:0:0:0:
384,128,66750,5,0,0:0:0:0:
368,160,66889,1,0,0:0:0:0:
352,192,67167,1,0,0:0:0:0:
336,224,67445,1,0,0:0:0:0:
320,256,67722,1,0,0:0:0:0:
304,288,68000,1,0,0:0:0:0:
288,320,68278,1,0,0:0:0:0:
80,272,68417,5,0,0:0:0:0:
56,240,68486,1,0,0:0:0:0:
48,200,68556,1,0,0:0:0:0:
56,160,68625,1,0,0:0:0:0:
80,120,68695,1,0,0:0:0:0:
368,248,68972,6,0,P|424:200|408:144,1,130
200,192,69250,2,0,L|88:96,2,130
312,336,69667,6,0,P|368:288|352:232,1,130
64,248,69945,1,0,0:0:0:0:
336,272,70083,5,0,0:0:0:0:
400,240,70153,1,0,0:0:0:0:
432,176,70222,1,0,0:0:0:0:
440,104,70292,1,0,0:0:0:0:
400,48,70361,1,0,0:0:0:0:
336,24,70431,1,0,0:0:0:0:
264,24,70500,1,0,0:0:0:0:
208,72,70570,5,0,0:0:0:0:
184,144,70639,1,0,0:0:0:0:
208,216,70708,1,0,0:0:0:0:
264,264,70778,1,0,0:0:0:0:
336,280,70847,1,0,0:0:0:0:
400,256,70917,1,0,0:0:0:0:
440,192,70986,1,0,0:0:0:0:
464,128,71056,5,0,0:0:0:0:
432,64,71125,1,0,0:0:0:0:
144,272,71195,1,0,0:0:0:0:
96,224,71264,1,0,0:0:0:0:
72,160,71333,1,0,0:0:0:0:
80,96,71403,1,0,0:0:0:0:
416,128,71472,1,0,0:0:0:0:
64,160,71750,6,0,L|152:160,2,65
408,152,72306,1,0,0:0:0:0:
136,152,72583,1,0,0:0:0:0:
304,240,72861,2,0,L|336:168,1,65
64,176,73070,2,0,L|40:88,1,65
368,224,77861,6,0,L|464:48,1,195.00000743866
240,224,78139,1,0,0:0:0:0:
336,224,78417,6,0,L|432:48,1,195.00000743866
192,224,78695,1,0,0:0:0:0:
144,256,78972,6,0,P|80:192|80:128,1,155.999995239258
352,304,79389,2,0,L|432:160,1,155.999995239258
192,256,79667,2,0,L|112:112,1,155.999995239258
384,208,79945,2,0,L|432:32,1,155.999995239258
160,272,80361,2,0,P|80:208|96:144,1,155.999995239258
448,208,80639,2,0,B|352:208|352:208|416:208,1,155.999995239258
160,240,81056,5,0,0:0:0:0:
128,224,81125,2,0,B|80:144|80:144|128:80,1,155.999995239258
384,272,81333,5,0,0:0:0:0:
416,256,81402,2,0,B|464:176|464:176|384:80,1,155.999995239258
128,304,81611,5,0,0:0:0:0:
96,288,81681,2,0,B|32:192|32:192|96:160,1,155.999995239258
352,256,81889,1,0,0:0:0:0:
360,256,81958,1,0,0:0:0:0:
144,320,82306,6,0,L|64:160,1,155.999995239258
432,320,82583,2,0,L|448:144,1,155.999995239258
128,256,82861,6,0,L|32:128,2,155.999995239258
384,192,83278,2,0,L|464:32,2,155.999995239258
112,160,83695,6,0,L|48:304,1,155.999995239258
464,272,84111,1,0,0:0:0:0:
336,256,84389,2,0,L|496:144,1,155.999995239258
80,176,84806,1,0,0:0:0:0:
432,224,85083,6,0,L|480:48,1,155.999995239258
192,288,85500,6,0,L|112:208,2,77.999997619629
448,256,85778,2,0,L|480:160,2,77.999997619629
224,192,86056,1,0,0:0:0:0:
288,192,86195,1,0,0:0:0:0:
352,192,86333,1,0,0:0:0:0:
148,188,86472,1,0,0:0:0:0:
400,256,86750,6,0,L|480:96,2,155.999995239258
128,336,87167,5,0,0:0:0:0:
96,288,87306,1,0,0:0:0:0:
416,304,87445,1,0,0:0:0:0:
368,256,87583,1,0,0:0:0:0:
416,208,87722,5,0,0:0:0:0:
96,224,87861,1,0,0:0:0:0:
352,128,88000,1,0,0:0:0:0:
400,80,88139,1,0,0:0:0:0:
80,144,88278,5,0,0:0:0:0:
144,96,88416,1,0,0:0:0:0:
80,48,88555,1,0,0:0:0:0:
336,288,88833,6,0,B|416:224|416:224|432:144,1,155.999995239258
144,272,89111,2,0,B|80:208|80:208|64:128,1,155.999995239258
448,272,89389,2,0,L|368:112,2,155.999995239258
352,148,89806,5,0,0:0:0:0:
256,256,89945,5,0,0:0:0:0:
208,240,90014,2,0,B|144:160|144:160|208:96,1,155.999995239258
352,224,90222,5,0,0:0:0:0:
400,208,90291,2,0,B|480:176|480:176|432:112,1,155.999995239258
240,144,90500,5,0,0:0:0:0:
192,128,90569,2,0,B|112:96|112:96|192:48,1,155.999995239258
368,112,90778,1,0,0:0:0:0:
144,320,91195,6,0,B|32:320|32:320|32:276,1,155.999995239258
144,256,91472,2,0,B|256:256|256:256|256:212,1,155.999995239258
144,192,91750,2,0,B|32:192|32:192|32:148,1,155.999995239258
384,256,92028,6,0,B|496:256|496:256|496:212,1,155.999995239258
384,192,92305,2,0,B|272:192|272:192|272:148,1,155.999995239258
384,128,92583,2,0,B|496:128|496:128|496:84,1,155.999995239258
128,208,92861,6,0,B|64:128|64:128|64:48,1,155.999995239258
384,288,93278,2,0,L|480:112,3,155.999995239258
176,272,93833,6,0,L|48:112,3,155.999995239258
312,192,94389,1,0,0:0:0:0:
392,328,94528,5,0,0:0:0:0:
448,288,94597,1,0,0:0:0:0:
472,232,94667,1,0,0:0:0:0:
448,168,94736,1,0,0:0:0:0:
384,144,94806,5,0,0:0:0:0:
320,176,94875,1,0,0:0:0:0:
304,240,94945,1,0,0:0:0:0:
328,296,95014,1,0,0:0:0:0:
392,328,95083,1,0,0:0:0:0:
144,264,95222,6,0,L|63:163,2,130
392,288,95639,5,0,0:0:0:0:
448,256,95708,1,0,0:0:0:0:
480,192,95778,1,0,0:0:0:0:
480,128,95847,1,0,0:0:0:0:
448,80,95917,1,0,0:0:0:0:
400,56,95986,1,0,0:0:0:0:
336,48,96056,1,0,0:0:0:0:
272,56,96125,5,0,0:0:0:0:
232,96,96195,1,0,0:0:0:0:
208,152,96264,1,0,0:0:0:0:
216,216,96333,1,0,0:0:0:0:
256,264,96403,1,0,0:0:0:0:
424,280,96472,5,0,0:0:0:0:
472,256,96542,1,0,0:0:0:0:
488,200,96611,1,0,0:0:0:0:
472,144,96681,1,0,0:0:0:0:
432,88,96750,1,0,0:0:0:0:
368,72,96820,1,0,0:0:0:0:
312,96,96889,1,0,0:0:0:0:
152,320,96958,5,0,0:0:0:0:
80,304,97028,1,0,0:0:0:0:
32,240,97097,1,0,0:0:0:0:
24,168,97167,1,0,0:0:0:0:
40,96,97236,1,0,0:0:0:0:
96,48,97306,1,0,0:0:0:0:
160,32,97375,1,0,0:0:0:0:
224,48,97445,5,0,0:0:0:0:
272,104,97514,1,0,0:0:0:0:
272,176,97583,1,0,0:0:0:0:
240,240,97653,1,0,0:0:0:0:
192,288,97722,1,0,0:0:0:0:
120,288,97792,1,0,0:0:0:0:
368,272,97861,5,0,0:0:0:0:
408,264,97931,1,0,0:0:0:0:
448,216,98000,1,0,0:0:0:0:
408,192,98070,1,0,0:0:0:0:
224,216,98139,5,0,0:0:0:0:
152,216,98209,1,0,0:0:0:0:
104,176,98278,1,0,0:0:0:0:
104,104,98348,1,0,0:0:0:0:
144,48,98417,1,0,0:0:0:0:
208,48,98486,1,0,0:0:0:0:
400,320,98556,5,0,0:0:0:0:
464,280,98625,1,0,0:0:0:0:
488,208,98695,1,0,0:0:0:0:
488,136,98764,1,0,0:0:0:0:
456,72,98833,1,0,0:0:0:0:
392,48,98903,1,0,0:0:0:0:
192,256,98972,5,6,0:0:0:0:
128,256,99042,1,0,0:0:0:0:
96,208,99111,1,0,0:0:0:0:
136,184,99181,1,0,0:0:0:0:
304,184,99250,5,6,0:0:0:0:
368,184,99320,1,0,0:0:0:0:
400,136,99389,1,0,0:0:0:0:
360,112,99459,1,0,0:0:0:0:
136,160,99528,5,6,0:0:0:0:
72,160,99598,1,0,0:0:0:0:
40,112,99667,1,0,0:0:0:0:
80,88,99737,1,0,0:0:0:0:
328,128,99806,5,6,0:0:0:0:
392,128,99876,1,0,0:0:0:0:
424,80,99945,1,0,0:0:0:0:
384,56,100015,1,0,0:0:0:0:
240,304,100083,5,0,0:0:0:0:
168,288,100153,1,0,0:0:0:0:
120,240,100222,1,0,0:0:0:0:
96,176,100292,1,0,0:0:0:0:
112,104,100361,1,0,0:0:0:0:
168,56,100431,1,0,0:0:0:0:
240,48,100500,1,0,0:0:0:0:
304,72,100570,5,0,0:0:0:0:
352,120,100639,1,0,0:0:0:0:
376,184,100708,1,0,0:0:0:0:
368,248,100778,5,0,0:0:0:0:
328,304,100847,1,0,0:0:0:0:
264,336,100917,1,0,0:0:0:0:
184,328,100986,1,0,0:0:0:0:
128,272,101056,1,0,0:0:0:0:
384,304,101125,5,2,0:0:0:0:
440,272,101195,1,0,0:0:0:0:
472,208,101264,1,0,0:0:0:0:
472,136,101333,1,0,0:0:0:0:
432,80,101403,1,0,0:0:0:0:
376,56,101472,1,0,0:0:0:0:
304,48,101542,1,0,0:0:0:0:
240,56,101611,5,0,0:0:0:0:
176,88,101681,1,0,0:0:0:0:
120,136,101750,1,0,0:0:0:0:
104,200,101820,1,0,0:0:0:0:
120,264,101889,1,0,0:0:0:0:
168,312,101958,1,0,0:0:0:0:
232,328,102028,1,0,0:0:0:0:
296,336,102097,5,0,0:0:0:0:
360,328,102167,1,0,0:0:0:0:
424,304,102236,1,0,0:0:0:0:
472,272,102306,1,0,0:0:0:0:
424,240,102375,1,0,0:0:0:0:
376,240,102445,1,0,0:0:0:0:
424,176,102514,1,0,0:0:0:0:
472,160,102583,1,0,0:0:0:0:
352,48,102653,5,0,0:0:0:0:
288,40,102722,1,0,0:0:0:0:
224,48,102792,1,0,0:0:0:0:
168,80,102861,1,0,0:0:0:0:
136,136,102931,1,0,0:0:0:0:
128,208,103000,1,0,0:0:0:0:
160,272,103070,1,0,0:0:0:0:
216,304,103139,1,0,0:0:0:0:
288,312,103208,5,0,0:0:0:0:
360,304,103278,1,0,0:0:0:0:
416,248,103347,1,0,0:0:0:0:
424,184,103417,1,0,0:0:0:0:
392,120,103486,1,0,0:0:0:0:
336,72,103556,1,0,0:0:0:0:
272,40,103625,1,0,0:0:0:0:
200,32,103695,5,0,0:0:0:0:
128,48,103764,1,0,0:0:0:0:
72,88,103833,1,0,0:0:0:0:
40,152,103903,1,0,0:0:0:0:
32,216,103972,5,0,0:0:0:0:
64,272,104042,1,0,0:0:0:0:
120,312,104111,1,0,0:0:0:0:
192,328,104181,1,0,0:0:0:0:
264,320,104250,1,0,0:0:0:0:
328,288,104320,1,0,0:0:0:0:
256,264,104528,6,0,B|176:224|176:224|152:144,1,155.999995239258
400,192,104806,2,0,B|480:152|480:152|504:72,1,155.999995239258
160,80,105083,1,0,0:0:0:0:
432,288,105361,6,0,B|344:224|344:224|352:152,1,155.999995239258
96,272,105639,2,0,B|184:208|184:208|176:136,1,155.999995239258
384,184,105917,2,0,B|312:120|312:120|296:56,1,155.999995239258
248,136,106195,1,0,0:0:0:0:
424,280,106472,5,0,0:0:0:0:
240,304,106750,2,0,B|160:256|160:256|160:176,1,155.999995239258
408,208,107028,2,0,B|488:160|488:160|488:80,1,155.999995239258
192,88,107306,1,0,0:0:0:0:
336,224,107583,5,0,0:0:0:0:
256,224,107722,1,0,0:0:0:0:
176,224,107861,1,0,0:0:0:0:
256,160,108000,5,0,0:0:0:0:
304,160,108070,1,0,0:0:0:0:
352,160,108139,1,0,0:0:0:0:
112,224,108278,1,0,0:0:0:0:
208,304,108417,5,0,0:0:0:0:
112,304,108556,1,0,0:0:0:0:
64,304,108626,1,0,0:0:0:0:
16,304,108695,1,0,0:0:0:0:
256,208,108833,1,0,0:0:0:0:
384,224,108972,6,0,L|480:64,2,155.999995239258
144,208,109389,2,0,L|64:64,1,155.999995239258
320,192,109667,1,0,0:0:0:0:
360,192,109736,1,0,0:0:0:0:
192,240,109806,2,0,B|112:176|112:176|96:96,1,155.999995239258
384,224,110083,6,0,B|464:160|464:160|480:80,1,155.999995239258
240,160,110361,2,0,B|160:96|160:96|144:16,1,155.999995239258
432,96,110639,1,0,0:0:0:0:
336,96,110778,1,0,0:0:0:0:
96,96,110917,1,0,0:0:0:0:
192,96,111195,1,0,0:0:0:0:
256,240,112306,5,0,0:0:0:0:
368,240,112445,1,0,0:0:0:0:
128,240,112583,1,0,0:0:0:0:
240,240,112722,1,0,0:0:0:0:
0,240,112861,1,0,0:0:0:0:
112,240,113000,1,0,0:0:0:0:
224,240,113139,2,0,B|384:112|384:112|336:48,1,260
256,192,113556,12,0,116472,0:0:0:0:
80,192,116750,5,0,0:0:0:0:
