osu file format v14

[General]
AudioFilename: O2i3 - Ooi.mp3
AudioLeadIn: 0
PreviewTime: 77792
Countdown: 0
SampleSet: Soft
StackLeniency: 0.2
Mode: 2
LetterboxInBreaks: 0
WidescreenStoryboard: 1

[Editor]
DistanceSpacing: 1
BeatDivisor: 4
GridSize: 4
TimelineZoom: 2.4

[Metadata]
Title:Ooi [Game Edit]
TitleUnicode:Ooi [Game Edit]
Artist:O2i3
ArtistUnicode:O2i3
Creator:xi-False
Version:MQ (Deluge EX)
Source:
Tags:Jaxalate Records disc 2 Hardcore high bpm
BeatmapID:968033
BeatmapSetID:451239

[Difficulty]
HPDrainRate:5
CircleSize:4
OverallDifficulty:9.6
ApproachRate:9.6
SliderMultiplier:2.1
SliderTickRate:2

[Events]
//Background and Video events
0,0,"Ooi Hard!.jpg",0,0
//Break Periods
//Storyboard Layer 0 (Background)
//Storyboard Layer 1 (Fail)
//Storyboard Layer 2 (Pass)
//Storyboard Layer 3 (Foreground)
//Storyboard Sound Samples

[TimingPoints]
1195,277.777777777778,4,2,1,40,1,0
2306,-200,4,2,1,40,0,0
3278,-166.666666666667,4,2,1,40,0,0
3695,-200,4,2,1,40,0,0
5500,-166.666666666667,4,2,1,40,0,0
5917,-200,4,2,1,40,0,0
11195,-200,4,2,1,100,0,0
19528,-200,4,2,9,100,0,0
19563,-200,4,2,2,100,0,0
20083,-100,4,2,1,100,0,0
28417,-100,4,2,9,100,0,0
28486,-100,4,2,1,100,0,0
28972,-100,4,2,2,100,0,0
30917,-66.6666666666667,4,2,4,100,0,0
30986,-100,4,2,2,100,0,0
32861,-100,4,2,4,100,0,0
32931,-100,4,2,1,100,0,0
33000,-100,4,2,4,100,0,0
33139,-66.6666666666667,4,2,4,100,0,0
33417,-100,4,2,2,100,0,0
35361,-200,4,2,99,100,0,0
36750,-100,4,2,4,100,0,0
37792,-100,4,2,1,30,0,0
37861,-100,4,2,1,100,0,0
38417,-100,4,2,9,100,0,0
38486,-100,4,2,1,100,0,0
42445,-100,4,2,9,100,0,0
42514,-100,4,2,1,100,0,0
45639,-100,4,2,4,100,0,0
45778,-100,4,2,1,100,0,0
46750,-200,4,2,9,100,0,0
47306,-142.857142857143,4,2,1,100,0,0
47445,-100,4,2,9,100,0,0
47861,-100,4,2,1,100,0,0
48139,-100,4,2,20,100,0,0
48208,-100,4,2,1,100,0,0
50083,-100,4,2,70,100,0,0
50361,-100,4,2,1,100,0,0
51195,-100,4,2,1,100,0,0
51889,-100,4,2,9,100,0,0
51958,-100,4,2,1,100,0,0
52306,-100,4,2,4,100,0,0
52375,-100,4,2,1,100,0,0
53417,-100,4,2,9,45,0,0
54250,-100,4,2,9,45,0,0
54528,-100,4,2,9,45,0,0
55639,-142.857142857143,4,2,1,45,0,0
61195,-142.857142857143,4,2,1,70,0,0
61333,-125,4,2,1,70,0,0
61472,-111.111111111111,4,2,1,70,0,0
61611,-100,4,2,1,70,0,0
61750,-90.909090909091,4,2,1,70,0,0
61889,-83.3333333333333,4,2,1,70,0,0
62028,-76.9230769230769,4,2,1,70,0,0
62167,-71.4285714285714,4,2,1,70,0,0
62306,-142.857142857143,4,2,1,70,0,0
63972,-200,4,2,1,70,0,0
66333,-100,4,2,4,70,0,0
66750,-100,4,2,1,70,0,0
68417,-100,4,2,4,45,0,0
68972,-100,4,2,1,70,0,0
71195,-200,4,1,9,70,0,0
72306,-100,4,1,9,70,0,0
73417,-1000,4,2,99,70,0,0
76750,-1000,4,2,74,40,0,0
76785,-1000,4,2,99,70,0,0
77861,-66.6666666666667,4,2,1,70,0,0
78139,-100,4,2,4,70,0,0
78417,-66.6666666666667,4,2,1,70,0,0
78695,-100,4,2,4,70,0,0
78972,-83.3333333333333,4,2,1,100,0,1
79111,-83.3333333333333,4,2,30,100,0,1
79250,-83.3333333333333,4,2,1,100,0,1
79389,-83.3333333333333,4,2,20,100,0,1
79528,-83.3333333333333,4,2,1,100,0,1
79667,-83.3333333333333,4,2,20,100,0,1
79806,-83.3333333333333,4,2,1,100,0,1
79945,-83.3333333333333,4,2,20,100,0,1
80083,-83.3333333333333,4,2,1,100,0,1
80222,-83.3333333333333,4,2,20,100,0,1
80361,-83.3333333333333,4,2,1,100,0,1
80500,-83.3333333333333,4,2,20,100,0,1
80639,-83.3333333333333,4,2,1,100,0,1
80778,-83.3333333333333,4,2,20,100,0,1
80917,-83.3333333333333,4,2,1,100,0,1
81056,-83.3333333333333,4,2,20,100,0,1
81195,-83.3333333333333,4,2,1,100,0,1
81333,-83.3333333333333,4,2,20,100,0,1
81472,-83.3333333333333,4,2,1,100,0,1
81611,-83.3333333333333,4,2,20,100,0,1
81750,-83.3333333333333,4,2,1,100,0,1
81889,-83.3333333333333,4,2,20,100,0,1
82028,-83.3333333333333,4,2,1,100,0,1
82167,-83.3333333333333,4,2,20,100,0,1
82306,-83.3333333333333,4,2,1,100,0,1
82445,-83.3333333333333,4,2,20,100,0,1
82583,-83.3333333333333,4,2,1,100,0,1
82722,-83.3333333333333,4,2,20,100,0,1
82861,-83.3333333333333,4,2,1,100,0,1
83000,-83.3333333333333,4,2,20,100,0,1
83139,-83.3333333333333,4,2,1,100,0,1
83278,-83.3333333333333,4,2,20,100,0,1
83417,-83.3333333333333,4,2,1,100,0,1
83556,-83.3333333333333,4,2,20,100,0,1
83695,-83.3333333333333,4,2,1,100,0,1
83833,-83.3333333333333,4,2,20,100,0,1
83972,-83.3333333333333,4,2,1,100,0,1
84111,-83.3333333333333,4,2,20,100,0,1
84250,-83.3333333333333,4,2,1,100,0,1
84389,-83.3333333333333,4,2,20,100,0,1
84528,-83.3333333333333,4,2,1,100,0,1
84667,-83.3333333333333,4,2,20,100,0,1
84806,-83.3333333333333,4,2,1,100,0,1
84945,-83.3333333333333,4,2,20,100,0,1
85083,-83.3333333333333,4,2,1,100,0,1
85222,-83.3333333333333,4,2,20,100,0,1
85361,-83.3333333333333,4,2,1,100,0,1
85500,-83.3333333333333,4,2,20,100,0,1
85639,-83.3333333333333,4,2,4,100,0,1
85778,-83.3333333333333,4,2,20,100,0,1
85917,-83.3333333333333,4,2,1,100,0,1
86056,-83.3333333333333,4,2,20,100,0,1
86472,-83.3333333333333,4,2,20,100,0,1
86750,-83.3333333333333,4,2,30,100,0,1
86889,-83.3333333333333,4,2,4,100,0,1
87028,-83.3333333333333,4,2,1,100,0,1
87167,-83.3333333333333,4,2,4,100,0,1
87306,-83.3333333333333,4,2,1,100,0,1
87445,-83.3333333333333,4,2,4,100,0,1
87583,-83.3333333333333,4,2,1,100,0,1
87722,-83.3333333333333,4,2,4,100,0,1
87861,-83.3333333333333,4,2,1,100,0,1
88000,-83.3333333333333,4,2,4,100,0,1
88139,-83.3333333333333,4,2,1,100,0,1
88278,-83.3333333333333,4,2,4,100,0,1
88417,-83.3333333333333,4,2,1,100,0,1
88556,-83.3333333333333,4,2,4,100,0,1
88972,-83.3333333333333,4,2,1,100,0,1
89111,-83.3333333333333,4,2,4,100,0,1
89250,-83.3333333333333,4,2,1,100,0,1
89389,-83.3333333333333,4,2,4,100,0,1
89528,-83.3333333333333,4,2,1,100,0,1
89667,-83.3333333333333,4,2,4,100,0,1
89806,-83.3333333333333,4,2,1,100,0,1
89945,-83.3333333333333,4,2,4,100,0,1
90083,-83.3333333333333,4,2,1,100,0,1
90222,-83.3333333333333,4,2,4,100,0,1
90361,-83.3333333333333,4,2,1,100,0,1
90500,-83.3333333333333,4,2,4,100,0,1
90639,-83.3333333333333,4,2,1,100,0,1
90778,-83.3333333333333,4,2,4,100,0,1
91195,-83.3333333333333,4,2,1,100,0,1
91333,-83.3333333333333,4,2,4,100,0,1
91472,-83.3333333333333,4,2,1,100,0,1
91611,-83.3333333333333,4,2,4,100,0,1
91750,-83.3333333333333,4,2,1,100,0,1
91889,-83.3333333333333,4,2,4,100,0,1
92028,-83.3333333333333,4,2,1,100,0,1
92167,-83.3333333333333,4,2,4,100,0,1
92306,-83.3333333333333,4,2,1,100,0,1
92445,-83.3333333333333,4,2,4,100,0,1
92583,-83.3333333333333,4,2,1,100,0,1
92722,-83.3333333333333,4,2,4,100,0,1
92861,-83.3333333333333,4,2,1,100,0,1
93000,-83.3333333333333,4,2,4,100,0,1
93417,-83.3333333333333,4,2,1,100,0,1
93556,-83.3333333333333,4,2,4,100,0,1
93695,-83.3333333333333,4,2,1,100,0,1
93833,-83.3333333333333,4,2,4,100,0,1
93972,-83.3333333333333,4,2,1,100,0,1
94111,-83.3333333333333,4,2,4,100,0,1
94250,-83.3333333333333,4,2,1,100,0,1
94389,-83.3333333333333,4,2,4,100,0,1
94528,-100,4,2,4,100,0,0
95083,-100,4,2,9,100,0,0
95639,-100,4,2,30,100,0,1
95674,-100,4,2,1,100,0,1
97167,-100,4,2,72,100,0,1
97236,-100,4,2,1,100,0,1
99667,-100,4,2,9,100,0,1
99736,-100,4,2,1,100,0,1
100639,-100,4,2,4,100,0,1
102028,-100,4,2,4,100,0,1
102097,-100,4,2,1,100,0,1
102861,-100,4,2,4,100,0,1
102931,-100,4,2,4,100,0,1
103000,-100,4,2,4,100,0,1
103070,-100,4,2,4,100,0,1
103139,-100,4,2,4,100,0,1
103208,-100,4,2,4,100,0,1
103278,-100,4,2,4,100,0,1
103347,-100,4,2,4,100,0,1
103417,-100,4,2,1,100,0,1
103695,-100,4,2,4,100,0,1
103972,-100,4,2,4,100,0,0
104528,-83.3333333333333,4,2,30,100,0,1
104563,-83.3333333333333,4,2,4,100,0,1
106056,-83.3333333333333,4,2,69,100,0,1
106195,-83.3333333333333,4,2,4,100,0,1
106472,-66.6666666666667,4,2,4,100,0,1
106750,-83.3333333333333,4,2,30,100,0,1
106785,-83.3333333333333,4,2,4,100,0,1
110917,-200,4,2,99,100,0,1
111195,-200,4,2,99,100,0,0
112306,-100,4,2,4,100,0,0
113417,-100,4,2,30,100,0,0
113451,-100,4,2,4,100,0,0
116750,-100,4,2,1,100,0,0

[Colours]
Combo1 : 210,226,7
Combo2 : 10,34,118
Combo3 : 231,24,138
Combo4 : 72,225,164
Combo5 : 205,123,63
Combo6 : 116,221,239
Combo7 : 155,32,238
Combo8 : 233,63,105

[HitObjects]
256,192,2306,6,0,L|308:192|256:192,1,105,8|0,0:1|0:0,0:0:0:0:
126,192,2722,1,0,0:0:0:0:
286,192,3000,1,0,0:0:0:0:
96,192,3278,2,0,L|2:192|96:192,1,188.999994232178
256,192,3972,1,0,0:0:0:0:
336,192,4250,1,0,0:0:0:0:
126,192,4528,6,0,L|74:192|126:192,1,105
309,192,5083,1,0,0:0:0:0:
361,192,5222,1,0,0:0:0:0:
126,192,5500,2,0,L|32:192|126:192,1,188.999994232178
309,192,6195,2,0,P|361:192|361:146,1,105
179,192,6750,6,0,P|127:192|127:146,1,105
203,192,7167,1,0,0:0:0:0:
309,192,7306,2,0,L|348:153,1,52.5
151,192,7722,1,0,0:1:0:0:
111,192,8139,1,0,0:0:0:0:
309,192,8417,2,0,L|361:192|309:192,1,105
71,192,8972,5,8,0:1:0:0:
256,192,9042,12,0,10639,0:0:0:0:
204,72,11195,5,4,0:0:0:0:
256,72,11264,1,0,0:0:0:0:
99,72,11333,1,2,0:0:0:0:
46,72,11403,1,0,0:0:0:0:
256,72,11472,1,2,0:0:0:0:
308,72,11542,1,0,0:0:0:0:
152,72,11610,1,2,0:0:0:0:
99,72,11680,1,0,0:0:0:0:
312,192,11750,5,0,0:0:0:0:
378,192,11820,1,0,0:0:0:0:
378,192,11889,1,0,0:0:0:0:
312,192,11958,1,0,0:0:0:0:
153,192,12028,1,0,0:0:0:0:
86,192,12098,1,0,0:0:0:0:
86,192,12167,1,0,0:0:0:0:
153,192,12236,1,0,0:0:0:0:
312,312,12306,5,0,0:0:0:0:
364,312,12375,1,0,0:0:0:0:
312,312,12445,1,0,0:0:0:0:
259,312,12514,1,0,0:0:0:0:
416,312,12583,1,0,0:0:0:0:
468,312,12652,1,0,0:0:0:0:
416,312,12722,1,0,0:0:0:0:
364,312,12792,1,0,0:0:0:0:
219,252,12861,5,0,0:0:0:0:
153,252,12930,1,0,0:0:0:0:
153,252,13000,1,0,0:0:0:0:
219,252,13069,1,0,0:0:0:0:
377,252,13139,1,0,0:0:0:0:
429,252,13208,1,0,0:0:0:0:
377,252,13278,1,0,0:0:0:0:
324,252,13347,1,0,0:0:0:0:
460,152,13417,5,4,0:0:0:0:
512,152,13486,1,0,0:0:0:0:
300,152,13556,1,2,0:0:0:0:
247,152,13625,1,0,0:0:0:0:
408,152,13695,1,2,0:0:0:0:
460,152,13764,1,0,0:0:0:0:
247,152,13832,1,2,0:0:0:0:
195,152,13902,1,0,0:0:0:0:
400,72,13972,5,0,0:0:0:0:
466,71,14042,1,0,0:0:0:0:
466,71,14111,1,0,0:0:0:0:
400,72,14181,1,0,0:0:0:0:
243,72,14250,1,0,0:0:0:0:
176,72,14320,1,0,0:0:0:0:
176,72,14389,1,0,0:0:0:0:
243,72,14459,1,0,0:0:0:0:
86,72,14528,5,0,0:0:0:0:
33,72,14597,1,0,0:0:0:0:
86,72,14667,1,0,0:0:0:0:
138,72,14736,1,0,0:0:0:0:
295,72,14806,1,0,0:0:0:0:
347,72,14876,1,0,0:0:0:0:
400,72,14945,1,0,0:0:0:0:
347,72,15014,1,0,0:0:0:0:
190,192,15083,6,0,L|138:192|190:192,1,105,6|0,0:0|0:0,0:0:0:0:
399,342,15639,5,4,0:0:0:0:
451,342,15708,1,0,0:0:0:0:
239,342,15778,1,2,0:0:0:0:
187,342,15847,1,0,0:0:0:0:
372,342,15917,1,2,0:0:0:0:
424,342,15986,1,0,0:0:0:0:
212,342,16056,1,2,0:0:0:0:
160,342,16125,1,0,0:0:0:0:
345,272,16195,5,0,0:0:0:0:
410,272,16264,1,0,0:0:0:0:
410,272,16333,1,0,0:0:0:0:
345,272,16402,1,0,0:0:0:0:
186,272,16472,1,0,0:0:0:0:
121,272,16541,1,0,0:0:0:0:
121,272,16610,1,0,0:0:0:0:
186,272,16681,1,0,0:0:0:0:
343,42,16750,5,0,0:0:0:0:
396,42,16820,1,0,0:0:0:0:
343,42,16889,1,0,0:0:0:0:
290,42,16958,1,0,0:0:0:0:
449,42,17028,1,0,0:0:0:0:
501,42,17098,1,0,0:0:0:0:
449,42,17167,1,0,0:0:0:0:
396,42,17236,1,0,0:0:0:0:
256,112,17306,5,0,0:0:0:0:
203,112,17376,1,0,0:0:0:0:
150,112,17445,1,0,0:0:0:0:
97,112,17514,1,0,0:0:0:0:
256,112,17583,1,0,0:0:0:0:
309,112,17653,1,0,0:0:0:0:
362,112,17723,1,0,0:0:0:0:
415,112,17792,1,0,0:0:0:0:
256,192,17861,5,4,0:0:0:0:
203,192,17931,1,0,0:0:0:0:
385,192,18000,1,2,0:0:0:0:
437,192,18070,1,0,0:0:0:0:
228,232,18139,1,2,0:0:0:0:
175,232,18208,1,0,0:0:0:0:
357,232,18278,1,2,0:0:0:0:
409,232,18347,1,0,0:0:0:0:
187,272,18417,5,0,0:0:0:0:
134,272,18486,1,0,0:0:0:0:
187,272,18556,1,0,0:0:0:0:
239,272,18625,1,0,0:0:0:0:
398,272,18695,1,0,0:0:0:0:
450,272,18764,1,0,0:0:0:0:
398,272,18834,1,0,0:0:0:0:
345,272,18903,1,0,0:0:0:0:
188,72,18972,5,6,0:0:0:0:
148,72,19042,1,0,0:0:0:0:
324,72,19111,1,2,0:0:0:0:
363,72,19181,1,0,0:0:0:0:
148,72,19250,1,6,0:0:0:0:
108,72,19320,1,0,0:0:0:0:
363,72,19389,1,2,0:0:0:0:
402,72,19458,1,0,0:0:0:0:
108,72,19528,6,0,P|65:135|108:192,1,157.5,4|0,0:3|0:3,0:3:0:0:
318,192,20083,6,0,L|422:192,1,105,2|0,0:0|0:0,0:0:0:0:
361,192,20292,1,0,0:0:0:0:
291,192,20361,2,0,L|186:192,1,105,8|0,0:0|0:0,0:0:0:0:
256,192,20639,1,2,0:0:0:0:
466,192,20778,2,0,L|350:192,1,105,0|8,0:0|0:0,0:0:0:0:
466,192,21056,1,0,0:0:0:0:
256,192,21195,6,0,P|227:153|256:112,1,105,2|0,0:0|0:0,0:0:0:0:
361,192,21472,1,8,0:0:0:0:
218,192,21611,1,0,0:0:0:0:
423,192,21750,1,2,0:0:0:0:
294,192,21889,1,0,0:0:0:0:
233,192,21958,1,0,0:0:0:0:
203,192,22028,2,0,L|307:192,1,105,8|0,0:0|0:0,0:0:0:0:
512,192,22306,6,0,P|502:232|465:282,1,105,2|0,0:0|0:0,0:0:0:0:
194,192,22583,2,0,P|166:148|194:112,1,105,8|0,0:0|0:0,0:0:0:0:
236,112,22792,1,0,0:0:0:0:
301,112,22861,1,2,0:0:0:0:
194,112,23000,1,0,0:0:0:0:
404,112,23139,1,8,0:0:0:0:
168,192,23278,1,0,0:0:0:0:
141,192,23347,1,0,0:0:0:0:
371,192,23417,6,0,L|451:272,1,105,2|0,0:0|0:0,0:0:0:0:
371,192,23625,1,0,0:0:0:0:
141,192,23695,2,0,L|65:268,1,105,8|0,0:0|0:0,0:0:0:0:
141,192,23903,1,0,0:0:0:0:
371,192,23972,6,0,L|446:267,1,105,2|0,0:0|0:0,0:0:0:0:
371,192,24181,1,0,0:0:0:0:
168,192,24250,2,0,L|116:192,1,52.5,8|0,0:0|0:0,0:0:0:0:
116,232,24389,2,0,L|168:232,1,52.5
385,312,24528,5,2,0:0:0:0:
301,312,24667,1,0,0:0:0:0:
277,312,24736,1,0,0:0:0:0:
301,312,24806,2,0,L|407:312,1,105,8|0,0:0|0:0,0:0:0:0:
206,312,25083,1,2,0:0:0:0:
86,312,25222,2,0,L|12:238,1,105,0|8,0:0|0:0,0:0:0:0:
86,312,25500,1,0,0:0:0:0:
206,312,25639,6,0,L|281:237,1,105,2|0,0:0|0:0,0:0:0:0:
206,312,25917,1,8,0:0:0:0:
354,312,26056,2,0,L|458:312,1,105,0|2,0:0|0:0,0:0:0:0:
478,312,26333,1,0,0:0:0:0:
404,312,26472,1,8,0:0:0:0:
256,312,26611,1,0,0:0:0:0:
505,312,26750,6,0,P|483:250|452:232,1,105,2|0,0:0|0:0,0:0:0:0:
134,72,27028,2,0,P|156:134|187:152,1,105,8|0,0:0|0:0,0:0:0:0:
267,192,27236,1,0,0:0:0:0:
400,192,27306,2,0,L|453:192,1,52.5,2|0,0:0|0:0,0:0:0:0:
319,192,27445,2,0,L|267:192,1,52.5
256,192,27583,1,8,0:0:0:0:
335,192,27722,2,0,L|365:150,1,52.5
203,152,27861,5,2,0:0:0:0:
98,152,28000,2,0,L|68:110,1,52.5
309,152,28139,1,8,0:0:0:0:
414,152,28278,2,0,L|444:110,1,52.5
203,152,28417,5,2,0:1:0:0:
151,152,28486,1,0,0:0:0:0:
125,152,28556,1,0,0:0:0:0:
151,152,28625,1,0,0:0:0:0:
309,152,28695,1,8,0:0:0:0:
362,152,28764,1,0,0:0:0:0:
387,152,28833,1,0,0:0:0:0:
362,152,28903,1,0,0:0:0:0:
206,312,28972,5,2,0:0:0:0:
127,312,29111,1,4,0:0:0:0:
390,312,29250,1,8,0:0:0:0:
469,312,29389,1,4,0:0:0:0:
179,312,29528,2,0,P|136:246|179:192,1,157.5,2|0,0:0|0:0,0:0:0:0:
364,312,29806,5,8,0:0:0:0:
416,312,29945,1,4,0:0:0:0:
206,312,30083,1,2,0:0:0:0:
127,312,30222,1,4,0:0:0:0:
390,312,30361,1,8,0:0:0:0:
469,312,30500,1,4,0:0:0:0:
179,312,30639,2,0,L|127:312|179:312,1,105,2|4,0:0|0:0,0:0:0:0:
260,312,30917,6,0,L|112:227,1,157.500006008148,4|4,0:0|0:0,0:0:0:0:
361,252,31195,5,2,0:0:0:0:
440,252,31333,1,4,0:0:0:0:
230,192,31472,1,8,0:0:0:0:
151,192,31611,1,4,0:0:0:0:
440,192,31750,2,0,B|258:192,1,157.5,2|0,0:0|0:0,0:0:0:0:
53,192,32028,5,8,0:0:0:0:
0,192,32167,1,4,0:0:0:0:
205,192,32306,1,2,0:0:0:0:
308,192,32445,1,4,0:0:0:0:
269,192,32514,1,0,0:0:0:0:
230,192,32583,1,8,0:0:0:0:
361,192,32722,1,4,0:0:0:0:
152,72,32861,6,0,L|100:72,1,52.5,4|0,0:0|0:0,0:0:0:0:
99,72,33000,1,0,0:0:0:0:
152,72,33070,1,0,0:0:0:0:
308,72,33139,1,4,0:0:0:0:
348,72,33278,1,4,0:0:0:0:
138,272,33417,5,2,0:0:0:0:
59,274,33556,1,4,0:0:0:0:
269,272,33695,1,8,0:0:0:0:
348,274,33833,1,4,0:0:0:0:
73,72,33972,6,0,L|18:162,1,105,2|4,0:0|0:0,0:0:0:0:
99,192,34181,1,0,0:0:0:0:
283,192,34250,1,8,0:0:0:0:
194,192,34389,2,0,L|178:241,1,52.5,4|0,0:0|0:0,0:0:0:0:
363,192,34528,6,0,L|415:192|363:192,1,105,2|4,0:0|0:0,0:0:0:0:
283,192,34736,1,0,0:0:0:0:
99,72,34806,2,0,L|44:162,1,105,8|4,0:0|0:0,0:0:0:0:
363,192,35083,5,2,0:0:0:0:
416,192,35222,1,4,0:0:0:0:
390,192,35292,1,0,0:0:0:0:
99,192,35361,6,0,L|46:192|99:192,1,105,0|2,0:0|0:0,0:0:0:0:
256,192,35708,12,2,36472,0:0:0:0:
361,192,36750,5,4,2:1:0:0:
466,192,36889,1,0,0:0:0:0:
256,192,37028,1,0,0:0:0:0:
361,192,37167,1,0,0:0:0:0:
151,192,37306,1,0,0:0:0:0:
256,192,37445,1,0,0:0:0:0:
46,192,37583,6,0,P|11:222|46:312,1,157.5
361,192,37861,6,0,B|466:192|466:192|361:192|361:192|466:192,1,315
361,192,38417,5,2,0:1:0:0:
151,192,38556,1,0,0:0:0:0:
151,192,38695,1,0,0:0:0:0:
256,192,38833,1,0,0:0:0:0:
282,192,38903,1,0,0:0:0:0:
151,192,38972,6,0,L|77:118,1,105,4|2,0:0|0:0,0:0:0:0:
387,192,39250,2,0,P|457:258|387:312,1,210,8|2,0:0|0:0,0:0:0:0:
151,192,39667,1,0,0:0:0:0:
414,192,39806,2,0,B|493:192|493:192|414:192,1,157.5,8|0,0:0|0:0,0:0:0:0:
151,192,40083,6,0,P|160:95|256:72,1,210,2|8,0:0|0:0,0:0:0:0:
361,192,40500,1,0,0:0:0:0:
151,192,40639,1,2,0:0:0:0:
176,192,40778,1,0,0:0:0:0:
256,192,40917,1,8,0:0:0:0:
124,192,41056,1,0,0:0:0:0:
387,192,41195,6,0,L|461:266,1,105,2|0,0:0|0:0,0:0:0:0:
448,289,41403,1,0,0:0:0:0:
256,192,41472,2,0,L|203:192,1,52.5,8|0,0:0|0:0,0:0:0:0:
124,192,41611,1,0,0:0:0:0:
111,192,41681,1,0,0:0:0:0:
124,192,41750,6,0,L|176:192,1,52.5,4|0,0:0|0:0,0:0:0:0:
71,192,41958,2,0,L|123:192,1,52.5,4|0,0:0|0:0,0:0:0:0:
18,192,42167,2,0,L|77:192,1,52.5,4|0,0:0|0:0,0:0:0:0:
256,192,42306,5,6,0:0:0:0:
176,192,42445,1,4,0:2:0:0:
123,192,42583,1,8,0:0:0:0:
256,192,42722,1,0,0:0:0:0:
123,192,42861,2,0,B|46:270,1,105,0|2,0:0|0:0,0:0:0:0:
387,192,43139,2,0,P|413:138|387:112,1,105,8|0,0:0|0:0,0:0:0:0:
176,192,43417,5,2,0:0:0:0:
123,192,43556,1,0,0:0:0:0:
336,192,43695,6,0,L|390:192,1,52.5,8|0,0:0|0:0,0:0:0:0:
256,192,43833,2,0,L|202:192,1,52.5
336,192,43972,6,0,L|410:266,1,105,2|2,0:0|0:0,0:0:0:0:
123,192,44250,2,0,L|124:33,1,157.5,6|0,0:0|0:0,0:0:0:0:
336,192,44528,5,6,0:0:0:0:
256,192,44667,1,0,0:0:0:0:
203,192,44736,1,0,0:0:0:0:
203,192,44806,1,8,0:0:0:0:
308,192,44945,2,0,L|361:192,1,52.5
176,192,45083,2,0,L|176:128,1,52.5,4|0,0:0|0:0,0:0:0:0:
230,192,45222,1,0,0:0:0:0:
336,192,45361,1,8,0:0:0:0:
123,192,45500,1,0,0:0:0:0:
203,192,45639,5,2,0:1:0:0:
309,192,45778,1,2,0:0:0:0:
176,192,45917,1,8,0:0:0:0:
336,192,46056,1,2,0:0:0:0:
123,192,46195,1,8,0:0:0:0:
389,192,46333,5,2,0:0:0:0:
70,192,46472,2,0,P|25:268|70:372,1,210,2|2,0:0|0:0,0:0:0:0:
123,192,47028,6,0,B|156:152,1,52.5
203,192,47306,6,0,B|273:172,1,73.4999977569581,4|0,0:1|0:0,0:0:0:0:
362,192,47583,6,0,B|467:192,1,105
256,192,47861,5,4,0:0:0:0:
467,192,48000,1,4,0:0:0:0:
256,192,48139,2,0,P|235:128|256:112,1,105,2|0,0:0|0:0,0:0:0:0:
362,192,48417,5,2,0:0:0:0:
98,192,48556,1,0,0:0:0:0:
308,192,48695,2,0,P|335:244|308:272,1,105
45,192,48972,6,0,B|5:152|5:152|5:51,1,157.5,6|0,0:0|0:0,0:0:0:0:
70,192,49250,1,8,0:1:0:0:
308,192,49389,1,0,0:0:0:0:
203,192,49528,1,2,0:0:0:0:
177,192,49667,1,0,0:0:0:0:
389,192,49806,5,8,0:1:0:0:
308,192,49945,1,0,0:0:0:0:
438,192,50083,6,0,L|515:269,1,105,4|0,0:1|0:0,0:0:0:0:
362,192,50292,1,0,0:0:0:0:
203,192,50361,2,0,L|143:192,1,52.5,8|0,0:0|0:0,0:0:0:0:
98,192,50500,1,0,0:0:0:0:
135,192,50570,1,0,0:0:0:0:
203,192,50639,6,0,L|142:192,1,52.5,2|0,0:0|0:0,0:0:0:0:
256,192,50847,2,0,L|189:192,1,52.5,2|0,0:0|0:0,0:0:0:0:
309,192,51056,2,0,L|252:192,1,52.5,2|0,0:0|0:0,0:0:0:0:
70,192,51195,5,6,0:0:0:0:
177,192,51333,1,0,0:0:0:0:
98,192,51472,1,8,0:0:0:0:
203,192,51611,1,0,0:0:0:0:
438,192,51750,5,2,0:0:0:0:
464,192,51889,1,4,0:0:0:0:
203,192,52028,1,8,0:0:0:0:
177,192,52167,1,0,0:0:0:0:
308,192,52306,5,2,0:1:0:0:
177,192,52445,1,2,0:0:0:0:
386,192,52583,1,2,0:0:0:0:
255,192,52722,1,2,0:0:0:0:
464,192,52861,1,2,0:0:0:0:
490,192,52931,1,0,0:0:0:0:
490,192,53000,1,2,0:0:0:0:
464,192,53070,1,0,0:0:0:0:
177,192,53139,2,0,P|149:143|177:112,1,105,2|2,0:0|0:0,0:0:0:0:
256,192,53417,12,4,54528,0:1:0:0:
460,192,55639,5,4,0:0:0:0:
497,192,55708,1,0,0:0:0:0:
275,192,55778,1,2,0:0:0:0:
238,192,55847,1,0,0:0:0:0:
460,192,55917,1,2,0:0:0:0:
497,192,55986,1,0,0:0:0:0:
238,192,56056,2,0,L|155:192,1,73.4999977569581,0|8,0:0|0:1,0:0:0:0:
90,192,56333,1,0,0:0:0:0:
126,192,56472,1,0,0:0:0:0:
275,192,56750,6,0,L|275:243,3,48.9999985046387,0|0|0|0,0:1|0:0|0:0|0:0,0:0:0:0:
164,192,57306,2,0,L|164:241,3,48.9999985046387,8|0|0|0,0:1|0:0|0:0|0:0,0:0:0:0:
52,192,57861,5,4,0:0:0:0:
15,192,57931,1,0,0:0:0:0:
237,192,58000,1,0,0:0:0:0:
274,192,58070,1,0,0:0:0:0:
52,192,58139,1,0,0:0:0:0:
15,192,58208,1,0,0:0:0:0:
274,192,58278,2,0,L|347:192,1,73.4999977569581,0|8,0:0|0:1,0:0:0:0:
422,192,58556,1,0,0:0:0:0:
422,192,58695,2,0,L|349:192,1,73.4999977569581
126,192,58972,6,0,L|72:246,1,73.4999977569581
386,192,59250,2,0,L|442:248,1,73.4999977569581
90,192,59528,6,0,L|90:126,3,48.9999985046387,4|0|0|0,0:0|0:0|0:0|0:0,0:0:0:0:
201,72,60083,5,4,0:0:0:0:
238,72,60153,1,0,0:0:0:0:
457,72,60222,1,0,0:0:0:0:
419,72,60292,1,0,0:0:0:0:
201,72,60361,1,2,0:0:0:0:
238,72,60431,1,0,0:0:0:0:
457,72,60500,2,0,B|509:72|509:72|457:152,1,146.999995513916
312,192,60847,1,0,0:0:0:0:
126,192,60917,2,0,L|51:192,1,73.4999977569581
200,192,61125,1,0,0:0:0:0:
386,192,61195,6,0,L|428:192,1,36.749998878479
200,192,61333,2,0,L|190:152,1,42
349,192,61472,2,0,L|401:192,1,47.2499985580445
163,192,61611,2,0,L|153:141,1,52.5
312,192,61750,2,0,L|369:192,1,57.7500017623902,8|0,0:1|0:0,0:0:0:0:
126,192,61888,2,0,L|116:136,1,57.7500017623902
275,192,62028,2,0,L|344:192,1,68.2499968757631
89,192,62167,2,0,L|79:120,1,73.4999977569581
238,192,62306,5,4,0:0:0:0:
292,192,62375,1,0,0:0:0:0:
238,192,62445,1,0,0:0:0:0:
183,192,62514,1,0,0:0:0:0:
311,192,62583,1,0,0:0:0:0:
357,192,62653,1,0,0:0:0:0:
357,192,62722,1,0,0:0:0:0:
311,192,62792,1,0,0:0:0:0:
126,192,62861,5,0,0:0:0:0:
80,192,62931,1,0,0:0:0:0:
80,192,63000,1,0,0:0:0:0:
126,192,63070,1,0,0:0:0:0:
311,192,63139,1,0,0:0:0:0:
348,192,63209,1,0,0:0:0:0:
385,192,63278,1,0,0:0:0:0:
422,192,63348,1,0,0:0:0:0:
200,192,63417,5,4,0:0:0:0:
163,192,63486,1,0,0:0:0:0:
312,192,63556,1,0,0:0:0:0:
348,192,63625,1,0,0:0:0:0:
200,192,63695,1,0,0:0:0:0:
163,192,63764,1,0,0:0:0:0:
312,192,63833,1,0,0:0:0:0:
348,192,63903,1,0,0:0:0:0:
126,192,63972,6,0,P|99:251|126:272,1,105,4|0,0:0|0:0,0:0:0:0:
200,192,64528,5,4,0:0:0:0:
423,112,64667,1,8,0:1:0:0:
449,112,64806,1,0,0:0:0:0:
475,112,64945,5,8,0:1:0:0:
265,112,65222,1,8,0:1:0:0:
344,112,65500,1,8,0:1:0:0:
449,112,65639,5,4,0:0:0:0:
239,112,65778,1,8,0:1:0:0:
449,112,65917,1,0,0:0:0:0:
239,112,66056,1,8,0:1:0:0:
344,112,66333,5,4,0:0:0:0:
108,112,66472,1,4,0:0:0:0:
55,192,66750,5,2,0:0:0:0:
291,192,66889,1,8,0:1:0:0:
343,192,67028,1,0,0:0:0:0:
396,192,67167,5,8,0:1:0:0:
212,192,67444,1,8,0:1:0:0:
291,192,67722,1,8,0:1:0:0:
396,192,67861,5,2,0:0:0:0:
186,192,68000,1,8,0:1:0:0:
396,192,68139,1,2,0:0:0:0:
186,192,68278,1,8,0:1:0:0:
422,192,68417,5,4,0:0:0:0:
474,192,68486,1,4,0:0:0:0:
500,192,68556,1,4,0:0:0:0:
474,192,68625,1,4,0:0:0:0:
186,192,68695,2,0,P|158:147|186:112,1,105,4|0,0:0|0:0,0:0:0:0:
291,192,68972,5,2,0:0:0:0:
221,192,69111,1,8,0:1:0:0:
308,192,69250,1,2,0:0:0:0:
204,192,69389,1,8,0:1:0:0:
362,192,69528,1,2,0:0:0:0:
150,192,69667,1,8,0:1:0:0:
416,192,69806,1,2,0:0:0:0:
96,192,69945,1,8,0:1:0:0:
305,272,70083,6,0,L|357:272,1,52.5
207,272,70222,2,0,L|155:272,1,52.5
323,272,70361,2,0,L|375:272,1,52.5
189,272,70500,2,0,L|137:272,1,52.5
340,272,70639,2,0,L|392:272,1,52.5
172,272,70778,2,0,L|120:272,1,52.5
357,272,70917,2,0,L|409:272,1,52.5
155,272,71056,2,0,L|103:272,1,52.5
357,272,71195,5,4,0:0:0:0:
200,192,71472,6,0,B|147:192|147:192|201:192,1,105
256,192,71889,1,0,0:0:0:0:
312,192,72028,2,0,B|365:192|365:192|311:192,1,105,0|8,0:0|0:0,0:0:0:0:
256,72,73417,6,4,L|256:325,1,252,4|4,0:0|0:1,0:1:0:0:
256,192,77861,6,0,L|414:192,1,157.500006008148,4|0,0:0|0:0,0:0:0:0:
99,192,78139,1,4,2:0:0:0:
256,192,78417,6,0,L|98:192,1,157.500006008148,4|0,0:0|0:0,0:0:0:0:
79,192,78625,1,0,0:0:0:0:
414,192,78695,1,4,0:0:0:0:
256,192,78972,6,0,L|398:192,1,125.999996154785,4|4,0:0|0:0,0:0:0:0:
256,192,79250,2,0,L|124:192,1,125.999996154785,8|2,0:0|0:0,0:0:0:0:
414,192,79528,1,0,0:0:0:0:
98,192,79667,2,0,P|62:170|98:112,1,125.999996154785,2|8,0:0|0:0,0:0:0:0:
193,192,79945,1,2,0:0:0:0:
414,192,80083,6,0,L|464:308,1,125.999996154785,2|2,0:0|0:0,0:0:0:0:
98,192,80361,2,0,L|48:308,1,125.999996154785,8|2,0:0|0:0,0:0:0:0:
319,192,80639,1,2,0:0:0:0:
193,192,80778,1,2,0:0:0:0:
414,192,80917,1,8,0:0:0:0:
98,72,81056,5,2,0:0:0:0:
66,72,81125,1,0,0:0:0:0:
66,72,81195,2,0,P|89:143|132:152,1,125.999996154785,2|2,0:0|0:0,0:0:0:0:
231,72,81403,1,0,0:0:0:0:
446,72,81472,2,0,P|423:143|380:152,1,125.999996154785,8|2,0:0|0:0,0:0:0:0:
281,72,81680,1,0,0:0:0:0:
66,72,81750,6,0,P|89:143|132:152,1,125.999996154785,2|2,0:0|0:0,0:0:0:0:
231,72,81958,1,0,0:0:0:0:
485,72,82028,2,0,L|465:10,1,62.9999980773926,8|0,0:0|0:0,0:0:0:0:
432,72,82167,2,0,L|370:72,1,62.9999980773926,2|0,0:0|0:0,0:0:0:0:
162,192,82306,6,0,L|256:275,1,125.999996154785,2|2,0:0|0:0,0:0:0:0:
350,192,82583,1,8,0:0:0:0:
413,192,82722,1,2,0:0:0:0:
445,192,82861,1,2,0:0:0:0:
162,192,83000,1,2,0:0:0:0:
256,192,83139,1,8,0:0:0:0:
35,192,83278,1,2,0:0:0:0:
350,192,83417,6,0,L|219:192,2,125.999996154785,2|2|8,0:0|0:0|0:0,0:0:0:0:
98,192,83833,1,2,0:0:0:0:
130,192,83972,1,2,0:0:0:0:
256,192,84111,1,2,0:0:0:0:
35,192,84250,1,8,0:0:0:0:
256,192,84389,1,2,0:0:0:0:
477,192,84528,6,0,L|507:68,1,125.999996154785,2|2,0:0|0:0,0:0:0:0:
256,192,84806,2,0,L|226:316,1,125.999996154785,8|2,0:0|0:0,0:0:0:0:
477,192,85083,1,2,0:0:0:0:
382,192,85222,1,2,0:0:0:0:
477,192,85361,1,8,0:0:0:0:
130,192,85500,1,2,0:0:0:0:
35,192,85639,5,2,0:1:0:0:
256,192,85778,1,2,0:0:0:0:
130,192,85917,1,8,0:0:0:0:
382,192,86056,1,2,0:0:0:0:
130,192,86195,5,2,0:0:0:0:
477,192,86333,1,0,0:0:0:0:
130,192,86472,1,8,0:0:0:0:
98,192,86542,1,0,0:0:0:0:
98,192,86611,1,0,0:0:0:0:
130,192,86681,1,0,0:0:0:0:
349,192,86750,6,0,L|256:108,1,125.999996154785,4|8,0:0|0:0,0:0:0:0:
477,192,87028,1,8,0:0:0:0:
256,192,87167,1,8,0:0:0:0:
35,192,87306,2,0,L|75:73,1,125.999996154785,2|8,0:0|0:0,0:0:0:0:
382,192,87583,2,0,L|342:311,1,125.999996154785,8|8,0:0|0:0,0:0:0:0:
98,192,87861,5,2,0:0:0:0:
350,192,88000,1,8,0:0:0:0:
130,192,88139,1,8,0:0:0:0:
382,192,88278,1,8,0:0:0:0:
162,192,88417,1,2,0:0:0:0:
256,192,88556,1,8,0:0:0:0:
350,192,88695,1,12,0:0:0:0:
35,192,88833,1,8,0:0:0:0:
350,192,88972,6,0,L|441:283,1,125.999996154785,2|8,0:0|0:0,0:0:0:0:
162,192,89250,2,0,L|73:103,1,125.999996154785,8|8,0:0|0:0,0:0:0:0:
350,192,89528,2,0,L|412:192,1,62.9999980773926,2|0,0:0|0:0,0:0:0:0:
256,192,89667,2,0,L|194:192,1,62.9999980773926,8|0,0:0|0:0,0:0:0:0:
413,192,89806,2,0,L|458:147,1,62.9999980773926,8|0,0:0|0:0,0:0:0:0:
256,192,89945,1,8,0:0:0:0:
99,192,90083,5,2,0:0:0:0:
35,192,90222,1,8,0:0:0:0:
256,192,90361,1,8,0:0:0:0:
162,192,90500,1,8,0:0:0:0:
383,192,90639,1,2,0:0:0:0:
256,192,90778,1,12,0:0:0:0:
477,192,90917,1,12,0:0:0:0:
162,192,91056,1,8,0:0:0:0:
383,192,91195,6,0,L|474:283,1,125.999996154785,2|8,0:0|0:0,0:0:0:0:
256,192,91472,1,8,0:0:0:0:
162,192,91611,1,8,0:0:0:0:
383,192,91750,2,0,L|472:281,1,125.999996154785,2|8,0:0|0:0,0:0:0:0:
256,192,92028,1,8,0:0:0:0:
350,192,92167,1,8,0:0:0:0:
129,192,92306,5,2,0:0:0:0:
129,192,92445,1,8,0:0:0:0:
256,192,92583,1,8,0:0:0:0:
383,192,92722,1,8,0:0:0:0:
129,192,92861,1,2,0:0:0:0:
162,192,93000,1,8,0:0:0:0:
413,192,93139,1,12,0:0:0:0:
98,192,93278,1,8,0:0:0:0:
413,192,93417,6,0,L|502:281,1,125.999996154785,2|8,0:0|0:0,0:0:0:0:
256,192,93695,2,0,L|164:100,1,125.999996154785,8|8,0:0|0:0,0:0:0:0:
98,192,93972,1,2,0:0:0:0:
129,192,94111,1,8,0:0:0:0:
383,192,94250,1,8,0:0:0:0:
256,192,94389,1,8,0:0:0:0:
383,192,94528,5,2,0:1:0:0:
413,192,94597,1,0,0:0:0:0:
429,192,94667,1,0,0:0:0:0:
413,192,94736,1,0,0:0:0:0:
383,192,94806,1,0,0:0:0:0:
344,192,94875,1,0,0:0:0:0:
291,192,94945,1,0,0:0:0:0:
221,192,95014,1,0,0:0:0:0:
383,192,95083,6,0,L|466:129,1,105,8|0,0:2|0:0,0:0:0:0:
176,192,95361,1,0,0:0:0:0:
333,72,95639,5,6,0:0:0:0:
359,72,95708,1,0,0:0:0:0:
372,72,95778,1,0,0:0:0:0:
359,72,95847,1,0,0:0:0:0:
333,72,95917,1,8,0:0:0:0:
280,72,95986,1,0,0:0:0:0:
214,72,96056,1,0,0:0:0:0:
135,72,96125,1,0,0:0:0:0:
294,152,96195,5,2,0:0:0:0:
346,152,96264,1,0,0:0:0:0:
346,152,96333,1,0,0:0:0:0:
294,152,96403,1,0,0:0:0:0:
447,272,96472,1,8,0:0:0:0:
486,272,96542,1,0,0:0:0:0:
499,272,96611,1,0,0:0:0:0:
486,272,96681,1,0,0:0:0:0:
447,272,96750,5,2,0:0:0:0:
394,272,96820,1,0,0:0:0:0:
394,272,96889,1,0,0:0:0:0:
447,272,96958,1,0,0:0:0:0:
288,112,97028,1,8,0:0:0:0:
235,112,97097,1,0,0:0:0:0:
394,112,97167,1,4,0:1:0:0:
446,112,97236,1,0,0:0:0:0:
288,112,97306,5,2,0:0:0:0:
235,112,97375,1,0,0:0:0:0:
288,112,97445,1,0,0:0:0:0:
340,112,97514,1,0,0:0:0:0:
183,112,97583,1,8,0:0:0:0:
130,112,97653,1,0,0:0:0:0:
130,112,97722,1,0,0:0:0:0:
183,112,97792,1,0,0:0:0:0:
340,192,97861,5,2,0:0:0:0:
392,192,97931,1,0,0:0:0:0:
418,192,98000,1,0,0:0:0:0:
340,192,98070,1,0,0:0:0:0:
183,272,98139,1,8,0:0:0:0:
130,272,98208,1,0,0:0:0:0:
103,272,98278,1,0,0:0:0:0:
130,272,98347,1,0,0:0:0:0:
289,272,98417,5,2,0:0:0:0:
341,272,98486,1,0,0:0:0:0:
182,192,98556,1,0,0:0:0:0:
129,192,98625,1,0,0:0:0:0:
316,272,98695,1,8,0:0:0:0:
368,272,98764,1,0,0:0:0:0:
209,192,98833,1,0,0:0:0:0:
156,192,98903,1,0,0:0:0:0:
341,72,98972,5,2,0:0:0:0:
366,72,99042,1,0,0:0:0:0:
314,72,99111,1,0,0:0:0:0:
234,72,99181,1,0,0:0:0:0:
78,72,99250,1,8,0:0:0:0:
53,72,99320,1,0,0:0:0:0:
105,72,99389,1,0,0:0:0:0:
184,72,99459,1,0,0:0:0:0:
342,312,99528,5,2,0:0:0:0:
317,312,99597,1,0,0:0:0:0:
164,312,99667,1,4,0:2:0:0:
111,312,99736,1,0,0:0:0:0:
290,312,99806,1,8,0:0:0:0:
265,312,99875,1,0,0:0:0:0:
111,312,99945,1,0,0:2:0:0:
59,312,100014,1,0,0:0:0:0:
216,152,100083,5,2,0:0:0:0:
282,152,100153,1,0,0:0:0:0:
216,152,100222,1,0,0:0:0:0:
150,152,100292,1,0,0:0:0:0:
216,152,100361,1,8,0:0:0:0:
282,152,100431,1,0,0:0:0:0:
216,152,100500,1,0,0:0:0:0:
150,152,100570,1,0,0:0:0:0:
307,192,100639,5,0,0:0:0:0:
359,192,100708,1,0,0:0:0:0:
385,192,100778,1,0,0:0:0:0:
333,192,100847,1,0,0:0:0:0:
256,192,100917,5,0,0:0:0:0:
203,192,100986,1,0,0:0:0:0:
229,192,101056,1,0,0:0:0:0:
281,192,101125,1,0,0:0:0:0:
440,272,101195,5,0,0:0:0:0:
466,272,101264,1,0,0:0:0:0:
466,272,101333,1,0,0:0:0:0:
440,272,101403,1,0,0:0:0:0:
387,272,101472,1,0,0:0:0:0:
334,272,101542,1,0,0:0:0:0:
466,272,101611,1,0,0:0:0:0:
492,272,101681,1,0,0:0:0:0:
334,272,101750,5,0,0:0:0:0:
281,272,101820,1,0,0:0:0:0:
466,272,101889,1,0,0:0:0:0:
492,272,101958,1,0,0:0:0:0:
281,272,102028,1,4,0:0:0:0:
228,272,102097,1,0,0:0:0:0:
228,272,102167,1,0,0:0:0:0:
281,272,102236,1,0,0:0:0:0:
440,112,102306,5,2,0:0:0:0:
453,112,102375,1,0,0:0:0:0:
294,112,102445,1,0,0:0:0:0:
281,112,102514,1,0,0:0:0:0:
440,112,102583,1,8,0:0:0:0:
466,112,102653,1,0,0:0:0:0:
440,112,102722,1,0,0:0:0:0:
387,112,102792,1,0,0:0:0:0:
213,192,102861,5,2,0:0:0:0:
142,192,102931,1,0,0:0:0:0:
299,192,103000,1,0,0:0:0:0:
370,192,103070,1,0,0:0:0:0:
213,192,103139,1,8,0:0:0:0:
142,192,103208,1,0,0:0:0:0:
299,192,103278,1,0,0:0:0:0:
370,192,103347,1,0,0:0:0:0:
213,192,103417,5,2,0:0:0:0:
161,192,103486,1,0,0:0:0:0:
161,192,103556,1,0,0:0:0:0:
213,192,103625,1,0,0:0:0:0:
370,192,103695,1,8,0:0:0:0:
422,192,103764,1,0,0:0:0:0:
422,192,103834,1,0,0:0:0:0:
370,192,103903,1,0,0:0:0:0:
213,192,103972,5,2,0:1:0:0:
299,192,104111,1,0,0:0:0:0:
193,192,104250,1,0,0:0:0:0:
319,192,104389,1,0,0:0:0:0:
90,192,104528,5,4,0:0:0:0:
90,192,104667,1,8,0:0:0:0:
299,192,104806,1,4,0:0:0:0:
213,192,104945,1,8,0:0:0:0:
422,192,105083,1,0,0:0:0:0:
422,192,105222,1,8,0:0:0:0:
213,192,105361,1,4,0:0:0:0:
299,192,105500,1,8,0:0:0:0:
90,192,105639,6,0,L|60:314,1,125.999996154785,0|8,0:0|0:0,0:0:0:0:
299,192,105917,2,0,L|329:70,1,125.999996154785,4|4,0:0|0:1,0:0:0:0:
213,192,106195,1,0,0:0:0:0:
422,192,106333,1,0,0:0:0:0:
90,192,106472,6,0,L|206:308,1,157.500006008148,4|0,0:0|0:0,0:0:0:0:
405,312,106750,6,0,L|465:202,1,125.999996154785,4|8,0:0|0:0,0:0:0:0:
107,312,107028,2,0,L|47:201,1,125.999996154785,4|8,0:0|0:0,0:0:0:0:
405,232,107306,2,0,L|465:342,1,125.999996154785,0|8,0:0|0:0,0:0:0:0:
107,232,107584,2,0,L|47:343,1,125.999996154785,4|8,0:0|0:0,0:0:0:0:
422,192,107861,5,0,0:0:0:0:
321,192,108000,1,8,0:0:0:0:
277,192,108070,1,0,0:0:0:0:
234,192,108139,1,4,0:0:0:0:
335,192,108278,1,8,0:0:0:0:
112,192,108417,6,0,P|72:151|112:112,1,125.999996154785,6|0,2:2|0:0,0:0:0:0:
192,192,108625,1,0,0:0:0:0:
380,272,108695,2,0,L|443:272,1,62.9999980773926,4|0,0:0|0:0,0:0:0:0:
287,272,108833,2,0,L|221:272,1,62.9999980773926,12|0,0:0|0:0,0:0:0:0:
380,272,108972,5,4,0:0:0:0:
443,272,109111,1,8,0:0:0:0:
224,272,109250,1,4,0:0:0:0:
161,272,109389,1,8,0:0:0:0:
380,272,109528,2,0,L|470:182,1,125.999996154785,0|8,0:0|0:0,0:0:0:0:
422,152,109736,1,0,0:0:0:0:
161,272,109806,2,0,P|123:324|161:352,1,125.999996154785,4|8,0:0|0:0,0:0:0:0:
422,192,110083,5,0,0:0:0:0:
359,192,110222,1,8,0:0:0:0:
90,192,110361,1,4,0:0:0:0:
153,192,110500,1,8,0:0:0:0:
359,192,110639,1,4,0:0:0:0:
447,192,110778,1,8,0:0:0:0:
460,192,110847,1,0,0:0:0:0:
153,192,110917,6,0,P|134:148|153:152,1,105,4|0,0:0|0:0,0:0:0:0:
256,192,111264,12,2,112306,0:1:0:0:
356,192,112861,6,0,L|466:192,1,105
156,192,113139,2,0,L|43:192,1,105,4|0,0:0|0:0,0:0:0:0:
256,192,113417,1,4,0:0:0:0:
256,192,113486,12,4,116750,0:0:0:0:
