osu file format v14

[General]
AudioFilename: O2i3 - Ooi.mp3
AudioLeadIn: 0
PreviewTime: 77792
Countdown: 0
SampleSet: Soft
StackLeniency: 0.2
Mode: 2
LetterboxInBreaks: 0
WidescreenStoryboard: 1

[Editor]
Bookmarks: 2306,6750,11195,15639,20083,24528,28972,33417,37861,42306,46750,51195,55639,60083,64528,68972,73417,77861,78972,82306,86750,91195,95639,97028,100083,104528,108972,113417
DistanceSpacing: 0.5
BeatDivisor: 4
GridSize: 16
TimelineZoom: 2.3

[Metadata]
Title:Ooi [Game Edit]
TitleUnicode:Ooi [Game Edit]
Artist:O2i3
ArtistUnicode:O2i3
Creator:xi-False
Version:IV (Rain)
Source:
Tags:Jaxalate Records disc 2 Hardcore high bpm
BeatmapID:968032
BeatmapSetID:451239

[Difficulty]
HPDrainRate:5
CircleSize:4
OverallDifficulty:9
ApproachRate:9
SliderMultiplier:1.8
SliderTickRate:2

[Events]
//Background and Video events
0,0,"Ooi Hard!.jpg",0,0
//Break Periods
//Storyboard Layer 0 (Background)
//Storyboard Layer 1 (Fail)
//Storyboard Layer 2 (Pass)
//Storyboard Layer 3 (Foreground)
//Storyboard Sound Samples

[TimingPoints]
1195,277.777777777778,4,2,0,100,1,0

[Colours]
Combo1 : 210,226,7
Combo2 : 10,34,118
Combo3 : 231,24,138
Combo4 : 72,225,164
Combo5 : 205,123,63
Combo6 : 116,221,239
Combo7 : 155,32,238
Combo8 : 233,63,105

[HitObjects]
160,336,2306,6,0,B|112:256|112:256|160:176,1,180
336,192,2722,2,0,B|432:192|432:192|320:192,1,180
160,192,3278,1,0,0:0:0:0:
352,256,3695,6,0,P|448:224|448:128,2,180
176,208,4528,2,0,B|64:208|64:208|160:208,1,180
368,208,5083,1,0,0:0:0:0:
272,208,5222,1,0,0:0:0:0:
448,144,5500,1,0,0:0:0:0:
64,144,6195,1,0,0:0:0:0:
256,192,6750,5,0,0:0:0:0:
96,288,7028,2,0,L|64:192,1,90
224,192,7306,2,0,L|256:96,1,90
64,144,7722,5,0,0:0:0:0:
256,192,8139,2,0,P|368:208|416:272,1,180
256,128,8695,2,0,P|192:240|224:288,1,180
256,192,9111,12,0,10917,0:0:0:0:
216,336,11195,5,0,0:0:0:0:
152,328,11264,1,0,0:0:0:0:
96,288,11333,1,0,0:0:0:0:
64,224,11403,1,0,0:0:0:0:
64,160,11472,1,0,0:0:0:0:
104,104,11542,1,0,0:0:0:0:
168,88,11611,1,0,0:0:0:0:
416,320,11681,5,0,0:0:0:0:
448,296,11750,1,0,0:0:0:0:
464,248,11819,1,0,0:0:0:0:
464,200,11889,1,0,0:0:0:0:
448,168,11958,1,0,0:0:0:0:
416,136,12028,1,0,0:0:0:0:
272,184,12306,5,0,0:0:0:0:
256,120,12375,1,0,0:0:0:0:
288,64,12445,1,0,0:0:0:0:
352,40,12514,1,0,0:0:0:0:
416,56,12583,1,0,0:0:0:0:
448,112,12653,1,0,0:0:0:0:
440,168,12722,1,0,0:0:0:0:
208,352,12792,5,0,0:0:0:0:
144,344,12861,1,0,0:0:0:0:
96,296,12931,1,0,0:0:0:0:
72,232,13000,1,0,0:0:0:0:
88,168,13070,1,0,0:0:0:0:
144,144,13139,1,0,0:0:0:0:
240,184,13417,5,0,0:0:0:0:
256,120,13486,1,0,0:0:0:0:
224,64,13556,1,0,0:0:0:0:
160,40,13625,1,0,0:0:0:0:
96,56,13694,1,0,0:0:0:0:
64,112,13764,1,0,0:0:0:0:
72,168,13833,1,0,0:0:0:0:
360,352,13903,5,0,0:0:0:0:
416,312,13972,1,0,0:0:0:0:
440,248,14042,1,0,0:0:0:0:
448,176,14111,1,0,0:0:0:0:
424,112,14181,1,0,0:0:0:0:
376,64,14250,1,0,0:0:0:0:
320,40,14320,1,0,0:0:0:0:
136,344,14389,5,0,0:0:0:0:
80,312,14458,1,0,0:0:0:0:
40,272,14528,1,0,0:0:0:0:
24,216,14597,1,0,0:0:0:0:
32,152,14667,1,0,0:0:0:0:
64,104,14736,1,0,0:0:0:0:
112,72,14806,1,0,0:0:0:0:
336,208,14875,6,0,L|368:144,2,45
272,208,15083,1,0,0:0:0:0:
312,272,15639,5,0,0:0:0:0:
368,272,15708,1,0,0:0:0:0:
424,272,15778,1,0,0:0:0:0:
464,256,15847,1,0,0:0:0:0:
472,208,15917,1,0,0:0:0:0:
440,176,15986,1,0,0:0:0:0:
376,176,16056,1,0,0:0:0:0:
128,216,16125,5,0,0:0:0:0:
56,216,16195,1,0,0:0:0:0:
24,192,16264,1,0,0:0:0:0:
24,144,16333,1,0,0:0:0:0:
56,112,16403,1,0,0:0:0:0:
128,112,16472,1,0,0:0:0:0:
272,336,16750,5,0,0:0:0:0:
320,336,16820,1,0,0:0:0:0:
320,272,16889,1,0,0:0:0:0:
256,272,16958,1,0,0:0:0:0:
192,272,17028,1,0,0:0:0:0:
192,208,17097,1,0,0:0:0:0:
240,208,17167,1,0,0:0:0:0:
440,240,17236,5,0,0:0:0:0:
472,192,17306,1,0,0:0:0:0:
480,128,17375,1,0,0:0:0:0:
448,64,17445,1,0,0:0:0:0:
392,32,17514,1,0,0:0:0:0:
328,32,17583,1,0,0:0:0:0:
160,336,17861,5,0,0:0:0:0:
96,320,17931,1,0,0:0:0:0:
48,280,18000,1,0,0:0:0:0:
24,224,18070,1,0,0:0:0:0:
32,160,18139,1,0,0:0:0:0:
64,112,18208,1,0,0:0:0:0:
120,72,18278,1,0,0:0:0:0:
376,304,18347,5,0,0:0:0:0:
416,256,18417,1,0,0:0:0:0:
432,192,18486,1,0,0:0:0:0:
416,128,18556,1,0,0:0:0:0:
376,80,18625,1,0,0:0:0:0:
312,48,18695,1,0,0:0:0:0:
160,256,18972,6,0,L|120:176,1,90
344,272,19250,2,0,L|368:176,1,90
160,112,19528,2,0,L|368:112,1,180
272,208,20083,1,0,0:0:0:0:
160,208,20222,1,0,0:0:0:0:
64,208,20361,1,0,0:0:0:0:
192,288,20639,6,0,P|256:240|272:208,1,90
160,224,20917,1,0,0:0:0:0:
64,224,21056,1,0,0:0:0:0:
256,128,21333,1,0,0:0:0:0:
432,144,21611,1,0,0:0:0:0:
160,176,21889,1,0,0:0:0:0:
352,224,22167,6,0,P|400:176|400:144,1,90
160,272,22583,1,0,0:0:0:0:
304,256,22861,2,0,P|336:192|320:160,1,90
160,208,23278,2,0,P|80:176|64:80,2,180
368,336,24111,2,0,P|464:240|384:128,1,270
144,192,24806,5,0,0:0:0:0:
288,304,25083,2,0,L|176:304,1,90
112,224,25361,1,0,0:0:0:0:
352,192,25500,1,0,0:0:0:0:
160,128,25778,1,0,0:0:0:0:
368,304,26056,2,0,P|464:240|432:176,1,180
288,192,26611,2,0,L|400:192,1,90
160,192,27028,5,0,0:0:0:0:
272,128,27306,2,0,L|144:128,1,90
96,320,27722,2,0,P|32:256|32:160,2,180
256,192,28695,1,0,0:0:0:0:
400,320,28972,6,0,L|464:224,1,90
192,288,29250,2,0,L|112:192,1,90
496,144,29528,1,0,0:0:0:0:
288,224,29806,6,0,L|256:112,1,90
464,192,30084,2,0,L|512:80,1,90
160,64,30362,1,0,0:0:0:0:
352,96,30639,1,0,0:0:0:0:
144,320,31195,6,0,L|112:208,1,90
320,288,31473,2,0,L|368:176,1,90
48,192,31750,1,0,0:0:0:0:
192,192,32028,5,0,0:0:0:0:
288,192,32167,1,0,0:0:0:0:
384,192,32306,1,0,0:0:0:0:
224,112,32445,1,0,0:0:0:0:
256,112,32514,1,0,0:0:0:0:
288,112,32583,1,0,0:0:0:0:
192,304,32722,6,0,B|160:256|160:256|224:256,1,90
368,224,33000,1,0,0:0:0:0:
336,224,33069,1,0,0:0:0:0:
304,224,33138,1,0,0:0:0:0:
128,288,33417,2,0,L|80:192,1,90
336,304,33695,2,0,L|384:192,1,90
288,128,33972,1,0,0:0:0:0:
416,192,34250,6,0,L|464:96,1,90
144,128,34528,1,0,0:0:0:0:
368,128,34806,1,0,0:0:0:0:
224,208,35083,1,0,0:0:0:0:
112,208,35222,1,0,0:0:0:0:
0,208,35361,1,0,0:0:0:0:
432,224,35639,1,0,0:0:0:0:
128,240,36195,1,0,0:0:0:0:
320,224,36750,5,0,0:0:0:0:
208,224,36889,1,0,0:0:0:0:
272,176,37028,1,0,0:0:0:0:
160,176,37167,1,0,0:0:0:0:
224,128,37306,1,0,0:0:0:0:
112,128,37445,1,0,0:0:0:0:
416,272,37583,6,0,P|432:208|400:96,1,180
176,256,38139,1,0,0:0:0:0:
320,208,38417,5,0,0:0:0:0:
384,208,38556,1,0,0:0:0:0:
208,160,38695,1,0,0:0:0:0:
128,192,38972,1,0,0:0:0:0:
64,192,39111,1,0,0:0:0:0:
304,112,39250,1,0,0:0:0:0:
192,192,39528,5,0,0:0:0:0:
320,320,39806,1,0,0:0:0:0:
368,320,39945,1,0,0:0:0:0:
160,312,40083,1,0,0:0:0:0:
320,256,40361,1,0,0:0:0:0:
160,144,40639,2,0,L|288:144,2,90
320,48,41195,2,0,L|128:48,1,180
272,240,41750,5,0,0:0:0:0:
256,224,41820,1,0,0:0:0:0:
368,224,41958,1,0,0:0:0:0:
352,208,42028,1,0,0:0:0:0:
256,352,42167,1,0,0:0:0:0:
224,336,42236,1,0,0:0:0:0:
192,320,42306,1,0,0:0:0:0:
336,128,42445,6,0,L|384:48,1,90
128,224,42722,2,0,L|80:144,1,90
192,208,43417,6,0,L|128:112,1,90
416,192,43695,2,0,L|464:96,1,90
208,96,43972,1,0,0:0:0:0:
384,304,44250,6,0,P|424:232|400:136,1,180
176,256,44667,1,0,0:0:0:0:
144,240,44736,1,0,0:0:0:0:
112,224,44806,1,0,0:0:0:0:
240,192,44945,1,0,0:0:0:0:
112,48,45083,1,0,0:0:0:0:
144,64,45152,1,0,0:0:0:0:
176,80,45222,1,0,0:0:0:0:
64,128,45361,5,0,0:0:0:0:
144,160,45500,1,0,0:0:0:0:
256,240,45639,2,0,L|192:176,1,90
352,240,45917,2,0,L|272:160,1,90
432,240,46195,2,0,L|352:160,1,90
128,176,46472,1,0,0:0:0:0:
336,304,46750,6,0,P|432:240|480:160,1,180
80,288,47306,2,0,P|144:224|224:176,1,180
368,176,47861,5,0,0:0:0:0:
432,176,48000,1,0,0:0:0:0:
220,177,48139,1,0,0:0:0:0:
96,104,48417,5,0,0:0:0:0:
32,104,48556,1,0,0:0:0:0:
288,80,48695,1,0,0:0:0:0:
112,176,48972,6,0,L|304:176,1,180
128,320,49389,1,0,0:0:0:0:
96,288,49528,1,0,0:0:0:0:
416,240,49806,1,0,0:0:0:0:
264,232,50083,6,0,L|216:240,1,45
248,200,50222,2,0,L|192:200,1,45
232,152,50361,1,0,0:0:0:0:
376,176,50639,6,0,L|224:176,2,120
248,344,51195,2,0,L|216:240,1,90
424,240,51472,2,0,L|464:144,1,90
144,184,51750,1,0,0:0:0:0:
288,352,52028,5,0,0:0:0:0:
136,248,52306,2,0,L|96:144,1,90
368,248,52583,2,0,L|408:152,1,90
144,56,52861,1,0,0:0:0:0:
400,80,53139,5,0,0:0:0:0:
256,192,53417,12,0,55361,0:0:0:0:
296,336,55639,6,0,L|248:248,1,90
456,248,55917,2,0,L|488:152,1,90
256,192,56333,6,0,L|168:120,1,90
256,280,56750,1,0,0:0:0:0:
376,240,56889,1,0,0:0:0:0:
376,240,56958,1,0,0:0:0:0:
376,240,57028,1,0,0:0:0:0:
192,248,57306,5,0,0:0:0:0:
192,248,57375,1,0,0:0:0:0:
192,248,57445,1,0,0:0:0:0:
304,200,57583,1,0,0:0:0:0:
216,176,57861,2,0,L|160:80,1,90
416,160,58139,2,0,L|464:64,1,90
248,336,58417,6,0,P|128:304|80:248,2,180
416,168,59250,2,0,P|456:128|448:88,2,90
144,160,59806,1,0,0:0:0:0:
432,272,60083,5,0,0:0:0:0:
368,272,60222,1,0,0:0:0:0:
304,272,60361,1,0,0:0:0:0:
248,272,60500,2,0,P|168:264|56:112,1,270
232,344,61195,6,0,L|328:264,1,90
144,272,61472,2,0,L|160:160,1,90
280,288,61750,6,0,L|376:208,1,90
192,208,62027,2,0,L|208:96,1,90
336,240,62306,6,0,L|432:160,1,90
256,160,62583,2,0,L|272:48,1,90
384,176,62861,6,0,L|480:96,1,90
304,96,63138,2,0,L|320:-16,1,90
416,256,63417,5,0,0:0:0:0:
464,256,63556,1,0,0:0:0:0:
464,320,63695,1,0,0:0:0:0:
416,320,63833,1,0,0:0:0:0:
80,320,63972,1,0,0:0:0:0:
128,272,64528,5,0,0:0:0:0:
416,176,64667,1,0,0:0:0:0:
336,224,64945,1,0,0:0:0:0:
328,216,65222,1,0,0:0:0:0:
320,208,65500,1,0,0:0:0:0:
312,200,65778,1,0,0:0:0:0:
304,192,66056,1,0,0:0:0:0:
256,144,66333,1,0,0:0:0:0:
48,128,66472,5,0,0:0:0:0:
128,144,66750,1,0,0:0:0:0:
144,144,66889,1,0,0:0:0:0:
176,144,67167,1,0,0:0:0:0:
208,144,67445,1,0,0:0:0:0:
240,144,67722,1,0,0:0:0:0:
272,144,68000,1,0,0:0:0:0:
304,144,68278,1,0,0:0:0:0:
96,224,68417,6,0,L|16:128,1,90
384,192,68695,1,0,0:0:0:0:
208,352,68972,6,0,L|176:256,1,90
320,288,69250,2,0,L|352:192,1,90
176,208,69528,6,0,L|144:112,1,90
336,144,69806,2,0,L|368:48,1,90
240,352,70083,5,0,0:0:0:0:
192,352,70153,1,0,0:0:0:0:
168,320,70222,1,0,0:0:0:0:
168,272,70292,1,0,0:0:0:0:
304,304,70361,5,0,0:0:0:0:
352,304,70431,1,0,0:0:0:0:
376,272,70500,1,0,0:0:0:0:
376,224,70570,1,0,0:0:0:0:
176,160,70639,5,0,0:0:0:0:
128,160,70709,1,0,0:0:0:0:
104,128,70778,1,0,0:0:0:0:
104,80,70848,1,0,0:0:0:0:
432,32,70917,5,0,0:0:0:0:
432,80,70987,1,0,0:0:0:0:
408,112,71056,1,0,0:0:0:0:
368,128,71125,1,0,0:0:0:0:
208,32,71195,6,0,L|416:32,1,180
192,192,71750,5,0,0:0:0:0:
256,192,71820,1,0,0:0:0:0:
320,192,71889,1,0,0:0:0:0:
144,256,72028,1,0,0:0:0:0:
256,256,72167,1,0,0:0:0:0:
368,256,72306,1,0,0:0:0:0:
144,128,72583,5,0,0:0:0:0:
368,128,72861,1,0,0:0:0:0:
80,128,73139,1,0,0:0:0:0:
256,128,73417,1,0,0:0:0:0:
256,192,73556,12,0,77514,0:0:0:0:
160,320,77861,5,0,0:0:0:0:
128,272,78000,1,0,0:0:0:0:
336,272,78139,1,0,0:0:0:0:
384,208,78417,1,0,0:0:0:0:
96,192,78556,1,0,0:0:0:0:
160,144,78695,1,0,0:0:0:0:
304,288,78972,5,0,0:0:0:0:
400,288,79111,1,0,0:0:0:0:
160,240,79389,2,0,P|48:208|0:128,1,180
192,176,79945,1,0,0:0:0:0:
464,256,80083,2,0,P|480:192|384:112,1,180
272,304,80639,1,0,0:0:0:0:
96,256,80778,2,0,P|48:160|128:128,1,180
288,192,81333,6,0,L|464:112,2,180
48,176,82306,1,0,0:0:0:0:
256,304,82583,1,0,0:0:0:0:
128,160,82861,2,0,L|256:160,1,90
416,272,83278,2,0,P|464:208|448:112,1,180
160,304,83833,2,0,P|96:224|112:144,1,180
208,176,84389,5,0,0:0:0:0:
448,192,84528,1,0,0:0:0:0:
320,352,84806,2,0,P|240:336|128:288,1,180
352,224,85222,1,0,0:0:0:0:
128,208,85500,2,0,P|32:144|32:64,1,180
320,288,86056,1,0,0:0:0:0:
224,224,86195,2,0,L|160:144,1,90
416,144,86472,1,0,0:0:0:0:
272,320,86750,6,0,L|464:240,1,180
256,208,87306,2,0,P|208:176|192:144,1,90
368,320,87722,2,0,P|432:240|400:160,1,180
192,240,88278,2,0,P|144:160|176:80,1,180
336,240,88833,5,0,0:0:0:0:
224,240,88972,1,0,0:0:0:0:
400,176,89250,1,0,0:0:0:0:
272,64,89528,1,0,0:0:0:0:
368,64,89667,1,0,0:0:0:0:
448,336,89945,2,0,P|416:240|368:176,1,180
32,240,90500,2,0,P|80:160|160:128,1,180
320,224,91195,6,0,L|128:224,1,180
256,128,91750,1,0,0:0:0:0:
160,128,91889,1,0,0:0:0:0:
352,272,92167,2,0,P|416:208|400:128,1,180
128,256,92722,2,0,P|80:208|112:112,1,180
336,224,93278,2,0,P|400:192|400:144,1,90
208,224,93695,1,0,0:0:0:0:
80,208,93972,6,0,P|16:176|16:128,1,90
256,192,94389,1,0,0:0:0:0:
368,224,94528,6,0,L|416:192,1,45
384,192,94667,2,0,L|424:152,1,45
400,160,94806,2,0,L|432:128,1,45
392,128,94945,2,0,L|432:88,1,45
304,136,95083,6,0,L|192:136,2,90
208,352,95708,5,0,0:0:0:0:
160,336,95778,1,0,0:0:0:0:
120,288,95847,1,0,0:0:0:0:
96,232,95917,1,0,0:0:0:0:
96,176,95986,1,0,0:0:0:0:
128,120,96056,1,0,0:0:0:0:
184,96,96125,1,0,0:0:0:0:
248,112,96195,5,0,0:0:0:0:
288,160,96264,1,0,0:0:0:0:
288,224,96333,1,0,0:0:0:0:
240,264,96403,1,0,0:0:0:0:
112,328,96472,2,0,P|48:272|136:144,1,270
352,328,96958,5,0,0:0:0:0:
408,304,97028,1,0,0:0:0:0:
456,256,97097,1,0,0:0:0:0:
488,200,97167,1,0,0:0:0:0:
488,136,97236,1,0,0:0:0:0:
464,80,97306,1,0,0:0:0:0:
408,48,97375,1,0,0:0:0:0:
352,32,97445,1,0,0:0:0:0:
288,32,97514,1,0,0:0:0:0:
88,152,97583,5,0,0:0:0:0:
256,304,97861,2,0,P|344:264|368:176,1,180
272,208,98417,1,0,0:0:0:0:
88,224,98556,1,0,0:0:0:0:
224,312,98972,2,0,L|416:256,3,180
256,336,100083,5,0,0:0:0:0:
192,328,100153,1,0,0:0:0:0:
144,288,100222,1,0,0:0:0:0:
120,232,100292,1,0,0:0:0:0:
112,168,100361,1,0,0:0:0:0:
144,112,100431,1,0,0:0:0:0:
192,80,100500,1,0,0:0:0:0:
256,80,100570,5,0,0:0:0:0:
312,112,100639,1,0,0:0:0:0:
352,168,100708,1,0,0:0:0:0:
352,232,100778,1,0,0:0:0:0:
336,296,100847,1,0,0:0:0:0:
288,336,100917,1,0,0:0:0:0:
224,336,100986,1,0,0:0:0:0:
168,312,101056,1,0,0:0:0:0:
32,248,101125,6,0,P|16:184|120:128,1,180
272,288,101472,5,0,0:0:0:0:
336,296,101542,1,0,0:0:0:0:
392,264,101611,1,0,0:0:0:0:
432,216,101681,1,0,0:0:0:0:
448,152,101750,1,0,0:0:0:0:
432,96,101820,1,0,0:0:0:0:
384,56,101889,1,0,0:0:0:0:
328,40,101958,1,0,0:0:0:0:
264,40,102028,1,0,0:0:0:0:
144,344,102306,2,0,L|96:248,1,90
256,312,102583,2,0,L|296:232,1,90
176,240,102861,6,0,L|120:144,1,90
240,160,103139,2,0,L|304:88,1,90
424,160,103417,6,0,L|360:72,1,90
240,160,103695,2,0,L|176:64,1,90
48,168,103972,2,0,L|-8:64,1,90
240,288,104250,6,0,L|328:216,1,90
176,208,104528,2,0,L|120:128,1,90
408,232,104806,2,0,L|464:128,1,90
152,304,105083,1,0,0:0:0:0:
328,312,105361,5,0,0:0:0:0:
352,288,105500,1,0,0:0:0:0:
376,264,105639,1,0,0:0:0:0:
400,240,105778,1,0,0:0:0:0:
424,216,105917,1,0,0:0:0:0:
448,192,106056,1,0,0:0:0:0:
144,192,106195,1,0,0:0:0:0:
336,192,106472,5,0,0:0:0:0:
208,136,106750,1,0,0:0:0:0:
184,112,106889,1,0,0:0:0:0:
160,88,107028,1,0,0:0:0:0:
136,64,107167,1,0,0:0:0:0:
408,96,107306,1,0,0:0:0:0:
296,256,107583,5,0,0:0:0:0:
320,232,107722,1,0,0:0:0:0:
344,208,107861,1,0,0:0:0:0:
376,176,108000,1,0,0:0:0:0:
392,128,108070,1,0,0:0:0:0:
400,104,108139,1,0,0:0:0:0:
144,200,108278,5,0,0:0:0:0:
144,264,108417,2,0,L|248:208,1,90
144,128,108695,2,0,L|48:48,1,90
392,240,108972,1,0,0:0:0:0:
376,216,109111,1,0,0:0:0:0:
360,184,109250,1,0,0:0:0:0:
344,160,109389,1,0,0:0:0:0:
144,272,109528,6,0,P|96:200|160:120,1,180
352,80,109945,1,0,0:0:0:0:
256,80,110083,1,0,0:0:0:0:
368,336,110361,1,0,0:0:0:0:
240,288,110639,2,0,L|336:256,1,90
192,208,110917,1,0,0:0:0:0:
416,192,111195,5,0,0:0:0:0:
96,192,111750,1,0,0:0:0:0:
208,208,112306,6,0,L|144:144,1,90
288,208,112583,2,0,L|192:128,1,90
368,208,112861,6,0,L|272:128,1,90
448,208,113138,2,0,L|352:128,1,90
96,128,113417,5,0,0:0:0:0:
256,192,113556,12,0,116333,0:0:0:0:
256,104,116750,5,0,0:0:0:0:
