osu file format v14

[General]
AudioFilename: O2i3 - Ooi.mp3
AudioLeadIn: 0
PreviewTime: 77792
Countdown: 0
SampleSet: None
StackLeniency: 0.2
Mode: 2
LetterboxInBreaks: 0
WidescreenStoryboard: 1

[Editor]
Bookmarks: 2306,6750,11195,15639,20083,24528,28972,33417,37861,42306,46750,51195,55639,60083,64528,68972,73417,77861,78972,82306,86750,91195,95639,97028,100083,104528,108972,113417
DistanceSpacing: 0.5
BeatDivisor: 4
GridSize: 8
TimelineZoom: 1.6

[Metadata]
Title:Ooi [Game Edit]
TitleUnicode:Ooi [Game Edit]
Artist:O2i3
ArtistUnicode:O2i3
Creator:xi-False
Version:III (Platter)
Source:
Tags:Jaxalate Records disc 2 Hardcore high bpm
BeatmapID:968031
BeatmapSetID:451239

[Difficulty]
HPDrainRate:5
CircleSize:3.5
OverallDifficulty:9
ApproachRate:8
SliderMultiplier:1.4
SliderTickRate:2

[Events]
//Background and Video events
0,0,"Ooi Hard!.jpg",0,0
//Break Periods
//Storyboard Layer 0 (Background)
//Storyboard Layer 1 (Fail)
//Storyboard Layer 2 (Pass)
//Storyboard Layer 3 (Foreground)
//Storyboard Sound Samples

[TimingPoints]
1195,277.777777777778,4,2,0,100,1,0

[Colours]
Combo1 : 210,226,7
Combo2 : 10,34,118
Combo3 : 231,24,138
Combo4 : 72,225,164
Combo5 : 205,123,63
Combo6 : 116,221,239
Combo7 : 155,32,238
Combo8 : 233,63,105

[HitObjects]
224,320,2306,6,0,P|320:288|352:256,1,140
224,224,2722,2,0,B|160:192|160:192|224:160,1,140
384,160,3278,1,0,0:0:0:0:
128,160,3695,2,0,P|224:160|256:192,2,140
320,224,4528,6,0,L|192:128,1,140
96,192,5083,2,0,L|192:192,1,70
384,128,5500,1,0,0:0:0:0:
120,240,6195,1,0,0:0:0:0:
352,256,6750,5,0,0:0:0:0:
160,256,7028,1,0,0:0:0:0:
120,200,7167,1,0,0:0:0:0:
112,136,7306,1,0,0:0:0:0:
152,80,7445,1,0,0:0:0:0:
416,96,7722,1,0,0:0:0:0:
192,256,8139,2,0,P|128:224|128:160,2,140
416,192,8972,1,0,0:0:0:0:
256,192,9111,12,0,10917,0:0:0:0:
304,344,11195,5,0,0:0:0:0:
344,312,11264,1,0,0:0:0:0:
376,272,11333,1,0,0:0:0:0:
392,224,11403,1,0,0:0:0:0:
392,176,11472,1,0,0:0:0:0:
368,128,11542,1,0,0:0:0:0:
336,96,11611,1,0,0:0:0:0:
288,80,11681,5,0,0:0:0:0:
240,80,11750,1,0,0:0:0:0:
192,96,11820,1,0,0:0:0:0:
168,136,11889,1,0,0:0:0:0:
160,184,11958,1,0,0:0:0:0:
176,232,12028,2,0,P|256:280|320:272,1,140
344,272,12375,1,0,0:0:0:0:
392,248,12445,5,0,0:0:0:0:
424,208,12514,1,0,0:0:0:0:
448,160,12583,1,0,0:0:0:0:
440,112,12653,1,0,0:0:0:0:
416,64,12722,1,0,0:0:0:0:
376,32,12792,1,0,0:0:0:0:
320,16,12861,1,0,0:0:0:0:
272,16,12931,5,0,0:0:0:0:
224,32,13000,1,0,0:0:0:0:
184,64,13070,1,0,0:0:0:0:
160,104,13139,2,0,P|216:144|280:176,1,140
312,200,13486,1,0,0:0:0:0:
336,240,13556,1,0,0:0:0:0:
344,288,13625,1,0,0:0:0:0:
328,336,13695,5,0,0:0:0:0:
288,360,13764,1,0,0:0:0:0:
240,368,13833,1,0,0:0:0:0:
192,352,13903,1,0,0:0:0:0:
152,328,13972,1,0,0:0:0:0:
120,288,14042,1,0,0:0:0:0:
104,240,14111,1,0,0:0:0:0:
96,192,14181,5,0,0:0:0:0:
104,144,14250,1,0,0:0:0:0:
136,104,14320,1,0,0:0:0:0:
184,88,14389,1,0,0:0:0:0:
240,96,14458,1,0,0:0:0:0:
280,136,14528,1,0,0:0:0:0:
296,184,14597,1,0,0:0:0:0:
296,232,14667,5,0,0:0:0:0:
280,280,14736,1,0,0:0:0:0:
248,320,14806,1,0,0:0:0:0:
208,352,14875,1,0,0:0:0:0:
160,352,14945,1,0,0:0:0:0:
112,336,15014,1,0,0:0:0:0:
72,304,15083,1,0,0:0:0:0:
352,328,15639,5,0,0:0:0:0:
400,304,15708,1,0,0:0:0:0:
440,264,15778,1,0,0:0:0:0:
456,216,15847,1,0,0:0:0:0:
448,160,15917,1,0,0:0:0:0:
424,120,15986,1,0,0:0:0:0:
376,80,16056,1,0,0:0:0:0:
320,72,16125,5,0,0:0:0:0:
272,80,16195,1,0,0:0:0:0:
232,104,16264,1,0,0:0:0:0:
208,152,16333,1,0,0:0:0:0:
208,200,16403,1,0,0:0:0:0:
232,248,16472,1,0,0:0:0:0:
112,344,16750,5,0,0:0:0:0:
64,320,16819,1,0,0:0:0:0:
24,280,16889,1,0,0:0:0:0:
8,232,16958,1,0,0:0:0:0:
16,176,17028,1,0,0:0:0:0:
40,136,17097,1,0,0:0:0:0:
88,96,17167,1,0,0:0:0:0:
144,88,17236,5,0,0:0:0:0:
192,96,17306,1,0,0:0:0:0:
232,120,17375,1,0,0:0:0:0:
256,168,17444,1,0,0:0:0:0:
256,216,17514,1,0,0:0:0:0:
232,264,17583,1,0,0:0:0:0:
352,320,17861,5,0,0:0:0:0:
392,280,17931,1,0,0:0:0:0:
400,224,18000,1,0,0:0:0:0:
360,192,18070,1,0,0:0:0:0:
240,240,18139,5,0,0:0:0:0:
200,200,18209,1,0,0:0:0:0:
192,144,18278,1,0,0:0:0:0:
232,112,18348,1,0,0:0:0:0:
328,152,18417,5,0,0:0:0:0:
376,120,18487,1,0,0:0:0:0:
384,64,18556,1,0,0:0:0:0:
352,24,18626,1,0,0:0:0:0:
304,8,18695,1,0,0:0:0:0:
240,336,18972,6,0,L|176:296,1,70
296,272,19250,2,0,L|392:248,1,70
128,160,19528,2,0,P|40:128|160:64,1,280
296,224,20361,5,0,0:0:0:0:
136,112,20639,2,0,L|224:112,1,70
352,248,21056,2,0,P|408:192|392:112,1,140
136,240,21611,2,0,L|296:240,1,140
392,160,22167,6,0,L|296:160,1,70
120,184,22583,1,0,0:0:0:0:
312,168,22861,2,0,P|344:144|368:112,1,70
160,240,23278,2,0,P|104:192|152:144,1,140
328,184,23833,2,0,P|376:144|320:104,1,140
72,184,24528,6,0,L|232:184,1,140
336,312,25083,2,0,L|256:312,1,70
432,192,25500,1,0,0:0:0:0:
200,192,25778,1,0,0:0:0:0:
400,104,26056,2,0,L|248:104,1,140
64,240,26611,6,0,L|144:240,1,70
280,232,27028,1,0,0:0:0:0:
80,128,27306,2,0,L|168:128,1,70
368,288,27722,2,0,P|416:248|376:184,1,140
152,208,28278,2,0,P|120:160|120:128,1,70
376,200,28556,2,0,P|392:152|376:120,1,70
152,184,28972,6,0,L|80:128,1,70
152,184,29250,2,0,L|207:226,1,70
152,184,29528,1,0,0:0:0:0:
296,320,29806,2,0,L|384:320,1,70
296,248,30083,2,0,L|216:248,1,70
296,176,30361,2,0,L|376:176,1,70
296,104,30639,1,0,0:0:0:0:
120,240,31195,6,0,L|192:184,1,70
120,240,31473,2,0,L|65:282,1,70
120,240,31751,1,0,0:0:0:0:
312,248,32028,2,0,L|408:248,2,70
352,168,32445,5,0,0:0:0:0:
312,168,32514,1,0,0:0:0:0:
280,168,32583,1,0,0:0:0:0:
312,88,32722,2,0,L|232:88,1,70
152,112,33000,1,0,0:0:0:0:
192,112,33069,1,0,0:0:0:0:
232,112,33138,1,0,0:0:0:0:
312,232,33417,6,0,L|376:160,1,70
152,216,33695,2,0,L|112:136,1,70
224,80,33972,1,0,0:0:0:0:
352,208,34250,2,0,L|440:208,1,70
280,208,34528,2,0,L|120:208,2,140
152,120,35361,2,0,L|312:120,1,140
256,192,36195,5,0,0:0:0:0:
360,264,36750,2,0,L|432:216,1,70
208,248,37028,2,0,L|176:176,1,70
256,160,37306,2,0,L|336:160,2,70
120,208,37861,2,0,B|64:208|64:208|104:208,1,70
216,136,38139,1,0,0:0:0:0:
392,208,38417,6,0,B|448:208|448:208|408:208,1,70
296,136,38695,1,0,0:0:0:0:
144,232,38972,2,0,L|240:232,1,70
344,240,39250,2,0,P|416:216|464:160,1,140
232,256,39806,2,0,L|176:208,1,70
232,256,40083,1,0,0:0:0:0:
400,256,40361,5,0,0:0:0:0:
216,120,40639,1,0,0:0:0:0:
296,120,40778,1,0,0:0:0:0:
376,120,40917,1,0,0:0:0:0:
296,192,41195,1,0,0:0:0:0:
240,192,41333,1,0,0:0:0:0:
184,192,41472,1,0,0:0:0:0:
264,328,41750,5,0,0:0:0:0:
240,328,41820,1,0,0:0:0:0:
336,256,41958,1,0,0:0:0:0:
312,256,42028,1,0,0:0:0:0:
232,128,42167,1,0,0:0:0:0:
288,128,42236,1,0,0:0:0:0:
344,128,42306,1,0,0:0:0:0:
400,184,42445,6,0,L|488:160,3,70
208,288,43417,2,0,L|152:232,1,70
256,192,43695,1,0,0:0:0:0:
352,240,43833,2,0,L|303:290,1,70
160,144,44250,1,0,0:0:0:0:
256,144,44528,5,0,0:0:0:0:
376,56,44667,1,0,0:0:0:0:
408,96,44736,1,0,0:0:0:0:
376,144,44806,1,0,0:0:0:0:
256,56,44945,5,0,0:0:0:0:
136,56,45083,1,0,0:0:0:0:
104,96,45152,1,0,0:0:0:0:
136,144,45222,1,0,0:0:0:0:
256,144,45361,1,0,0:0:0:0:
376,144,45500,1,0,0:0:0:0:
320,352,45639,6,0,P|280:336|240:312,1,70
136,280,45917,2,0,P|112:240|96:208,1,70
336,264,46195,2,0,L|392:208,1,70
256,192,46472,1,0,0:0:0:0:
408,216,46750,2,0,P|376:168|288:120,1,140
136,184,47306,2,0,P|80:160|40:88,1,140
216,168,47861,6,0,L|288:136,2,70
352,168,48417,2,0,L|280:136,2,70
216,200,48972,1,0,0:0:0:0:
50,158,49250,2,0,L|112:192,2,70
256,192,49806,1,0,0:0:0:0:
112,224,50083,6,0,L|64:232,1,35
88,192,50222,2,0,L|32:192,1,35
104,144,50361,1,0,0:0:0:0:
264,184,50639,6,0,L|112:184,2,140
456,200,51333,2,0,L|528:160,1,70
456,200,51611,2,0,L|384:240,1,70
256,192,52028,5,0,0:0:0:0:
56,200,52306,2,0,L|-16:160,1,70
56,200,52584,2,0,L|128:240,1,70
320,128,52861,1,0,0:0:0:0:
104,112,53139,1,0,0:0:0:0:
256,192,53417,12,0,55361,0:0:0:0:
328,280,55639,6,0,L|384:200,1,70
312,192,55917,1,0,0:0:0:0:
168,232,56056,1,0,0:0:0:0:
312,112,56333,6,0,L|224:112,1,70
336,336,56750,5,0,0:0:0:0:
408,264,56889,1,0,0:0:0:0:
432,240,56958,1,0,0:0:0:0:
408,200,57028,1,0,0:0:0:0:
320,128,57167,5,0,0:0:0:0:
224,88,57306,1,0,0:0:0:0:
200,64,57375,1,0,0:0:0:0:
224,24,57445,1,0,0:0:0:0:
448,80,57583,1,0,0:0:0:0:
288,256,57861,6,0,L|224:208,1,70
88,184,58139,2,0,L|48:104,1,70
224,208,58417,2,0,L|288:128,1,70
40,272,58695,1,0,0:0:0:0:
256,192,58972,5,0,0:0:0:0:
136,112,59250,1,0,0:0:0:0:
184,112,59389,1,0,0:0:0:0:
232,112,59528,1,0,0:0:0:0:
64,192,59806,1,0,0:0:0:0:
264,272,60083,6,0,L|352:272,2,70
64,264,60500,1,0,0:0:0:0:
256,192,60917,1,0,0:0:0:0:
384,336,61195,6,0,L|392:248,1,70
272,288,61472,2,0,L|264:200,1,70
400,184,61750,6,0,L|408:96,1,70
264,112,62028,2,0,L|256:24,1,70
152,136,62306,6,0,L|144:48,1,70
264,312,62583,2,0,L|272:224,1,70
144,304,62861,6,0,L|136:216,1,70
32,280,63139,2,0,L|24:192,1,70
240,336,63417,5,0,0:0:0:0:
296,312,63556,1,0,0:0:0:0:
336,256,63695,1,0,0:0:0:0:
344,192,63833,1,0,0:0:0:0:
304,152,63972,1,0,0:0:0:0:
136,64,64528,1,0,0:0:0:0:
280,56,64667,5,0,0:0:0:0:
288,64,64945,1,0,0:0:0:0:
296,72,65222,1,0,0:0:0:0:
304,80,65500,1,0,0:0:0:0:
312,88,65778,1,0,0:0:0:0:
320,96,66056,1,0,0:0:0:0:
328,104,66333,5,0,0:0:0:0:
208,112,66472,1,0,0:0:0:0:
120,184,66750,5,0,0:0:0:0:
128,192,66889,1,0,0:0:0:0:
136,200,67167,1,0,0:0:0:0:
144,208,67445,1,0,0:0:0:0:
152,216,67722,1,0,0:0:0:0:
160,224,68000,1,0,0:0:0:0:
344,248,68278,6,0,L|408:176,1,70
112,160,68556,2,0,L|80:88,1,70
224,264,68972,6,0,L|296:216,3,70
408,248,69528,6,0,L|312:248,3,70
256,352,70083,5,0,0:0:0:0:
208,336,70153,1,0,0:0:0:0:
168,304,70222,1,0,0:0:0:0:
136,256,70292,1,0,0:0:0:0:
120,200,70361,1,0,0:0:0:0:
128,136,70431,1,0,0:0:0:0:
168,88,70500,1,0,0:0:0:0:
232,72,70570,5,0,0:0:0:0:
296,80,70639,1,0,0:0:0:0:
352,112,70709,1,0,0:0:0:0:
384,176,70778,1,0,0:0:0:0:
384,240,70848,1,0,0:0:0:0:
352,296,70917,1,0,0:0:0:0:
296,336,70987,1,0,0:0:0:0:
224,344,71056,5,0,0:0:0:0:
160,320,71125,1,0,0:0:0:0:
112,272,71195,1,0,0:0:0:0:
104,208,71264,1,0,0:0:0:0:
104,144,71333,1,0,0:0:0:0:
112,88,71403,1,0,0:0:0:0:
176,96,71472,1,0,0:0:0:0:
296,272,71750,5,0,0:0:0:0:
320,304,71820,1,0,0:0:0:0:
296,336,71889,1,0,0:0:0:0:
128,184,72028,2,0,L|72:104,1,70
368,312,72306,2,0,P|448:272|480:208,2,140
200,256,73139,2,0,P|136:208|120:128,1,140
256,192,73556,12,0,77514,0:0:0:0:
312,200,77861,6,0,L|400:200,2,70
128,152,78417,2,0,L|40:152,2,70
288,184,78972,2,0,L|360:136,1,70
200,328,79389,2,0,L|40:328,1,140
264,248,79945,1,0,0:0:0:0:
416,248,80083,2,0,L|256:248,1,140
128,144,80639,6,0,L|208:144,1,70
480,200,81056,2,0,L|328:200,1,140
160,216,81611,2,0,L|320:216,1,140
120,144,82306,1,0,0:0:0:0:
392,144,82583,1,0,0:0:0:0:
176,224,82861,6,0,L|256:224,1,70
208,288,83278,2,0,L|368:240,3,140
192,144,84389,2,0,L|280:144,1,70
80,184,84806,1,0,0:0:0:0:
240,248,85083,2,0,L|160:248,1,70
96,248,85500,6,0,P|48:216|48:136,2,140
176,256,86195,1,0,0:0:0:0:
256,256,86333,1,0,0:0:0:0:
336,256,86472,1,0,0:0:0:0:
104,160,86750,6,0,L|256:184,2,140
192,160,87445,1,0,0:0:0:0:
352,160,87722,2,0,P|392:168|480:232,1,140
464,280,88139,1,0,0:0:0:0:
384,280,88278,1,0,0:0:0:0:
256,280,88556,1,0,0:0:0:0:
448,176,88833,6,0,L|376:176,1,70
256,176,89250,1,0,0:0:0:0:
64,176,89528,2,0,L|136:176,1,70
288,288,89945,2,0,L|440:224,3,140
248,304,91195,6,0,L|96:304,1,140
288,240,91750,2,0,L|216:240,1,70
376,184,92167,2,0,L|224:184,3,140
88,88,93278,6,0,L|184:88,1,70
320,208,93695,2,0,P|424:192|456:168,1,140
376,160,94111,1,0,0:0:0:0:
288,160,94250,1,0,0:0:0:0:
200,160,94389,1,0,0:0:0:0:
136,160,94528,5,0,0:0:0:0:
96,200,94597,1,0,0:0:0:0:
96,264,94667,1,0,0:0:0:0:
128,320,94736,1,0,0:0:0:0:
184,352,94806,1,0,0:0:0:0:
248,352,94875,1,0,0:0:0:0:
296,312,94945,1,0,0:0:0:0:
328,256,95014,5,0,0:0:0:0:
320,192,95083,2,0,L|240:144,2,70
432,352,95639,5,0,0:0:0:0:
464,320,95708,1,0,0:0:0:0:
480,288,95778,1,0,0:0:0:0:
488,240,95847,1,0,0:0:0:0:
472,192,95917,1,0,0:0:0:0:
440,160,95986,1,0,0:0:0:0:
400,144,96056,1,0,0:0:0:0:
352,152,96125,5,0,0:0:0:0:
312,176,96195,1,0,0:0:0:0:
288,216,96264,1,0,0:0:0:0:
280,264,96333,1,0,0:0:0:0:
304,304,96403,1,0,0:0:0:0:
336,336,96472,1,0,0:0:0:0:
200,344,96958,5,0,0:0:0:0:
152,328,97028,1,0,0:0:0:0:
120,288,97097,1,0,0:0:0:0:
104,248,97167,1,0,0:0:0:0:
112,200,97236,5,0,0:0:0:0:
136,168,97306,1,0,0:0:0:0:
176,152,97375,1,0,0:0:0:0:
224,160,97445,1,0,0:0:0:0:
256,192,97514,1,0,0:0:0:0:
256,232,97583,1,0,0:0:0:0:
136,192,97861,6,0,L|0:128,1,140
256,64,98417,1,0,0:0:0:0:
168,64,98556,1,0,0:0:0:0:
336,192,98972,2,0,L|472:136,1,140
176,192,99528,2,0,L|40:136,1,140
256,336,100083,5,0,0:0:0:0:
296,320,100153,1,0,0:0:0:0:
336,296,100222,1,0,0:0:0:0:
360,256,100292,5,0,0:0:0:0:
360,208,100361,1,0,0:0:0:0:
328,184,100431,1,0,0:0:0:0:
288,176,100500,1,0,0:0:0:0:
240,168,100570,1,0,0:0:0:0:
208,136,100639,1,0,0:0:0:0:
200,88,100708,5,0,0:0:0:0:
216,48,100778,1,0,0:0:0:0:
256,32,100847,1,0,0:0:0:0:
296,32,100917,1,0,0:0:0:0:
336,48,100986,1,0,0:0:0:0:
360,88,101056,1,0,0:0:0:0:
352,136,101125,1,0,0:0:0:0:
176,320,101403,5,0,0:0:0:0:
128,320,101472,1,0,0:0:0:0:
80,296,101542,1,0,0:0:0:0:
48,256,101611,1,0,0:0:0:0:
32,208,101681,1,0,0:0:0:0:
40,152,101750,1,0,0:0:0:0:
72,104,101820,1,0,0:0:0:0:
112,80,101889,5,0,0:0:0:0:
160,80,101958,1,0,0:0:0:0:
208,88,102028,1,0,0:0:0:0:
248,128,102097,1,0,0:0:0:0:
256,176,102167,1,0,0:0:0:0:
240,216,102236,1,0,0:0:0:0:
208,248,102306,1,0,0:0:0:0:
256,248,102445,6,0,L|344:248,1,70
264,176,102722,2,0,L|168:176,1,70
304,112,103000,2,0,L|384:112,1,70
224,112,103278,2,0,L|154:112,1,70
360,192,103556,2,0,L|440:192,2,70
224,288,103972,5,0,0:0:0:0:
152,288,104111,1,0,0:0:0:0:
216,224,104250,5,0,0:0:0:0:
144,224,104389,1,0,0:0:0:0:
280,232,104528,2,0,L|360:200,1,70
112,152,104806,6,0,L|64:88,1,70
192,80,105083,1,0,0:0:0:0:
328,273,105361,2,0,L|400:217,1,70
208,249,105639,2,0,L|128:217,1,70
376,169,105917,6,0,L|424:105,1,70
296,97,106194,1,0,0:0:0:0:
192,176,106472,1,0,0:0:0:0:
352,200,106750,2,0,L|432:168,1,70
184,120,107028,6,0,L|136:56,1,70
264,48,107305,1,0,0:0:0:0:
200,280,107583,2,0,L|112:280,2,70
272,280,108000,1,0,0:0:0:0:
328,280,108070,1,0,0:0:0:0:
384,280,108139,1,0,0:0:0:0:
328,208,108278,2,0,L|256:208,1,70
400,208,108556,6,0,L|472:208,1,70
400,136,108833,1,0,0:0:0:0:
184,248,108972,2,0,L|96:208,1,70
344,184,109250,2,0,L|408:112,1,70
264,104,109528,1,0,0:0:0:0:
152,192,109806,5,0,0:0:0:0:
216,192,109945,1,0,0:0:0:0:
280,192,110083,1,0,0:0:0:0:
216,264,110361,1,0,0:0:0:0:
344,336,110639,1,0,0:0:0:0:
280,336,110778,1,0,0:0:0:0:
216,336,110916,1,0,0:0:0:0:
336,224,111195,5,0,0:0:0:0:
336,224,111750,1,0,0:0:0:0:
208,232,112306,2,0,L|232:152,1,70
176,232,112583,2,0,L|192:160,1,70
136,232,112861,6,0,L|152:144,1,70
160,304,113139,2,0,L|80:304,1,70
360,224,113417,5,0,0:0:0:0:
256,192,113556,12,0,116333,0:0:0:0:
256,224,116750,5,0,0:0:0:0:
