osu file format v14

[General]
AudioFilename: O2i3 - Ooi.mp3
AudioLeadIn: 0
PreviewTime: 77792
Countdown: 0
SampleSet: Soft
StackLeniency: 0.2
Mode: 2
LetterboxInBreaks: 0
WidescreenStoryboard: 1

[Editor]
Bookmarks: 2306,6750,11195,15639,20083,24528,28972,33417,37861,42306,46750,51195,55639,60083,64528,68972,73417,77861,78972,82306,86750,91195,95639,97028,100083,104528,108972,113417
DistanceSpacing: 0.5
BeatDivisor: 4
GridSize: 16
TimelineZoom: 2

[Metadata]
Title:Ooi [Game Edit]
TitleUnicode:Ooi [Game Edit]
Artist:O2i3
ArtistUnicode:O2i3
Creator:xi-False
Version:II (Salad)
Source:
Tags:Jaxalate Records disc 2 Hardcore high bpm
BeatmapID:968030
BeatmapSetID:451239

[Difficulty]
HPDrainRate:5
CircleSize:3.5
OverallDifficulty:8
ApproachRate:8
SliderMultiplier:1.5
SliderTickRate:1

[Events]
//Background and Video events
0,0,"Ooi Hard!.jpg",0,0
//Break Periods
//Storyboard Layer 0 (Background)
//Storyboard Layer 1 (Fail)
//Storyboard Layer 2 (Pass)
//Storyboard Layer 3 (Foreground)
//Storyboard Sound Samples

[TimingPoints]
1195,277.777777777778,4,2,0,100,1,0

[Colours]
Combo1 : 210,226,7
Combo2 : 10,34,118
Combo3 : 231,24,138
Combo4 : 72,225,164
Combo5 : 205,123,63
Combo6 : 116,221,239
Combo7 : 155,32,238
Combo8 : 233,63,105

[HitObjects]
224,352,2306,6,0,B|160:288|160:288|216:240,1,150
336,224,2722,2,0,P|368:128|352:80,1,150
176,192,3278,1,0,0:0:0:0:
320,304,3695,2,0,L|416:176,2,150
112,288,4528,2,0,P|64:208|80:160,1,150
256,192,5083,1,0,0:0:0:0:
448,184,5222,2,0,P|496:264|512:328,1,150
128,176,6195,5,0,0:0:0:0:
352,128,6750,2,0,P|400:208|400:288,1,150
368,336,7167,1,0,0:0:0:0:
320,368,7306,1,0,0:0:0:0:
272,368,7445,1,0,0:0:0:0:
24,192,7722,5,0,0:0:0:0:
312,272,8139,2,0,L|408:144,2,150
112,192,8972,1,0,0:0:0:0:
256,192,9111,12,0,10917,0:0:0:0:
320,272,11195,5,0,0:0:0:0:
384,272,11333,1,0,0:0:0:0:
384,208,11472,1,0,0:0:0:0:
320,208,11611,1,0,0:0:0:0:
192,208,11750,2,0,P|112:208|32:160,1,150
256,352,12306,5,0,0:0:0:0:
320,352,12444,1,0,0:0:0:0:
320,288,12583,1,0,0:0:0:0:
256,288,12722,1,0,0:0:0:0:
128,352,12861,2,0,P|48:272|48:208,1,150
288,256,13417,5,0,0:0:0:0:
232,256,13556,1,0,0:0:0:0:
176,224,13695,1,0,0:0:0:0:
232,192,13833,1,0,0:0:0:0:
352,192,13972,2,0,P|432:144|464:80,1,150
320,112,14528,5,0,0:0:0:0:
256,112,14667,1,0,0:0:0:0:
192,144,14806,1,0,0:0:0:0:
256,176,14944,1,0,0:0:0:0:
432,176,15083,1,0,0:0:0:0:
272,320,15639,5,0,0:0:0:0:
336,320,15778,1,0,0:0:0:0:
400,320,15917,1,0,0:0:0:0:
416,272,16056,1,0,0:0:0:0:
320,208,16195,1,0,0:0:0:0:
144,208,16472,5,0,0:0:0:0:
272,304,16750,1,0,0:0:0:0:
208,304,16889,1,0,0:0:0:0:
144,304,17028,1,0,0:0:0:0:
128,256,17167,1,0,0:0:0:0:
224,160,17306,1,0,0:0:0:0:
64,128,17583,5,0,0:0:0:0:
240,304,17861,5,0,0:0:0:0:
304,304,18000,1,0,0:0:0:0:
352,272,18139,1,0,0:0:0:0:
304,240,18277,1,0,0:0:0:0:
176,160,18417,2,0,L|352:160,1,150
208,288,18972,5,0,0:0:0:0:
144,288,19111,1,0,0:0:0:0:
96,256,19250,1,0,0:0:0:0:
144,224,19388,1,0,0:0:0:0:
288,352,19528,2,0,L|112:352,1,150
304,176,20083,6,0,P|400:160|432:96,1,150
224,256,20639,2,0,L|128:256,1,75
320,176,21056,2,0,L|416:48,1,150
320,304,21611,2,0,L|176:224,1,150
416,200,22167,6,0,L|512:200,1,75
304,192,22583,1,0,0:0:0:0:
192,192,22861,2,0,L|224:112,1,75
416,320,23278,2,0,P|448:208|432:160,1,150
192,240,23833,2,0,P|176:176|224:80,1,150
432,256,24528,2,0,P|464:160|448:80,1,150
272,240,25083,5,0,0:0:0:0:
224,240,25222,1,0,0:0:0:0:
64,240,25500,2,0,P|32:144|64:96,1,150
320,144,26056,2,0,L|480:144,1,150
352,352,26611,2,0,L|256:352,1,75
64,224,27028,2,0,P|96:96|128:96,1,150
256,80,27445,1,0,0:0:0:0:
400,96,27722,6,0,L|512:208,2,150
160,208,28695,1,0,0:0:0:0:
352,336,28972,1,0,0:0:0:0:
416,320,29111,1,0,0:0:0:0:
480,272,29250,1,0,0:0:0:0:
480,208,29389,1,0,0:0:0:0:
368,208,29528,1,0,0:0:0:0:
176,192,29806,5,0,0:0:0:0:
112,176,29945,1,0,0:0:0:0:
48,128,30084,1,0,0:0:0:0:
48,48,30223,1,0,0:0:0:0:
160,32,30361,2,0,P|256:32|304:96,1,150
192,144,31195,5,0,0:0:0:0:
128,144,31333,1,0,0:0:0:0:
64,144,31472,1,0,0:0:0:0:
0,144,31611,1,0,0:0:0:0:
80,64,31750,1,0,0:0:0:0:
264,104,32028,5,0,0:0:0:0:
248,168,32167,1,0,0:0:0:0:
208,224,32306,1,0,0:0:0:0:
144,256,32445,1,0,0:0:0:0:
80,264,32583,1,0,0:0:0:0:
208,240,32861,6,0,P|240:144|224:80,1,150
144,336,33417,1,0,0:0:0:0:
88,288,33556,1,0,0:0:0:0:
72,216,33695,1,0,0:0:0:0:
104,152,33833,1,0,0:0:0:0:
168,112,33972,1,0,0:0:0:0:
424,200,34250,5,0,0:0:0:0:
472,168,34389,1,0,0:0:0:0:
424,136,34528,1,0,0:0:0:0:
192,208,34806,1,0,0:0:0:0:
400,352,35083,1,0,0:0:0:0:
448,320,35222,1,0,0:0:0:0:
400,288,35361,1,0,0:0:0:0:
208,352,35639,6,0,P|128:320|48:128,1,300
256,192,36750,5,0,0:0:0:0:
256,160,36889,1,0,0:0:0:0:
360,192,37028,1,0,0:0:0:0:
360,160,37167,1,0,0:0:0:0:
288,80,37306,1,0,0:0:0:0:
288,32,37445,1,0,0:0:0:0:
480,120,37583,6,0,P|424:232|368:276,1,150
256,288,38139,1,0,0:0:0:0:
128,288,38417,1,0,0:0:0:0:
64,288,38556,1,0,0:0:0:0:
128,224,38695,1,0,0:0:0:0:
368,176,38972,1,0,0:0:0:0:
432,176,39111,1,0,0:0:0:0:
368,96,39250,1,0,0:0:0:0:
256,272,39528,5,0,0:0:0:0:
160,224,39806,1,0,0:0:0:0:
208,224,39945,1,0,0:0:0:0:
112,272,40083,2,0,P|40:184|40:120,1,150
208,288,40639,1,0,0:0:0:0:
256,288,40778,1,0,0:0:0:0:
208,232,40917,1,0,0:0:0:0:
448,160,41195,2,0,L|288:160,1,150
256,368,41750,2,0,L|192:240,1,100
368,352,42120,2,0,P|416:272|400:240,1,100
384,208,42445,1,0,0:0:0:0:
328,168,42583,1,0,0:0:0:0:
256,176,42722,1,0,0:0:0:0:
216,240,42861,1,0,0:0:0:0:
336,80,43139,1,0,0:0:0:0:
120,320,43417,1,0,0:0:0:0:
56,304,43556,1,0,0:0:0:0:
16,248,43695,1,0,0:0:0:0:
24,176,43833,1,0,0:0:0:0:
80,136,43972,1,0,0:0:0:0:
384,304,44250,2,0,P|424:232|400:136,1,150
368,128,44667,1,0,0:0:0:0:
336,112,44736,1,0,0:0:0:0:
312,104,44806,1,0,0:0:0:0:
128,232,45083,2,0,L|296:232,1,150
256,352,45639,1,0,0:0:0:0:
256,320,45778,1,0,0:0:0:0:
160,304,45917,1,0,0:0:0:0:
160,272,46056,1,0,0:0:0:0:
272,240,46195,1,0,0:0:0:0:
272,208,46333,1,0,0:0:0:0:
368,224,46472,2,0,P|432:160|416:96,1,150
240,336,47028,2,0,P|160:288|96:224,1,150
256,192,47583,1,0,0:0:0:0:
288,352,47861,1,0,0:0:0:0:
256,336,48000,1,0,0:0:0:0:
224,304,48139,1,0,0:0:0:0:
368,288,48417,1,0,0:0:0:0:
400,256,48556,1,0,0:0:0:0:
368,224,48695,1,0,0:0:0:0:
176,184,48972,5,0,0:0:0:0:
400,128,49250,1,0,0:0:0:0:
432,96,49389,1,0,0:0:0:0:
400,64,49528,1,0,0:0:0:0:
240,336,49806,2,0,P|176:256|192:192,1,150
304,224,50361,2,0,P|271:158|295:88,1,150
400,304,50824,1,0,0:0:0:0:
336,304,51009,1,0,0:0:0:0:
440,248,51195,1,0,0:0:0:0:
496,200,51333,1,0,0:0:0:0:
504,128,51472,1,0,0:0:0:0:
456,72,51611,1,0,0:0:0:0:
392,56,51750,1,0,0:0:0:0:
288,352,52028,5,0,0:0:0:0:
64,216,52306,1,0,0:0:0:0:
8,168,52444,1,0,0:0:0:0:
0,96,52583,1,0,0:0:0:0:
48,40,52722,1,0,0:0:0:0:
112,24,52861,1,0,0:0:0:0:
392,168,53139,5,0,0:0:0:0:
256,192,53417,12,0,55361,0:0:0:0:
352,296,55639,5,0,0:0:0:0:
376,256,55778,1,0,0:0:0:0:
352,224,55917,1,0,0:0:0:0:
224,288,56056,2,0,P|192:184|200:136,1,150
320,96,56472,1,0,0:0:0:0:
288,168,56750,1,0,0:0:0:0:
328,168,56889,1,0,0:0:0:0:
368,168,57028,1,0,0:0:0:0:
152,256,57306,1,0,0:0:0:0:
232,256,57445,1,0,0:0:0:0:
312,256,57583,1,0,0:0:0:0:
176,352,57861,1,0,0:0:0:0:
112,336,58000,1,0,0:0:0:0:
64,288,58139,1,0,0:0:0:0:
48,224,58278,1,0,0:0:0:0:
176,192,58417,2,0,L|344:192,2,150
48,192,59250,1,0,0:0:0:0:
16,160,59389,1,0,0:0:0:0:
48,128,59528,2,0,P|128:128|160:192,1,150
416,336,60083,1,0,0:0:0:0:
480,336,60222,1,0,0:0:0:0:
480,256,60361,1,0,0:0:0:0:
416,256,60500,2,0,P|352:200|400:80,1,225
144,328,61195,1,0,0:0:0:0:
80,328,61333,1,0,0:0:0:0:
16,280,61472,1,0,0:0:0:0:
0,216,61611,1,0,0:0:0:0:
24,144,61750,1,0,0:0:0:0:
88,120,61889,1,0,0:0:0:0:
152,128,62028,1,0,0:0:0:0:
224,128,62167,1,0,0:0:0:0:
304,320,62306,5,2,0:0:0:0:
384,320,62445,1,0,0:0:0:0:
416,264,62583,1,0,0:0:0:0:
432,200,62722,1,0,0:0:0:0:
424,136,62861,1,0,0:0:0:0:
392,72,63000,1,0,0:0:0:0:
344,32,63139,1,0,0:0:0:0:
288,16,63278,1,0,0:0:0:0:
192,352,63417,5,0,0:3:0:0:
128,352,63556,1,0,0:3:0:0:
128,288,63695,1,0,0:3:0:0:
192,288,63833,1,0,0:3:0:0:
320,288,63972,5,0,0:0:0:0:
432,208,64528,5,0,0:0:0:0:
448,192,64667,1,0,0:0:0:0:
176,336,64945,2,0,L|64:224,2,150
160,304,65778,2,0,P|192:224|176:144,1,150
80,224,66333,1,0,0:0:0:0:
48,176,66472,2,0,P|16:112|96:64,1,150
192,64,66889,2,0,L|360:64,2,150
112,352,67722,1,0,0:0:0:0:
64,320,67861,1,0,0:0:0:0:
32,256,68000,1,0,0:0:0:0:
32,192,68139,1,0,0:0:0:0:
192,192,68417,1,0,0:0:0:0:
256,192,68556,1,0,0:0:0:0:
320,192,68695,1,0,0:0:0:0:
208,352,68972,1,0,0:0:0:0:
176,304,69111,1,0,0:0:0:0:
208,272,69250,1,0,0:0:0:0:
336,208,69389,5,0,0:0:0:0:
400,208,69528,1,0,0:0:0:0:
464,208,69667,1,0,0:0:0:0:
464,144,69806,1,0,0:0:0:0:
400,144,69945,1,0,0:0:0:0:
272,144,70083,5,0,0:0:0:0:
208,144,70222,1,0,0:0:0:0:
208,80,70361,1,0,0:0:0:0:
272,80,70500,1,0,0:0:0:0:
352,352,70639,5,0,0:0:0:0:
416,352,70778,1,0,0:0:0:0:
416,288,70917,1,0,0:0:0:0:
352,288,71056,1,0,0:0:0:0:
208,240,71195,2,0,P|176:176|176:96,1,150
336,176,71750,1,0,0:0:0:0:
384,176,71889,1,0,0:0:0:0:
336,176,72028,1,0,0:0:0:0:
208,240,72306,2,0,P|168:184|160:80,1,150
336,176,72861,1,0,0:0:0:0:
288,176,73000,1,0,0:0:0:0:
240,176,73139,1,0,0:0:0:0:
432,176,73417,1,0,0:0:0:0:
256,192,73556,12,0,77514,0:0:0:0:
160,320,77861,5,0,0:0:0:0:
160,272,78000,1,0,0:0:0:0:
240,272,78139,1,0,0:0:0:0:
336,240,78417,1,0,0:0:0:0:
336,176,78556,1,0,0:0:0:0:
256,176,78695,1,0,0:0:0:0:
304,288,78972,1,0,0:0:0:0:
368,288,79111,1,0,0:0:0:0:
160,288,79389,2,0,L|32:192,2,150
272,128,80083,2,0,P|336:176|288:240,1,150
96,224,80639,1,0,0:0:0:0:
64,160,80778,1,0,0:0:0:0:
288,192,81056,2,0,P|352:176|368:80,2,150
192,192,81889,1,0,0:0:0:0:
80,224,82306,2,0,P|32:160|64:80,1,150
336,192,82861,2,0,L|400:112,1,75
176,224,83278,2,0,L|16:176,2,150
352,288,84111,1,0,0:0:0:0:
128,192,84389,2,0,L|80:112,1,75
272,192,84806,1,0,0:0:0:0:
400,192,85083,2,0,L|448:112,1,75
208,256,85500,2,0,P|144:192|144:128,2,150
352,208,86195,1,0,0:0:0:0:
384,176,86333,1,0,0:0:0:0:
352,128,86472,1,0,0:0:0:0:
192,192,86750,2,0,P|144:160|112:48,1,150
368,272,87306,2,0,L|384:176,1,75
256,336,87722,2,0,L|96:272,1,150
208,192,88278,2,0,L|64:128,1,150
336,240,88833,1,0,0:0:0:0:
400,224,88972,2,0,P|464:192|432:112,1,150
320,336,89528,2,0,L|288:240,1,75
176,288,89945,2,0,L|352:256,1,150
240,192,90500,2,0,L|400:160,1,150
128,352,91195,2,0,P|64:272|48:208,1,150
256,192,91750,2,0,L|336:192,1,75
192,320,92167,2,0,P|112:256|96:192,2,150
464,224,93000,1,0,0:0:0:0:
304,264,93278,2,0,L|208:264,1,75
464,304,93695,1,0,0:0:0:0:
192,144,93972,2,0,L|96:144,1,75
224,144,94389,2,0,L|304:144,1,75
400,224,95083,1,0,0:0:0:0:
464,224,95222,1,0,0:0:0:0:
400,160,95361,1,0,0:0:0:0:
144,352,95639,1,0,0:0:0:0:
88,320,95778,1,0,0:0:0:0:
64,256,95917,1,0,0:0:0:0:
112,208,96056,1,0,0:0:0:0:
272,208,96195,5,0,0:0:0:0:
336,208,96333,1,0,0:0:0:0:
272,144,96472,1,0,0:0:0:0:
176,48,96889,5,0,0:0:0:0:
152,112,97028,1,0,0:0:0:0:
160,184,97167,1,0,0:0:0:0:
200,240,97306,1,0,0:0:0:0:
264,272,97445,1,0,0:0:0:0:
336,280,97583,1,0,0:0:0:0:
192,320,97722,2,0,P|160:272|160:232,1,75
272,224,98139,2,0,P|336:200|352:104,1,150
224,112,98556,1,0,0:0:0:0:
400,320,98972,1,0,0:0:0:0:
192,320,99250,1,0,0:0:0:0:
304,256,99528,1,0,0:0:0:0:
96,256,99806,1,0,0:0:0:0:
208,320,100083,1,0,0:0:0:0:
144,288,100222,1,0,0:0:0:0:
112,224,100361,1,0,0:0:0:0:
152,168,100500,1,0,0:0:0:0:
288,160,100639,5,0,0:0:0:0:
344,136,100778,1,0,0:0:0:0:
384,192,100917,1,0,0:0:0:0:
352,256,101056,1,0,0:0:0:0:
208,224,101195,5,0,0:0:0:0:
352,320,101472,1,0,0:0:0:0:
416,280,101611,1,0,0:0:0:0:
448,216,101750,1,0,0:0:0:0:
440,144,101889,1,0,0:0:0:0:
376,96,102028,1,0,0:0:0:0:
256,128,102306,5,0,0:0:0:0:
200,160,102445,1,0,0:0:0:0:
168,224,102583,1,0,0:0:0:0:
184,296,102722,1,0,0:0:0:0:
240,336,102861,1,0,0:0:0:0:
368,336,103000,5,0,0:0:0:0:
432,312,103139,1,0,0:0:0:0:
464,256,103277,1,0,0:0:0:0:
472,192,103416,1,0,0:0:0:0:
456,128,103555,1,0,0:0:0:0:
416,72,103695,1,0,0:0:0:0:
360,48,103833,1,0,0:0:0:0:
256,304,103972,5,0,0:0:0:0:
192,304,104111,1,0,0:0:0:0:
240,240,104250,1,0,0:0:0:0:
176,240,104389,1,0,0:0:0:0:
320,256,104528,5,0,0:0:0:0:
384,256,104667,1,0,0:0:0:0:
448,256,104806,1,0,0:0:0:0:
448,192,104945,1,0,0:0:0:0:
256,192,105083,1,0,0:0:0:0:
144,320,105361,1,0,0:0:0:0:
80,288,105500,1,0,0:0:0:0:
48,224,105639,1,0,0:0:0:0:
48,160,105778,1,0,0:0:0:0:
80,96,105917,1,0,0:0:0:0:
144,64,106056,1,0,0:0:0:0:
256,176,106195,1,0,0:0:0:0:
144,176,106472,1,0,0:0:0:0:
352,208,106750,5,0,0:0:0:0:
416,208,106889,1,0,0:0:0:0:
416,144,107028,1,0,0:0:0:0:
336,144,107167,1,0,0:0:0:0:
224,160,107305,1,0,0:0:0:0:
96,336,107583,1,0,0:0:0:0:
48,304,107722,1,0,0:0:0:0:
16,240,107861,1,0,0:0:0:0:
0,176,108000,1,0,0:0:0:0:
16,112,108139,1,0,0:0:0:0:
64,64,108278,1,0,0:0:0:0:
256,304,108417,5,0,0:0:0:0:
320,304,108556,1,0,0:0:0:0:
272,240,108695,1,0,0:0:0:0:
336,240,108834,1,0,0:0:0:0:
224,352,108972,5,0,0:0:0:0:
160,328,109111,1,0,0:0:0:0:
128,264,109250,1,0,0:0:0:0:
128,200,109389,1,0,0:0:0:0:
256,192,109528,2,0,B|256:96|256:96|192:96,1,150
128,200,109945,5,0,0:0:0:0:
112,160,110083,2,0,L|272:160,1,150
432,128,110639,1,0,0:0:0:0:
464,144,110778,1,0,0:0:0:0:
432,176,110917,2,0,P|400:272|352:320,1,150
96,208,111750,1,0,0:0:0:0:
160,256,112306,1,0,0:0:0:0:
224,256,112445,1,0,0:0:0:0:
192,192,112583,1,0,0:0:0:0:
256,192,112722,1,0,0:0:0:0:
384,192,112861,1,0,0:0:0:0:
416,160,113000,1,0,0:0:0:0:
384,128,113139,1,0,0:0:0:0:
112,352,113417,1,0,0:0:0:0:
256,192,113556,12,0,116333,0:0:0:0:
256,104,116750,5,0,0:0:0:0:
