osu file format v14

[General]
AudioFilename: tAaQIcLchxFU.128.mp3
AudioLeadIn: 0
PreviewTime: 20027
Countdown: 1
SampleSet: Normal
StackLeniency: 0.7
Mode: 3
LetterboxInBreaks: 1
SpecialStyle: 0
WidescreenStoryboard: 0

[Editor]
DistanceSpacing: 0.8
BeatDivisor: 4
GridSize: 8
TimelineZoom: 1.4

[Metadata]
Title:Ooi [Game Edit]
TitleUnicode:Ooi [Game Edit]
Artist:O2i3
ArtistUnicode:O2i3
Creator:LeiN-
Version:MX
Source:
Tags:Jaxalate Records
BeatmapID:727829
BeatmapSetID:328084

[Difficulty]
HPDrainRate:8
CircleSize:4
OverallDifficulty:7
ApproachRate:5
SliderMultiplier:1.4
SliderTickRate:1

[Events]
//Background and Video events
0,0,"bg.png",0,0
//Break Periods
//Storyboard Layer 0 (Background)
//Storyboard Layer 1 (Fail)
//Storyboard Layer 2 (Pass)
//Storyboard Layer 3 (Foreground)
//Storyboard Sound Samples

[TimingPoints]
2250,277.777777777778,4,1,0,0,1,0
20027,-100,4,1,0,0,0,1
35583,-100,4,1,0,0,0,0
53777,-105.263157894737,4,1,0,0,0,0
53916,-111.111111111111,4,1,0,0,0,0
54055,-117.647058823529,4,1,0,0,0,0
54194,-125,4,1,0,0,0,0
64472,-111.111111111111,4,1,0,0,0,0
65583,-108.108108108108,4,1,0,0,0,0
66694,-105.263157894737,4,1,0,0,0,0
67805,-102.040816326531,4,1,0,0,0,0
68916,-100,4,1,0,0,0,0
71138,-125,4,1,0,0,0,0
77388,-117.647058823529,4,1,0,0,0,0
77527,-105.263157894737,4,1,0,0,0,0
77666,-100,4,1,0,0,0,0
78916,-100,4,1,0,0,0,1
111138,-100,4,1,0,0,0,0

[HitObjects]
64,192,2249,5,0,0:0:0:0:
320,192,2527,1,0,0:0:0:0:
448,192,2666,1,0,0:0:0:0:
64,192,2944,1,0,0:0:0:0:
448,192,3222,1,0,0:0:0:0:
192,192,3222,1,0,0:0:0:0:
320,192,3916,1,0,0:0:0:0:
192,192,4194,1,0,0:0:0:0:
64,192,4472,1,0,0:0:0:0:
320,192,4472,1,0,0:0:0:0:
448,192,4750,1,0,0:0:0:0:
64,192,5027,1,0,0:0:0:0:
448,192,5166,1,0,0:0:0:0:
192,192,5444,1,0,0:0:0:0:
320,192,5444,1,0,0:0:0:0:
64,192,6138,1,0,0:0:0:0:
192,192,6694,1,0,0:0:0:0:
448,192,6694,1,0,0:0:0:0:
64,192,6972,1,0,0:0:0:0:
192,192,7111,1,0,0:0:0:0:
448,192,7250,1,0,0:0:0:0:
192,192,7388,1,0,0:0:0:0:
320,192,7666,1,0,0:0:0:0:
448,192,7666,1,0,0:0:0:0:
64,192,8083,1,0,0:0:0:0:
192,192,8361,1,0,0:0:0:0:
448,192,8361,1,0,0:0:0:0:
320,192,8638,1,0,0:0:0:0:
64,192,8916,1,0,0:0:0:0:
192,192,8986,1,0,0:0:0:0:
448,192,9020,1,0,0:0:0:0:
192,192,10444,1,0,0:0:0:0:
320,192,10513,1,0,0:0:0:0:
64,192,10583,1,0,0:0:0:0:
448,192,10583,1,0,0:0:0:0:
192,192,10629,1,0,0:0:0:0:
320,192,10675,1,0,0:0:0:0:
192,192,10722,1,0,0:0:0:0:
192,192,10861,1,0,0:0:0:0:
192,192,11000,1,0,0:0:0:0:
64,192,11138,1,0,0:0:0:0:
192,192,11138,1,0,0:0:0:0:
320,192,11138,1,0,0:0:0:0:
64,192,11277,1,0,0:0:0:0:
192,192,11277,1,0,0:0:0:0:
448,192,11277,1,0,0:0:0:0:
64,192,11416,1,0,0:0:0:0:
192,192,11416,1,0,0:0:0:0:
448,192,11416,1,0,0:0:0:0:
64,192,11555,1,0,0:0:0:0:
192,192,11555,1,0,0:0:0:0:
448,192,11555,1,0,0:0:0:0:
448,192,11694,1,0,0:0:0:0:
320,192,11763,1,0,0:0:0:0:
192,192,11833,1,0,0:0:0:0:
64,192,11902,1,0,0:0:0:0:
448,192,11972,1,0,0:0:0:0:
320,192,12041,1,0,0:0:0:0:
192,192,12111,1,0,0:0:0:0:
64,192,12180,1,0,0:0:0:0:
448,192,12250,1,0,0:0:0:0:
320,192,12319,1,0,0:0:0:0:
192,192,12388,1,0,0:0:0:0:
64,192,12458,1,0,0:0:0:0:
448,192,12527,1,0,0:0:0:0:
320,192,12597,1,0,0:0:0:0:
192,192,12666,1,0,0:0:0:0:
64,192,12736,1,0,0:0:0:0:
192,192,12805,1,0,0:0:0:0:
320,192,12805,1,0,0:0:0:0:
448,192,12875,1,0,0:0:0:0:
320,192,12944,1,0,0:0:0:0:
192,192,13013,1,0,0:0:0:0:
64,192,13083,1,0,0:0:0:0:
448,192,13152,1,0,0:0:0:0:
320,192,13222,1,0,0:0:0:0:
192,192,13291,1,0,0:0:0:0:
64,192,13361,1,0,0:0:0:0:
320,192,13361,1,0,0:0:0:0:
448,192,13361,1,0,0:0:0:0:
192,192,13500,1,0,0:0:0:0:
448,192,13500,1,0,0:0:0:0:
320,192,13500,1,0,0:0:0:0:
192,192,13638,1,0,0:0:0:0:
320,192,13638,1,0,0:0:0:0:
448,192,13638,1,0,0:0:0:0:
192,192,13777,1,0,0:0:0:0:
448,192,13777,1,0,0:0:0:0:
320,192,13777,1,0,0:0:0:0:
64,192,13916,1,0,0:0:0:0:
192,192,13986,1,0,0:0:0:0:
320,192,14055,1,0,0:0:0:0:
448,192,14125,1,0,0:0:0:0:
64,192,14194,1,0,0:0:0:0:
192,192,14263,1,0,0:0:0:0:
320,192,14333,1,0,0:0:0:0:
448,192,14402,1,0,0:0:0:0:
64,192,14472,1,0,0:0:0:0:
192,192,14541,1,0,0:0:0:0:
320,192,14611,1,0,0:0:0:0:
448,192,14680,1,0,0:0:0:0:
64,192,14750,1,0,0:0:0:0:
192,192,14819,1,0,0:0:0:0:
320,192,14888,1,0,0:0:0:0:
448,192,14958,1,0,0:0:0:0:
192,192,15027,1,0,0:0:0:0:
320,192,15027,1,0,0:0:0:0:
64,192,15027,128,0,15583:0:0:0:0:
192,192,15583,1,0,0:0:0:0:
320,192,15583,1,0,0:0:0:0:
448,192,15583,1,0,0:0:0:0:
64,192,15722,1,0,0:0:0:0:
192,192,15722,1,0,0:0:0:0:
320,192,15722,1,0,0:0:0:0:
64,192,15861,1,0,0:0:0:0:
192,192,15861,1,0,0:0:0:0:
320,192,15861,1,0,0:0:0:0:
64,192,16000,1,0,0:0:0:0:
192,192,16000,1,0,0:0:0:0:
320,192,16000,1,0,0:0:0:0:
448,192,16138,1,0,0:0:0:0:
320,192,16208,1,0,0:0:0:0:
192,192,16277,1,0,0:0:0:0:
64,192,16347,1,0,0:0:0:0:
448,192,16416,1,0,0:0:0:0:
320,192,16486,1,0,0:0:0:0:
192,192,16555,1,0,0:0:0:0:
64,192,16625,1,0,0:0:0:0:
448,192,16694,1,0,0:0:0:0:
320,192,16763,1,0,0:0:0:0:
192,192,16833,1,0,0:0:0:0:
64,192,16902,1,0,0:0:0:0:
448,192,16972,1,0,0:0:0:0:
320,192,17041,1,0,0:0:0:0:
192,192,17111,1,0,0:0:0:0:
64,192,17180,1,0,0:0:0:0:
320,192,17250,1,0,0:0:0:0:
192,192,17250,1,0,0:0:0:0:
448,192,17319,1,0,0:0:0:0:
320,192,17388,1,0,0:0:0:0:
192,192,17458,1,0,0:0:0:0:
64,192,17527,1,0,0:0:0:0:
448,192,17597,1,0,0:0:0:0:
320,192,17666,1,0,0:0:0:0:
192,192,17736,1,0,0:0:0:0:
64,192,17805,1,0,0:0:0:0:
320,192,17805,1,0,0:0:0:0:
448,192,17805,1,0,0:0:0:0:
192,192,17944,1,0,0:0:0:0:
320,192,17944,1,0,0:0:0:0:
448,192,17944,1,0,0:0:0:0:
192,192,18083,1,0,0:0:0:0:
320,192,18083,1,0,0:0:0:0:
448,192,18083,1,0,0:0:0:0:
192,192,18222,1,0,0:0:0:0:
320,192,18222,1,0,0:0:0:0:
448,192,18222,1,0,0:0:0:0:
64,192,18361,1,0,0:0:0:0:
192,192,18430,1,0,0:0:0:0:
320,192,18500,1,0,0:0:0:0:
448,192,18569,1,0,0:0:0:0:
64,192,18638,1,0,0:0:0:0:
192,192,18708,1,0,0:0:0:0:
320,192,18777,1,0,0:0:0:0:
448,192,18847,1,0,0:0:0:0:
192,192,18916,1,0,0:0:0:0:
320,192,18916,1,0,0:0:0:0:
64,192,18916,1,0,0:0:0:0:
64,192,19055,1,0,0:0:0:0:
192,192,19055,1,0,0:0:0:0:
448,192,19055,1,0,0:0:0:0:
64,192,19194,1,0,0:0:0:0:
192,192,19194,1,0,0:0:0:0:
448,192,19194,1,0,0:0:0:0:
64,192,19333,1,0,0:0:0:0:
192,192,19333,1,0,0:0:0:0:
448,192,19333,1,0,0:0:0:0:
192,192,19472,1,0,0:0:0:0:
320,192,19472,128,0,20027:0:0:0:0:
64,192,19472,1,0,0:0:0:0:
64,192,20027,1,0,0:0:0:0:
192,192,20027,1,0,0:0:0:0:
448,192,20027,1,0,0:0:0:0:
320,192,20166,1,0,0:0:0:0:
192,192,20236,1,0,0:0:0:0:
64,192,20305,1,0,0:0:0:0:
448,192,20305,1,0,0:0:0:0:
320,192,20305,1,0,0:0:0:0:
320,192,20444,1,0,0:0:0:0:
192,192,20583,1,0,0:0:0:0:
448,192,20583,1,0,0:0:0:0:
64,192,20583,1,0,0:0:0:0:
64,192,20722,1,0,0:0:0:0:
320,192,20722,1,0,0:0:0:0:
192,192,20861,1,0,0:0:0:0:
320,192,20861,1,0,0:0:0:0:
320,192,21000,1,0,0:0:0:0:
64,192,21000,1,0,0:0:0:0:
64,192,21138,1,0,0:0:0:0:
448,192,21138,1,0,0:0:0:0:
320,192,21208,1,0,0:0:0:0:
192,192,21277,1,0,0:0:0:0:
448,192,21277,1,0,0:0:0:0:
192,192,21416,1,0,0:0:0:0:
320,192,21416,1,0,0:0:0:0:
448,192,21555,1,0,0:0:0:0:
192,192,21555,1,0,0:0:0:0:
64,192,21694,1,0,0:0:0:0:
320,192,21694,1,0,0:0:0:0:
192,192,21833,1,0,0:0:0:0:
448,192,21833,1,0,0:0:0:0:
192,192,21972,1,0,0:0:0:0:
320,192,22041,1,0,0:0:0:0:
192,192,22111,1,0,0:0:0:0:
448,192,22111,1,0,0:0:0:0:
64,192,22250,1,0,0:0:0:0:
448,192,22250,1,0,0:0:0:0:
320,192,22388,1,0,0:0:0:0:
192,192,22527,1,0,0:0:0:0:
448,192,22527,1,0,0:0:0:0:
64,192,22527,1,0,0:0:0:0:
320,192,22666,1,0,0:0:0:0:
192,192,22736,1,0,0:0:0:0:
64,192,22805,1,0,0:0:0:0:
320,192,22805,1,0,0:0:0:0:
448,192,22805,1,0,0:0:0:0:
192,192,22944,1,0,0:0:0:0:
448,192,22944,1,0,0:0:0:0:
64,192,23083,1,0,0:0:0:0:
320,192,23083,1,0,0:0:0:0:
192,192,23222,1,0,0:0:0:0:
448,192,23222,1,0,0:0:0:0:
64,192,23361,1,0,0:0:0:0:
448,192,23361,1,0,0:0:0:0:
320,192,23430,1,0,0:0:0:0:
192,192,23500,1,0,0:0:0:0:
448,192,23500,1,0,0:0:0:0:
64,192,23638,1,0,0:0:0:0:
320,192,23638,1,0,0:0:0:0:
192,192,23777,1,0,0:0:0:0:
320,192,23777,1,0,0:0:0:0:
448,192,23916,1,0,0:0:0:0:
64,192,23916,1,0,0:0:0:0:
64,192,24055,1,0,0:0:0:0:
192,192,24055,1,0,0:0:0:0:
320,192,24194,1,0,0:0:0:0:
448,192,24194,1,0,0:0:0:0:
192,192,24333,1,0,0:0:0:0:
64,192,24472,1,0,0:0:0:0:
448,192,24472,1,0,0:0:0:0:
192,192,24611,1,0,0:0:0:0:
320,192,24680,1,0,0:0:0:0:
192,192,24750,1,0,0:0:0:0:
448,192,24750,1,0,0:0:0:0:
64,192,24750,1,0,0:0:0:0:
192,192,24888,1,0,0:0:0:0:
320,192,25027,1,0,0:0:0:0:
448,192,25027,1,0,0:0:0:0:
64,192,25027,1,0,0:0:0:0:
64,192,25166,1,0,0:0:0:0:
192,192,25166,1,0,0:0:0:0:
448,192,25305,1,0,0:0:0:0:
192,192,25305,1,0,0:0:0:0:
192,192,25444,1,0,0:0:0:0:
320,192,25444,1,0,0:0:0:0:
448,192,25583,1,0,0:0:0:0:
64,192,25583,1,0,0:0:0:0:
192,192,25652,1,0,0:0:0:0:
64,192,25722,1,0,0:0:0:0:
320,192,25722,1,0,0:0:0:0:
320,192,25861,1,0,0:0:0:0:
192,192,25861,1,0,0:0:0:0:
64,192,26000,1,0,0:0:0:0:
320,192,26000,1,0,0:0:0:0:
448,192,26138,1,0,0:0:0:0:
192,192,26138,1,0,0:0:0:0:
64,192,26277,1,0,0:0:0:0:
320,192,26277,1,0,0:0:0:0:
320,192,26416,1,0,0:0:0:0:
448,192,26416,1,0,0:0:0:0:
192,192,26486,1,0,0:0:0:0:
64,192,26555,1,0,0:0:0:0:
320,192,26555,1,0,0:0:0:0:
192,192,26694,1,0,0:0:0:0:
448,192,26694,1,0,0:0:0:0:
320,192,26833,1,0,0:0:0:0:
64,192,26972,1,0,0:0:0:0:
448,192,26972,1,0,0:0:0:0:
192,192,26972,1,0,0:0:0:0:
320,192,27111,1,0,0:0:0:0:
192,192,27180,1,0,0:0:0:0:
64,192,27250,1,0,0:0:0:0:
320,192,27250,1,0,0:0:0:0:
448,192,27250,1,0,0:0:0:0:
192,192,27388,1,0,0:0:0:0:
448,192,27388,1,0,0:0:0:0:
64,192,27527,1,0,0:0:0:0:
320,192,27527,1,0,0:0:0:0:
192,192,27666,1,0,0:0:0:0:
320,192,27666,1,0,0:0:0:0:
448,192,27666,1,0,0:0:0:0:
320,192,27805,1,0,0:0:0:0:
64,192,27805,1,0,0:0:0:0:
192,192,27875,1,0,0:0:0:0:
64,192,27944,1,0,0:0:0:0:
448,192,27944,1,0,0:0:0:0:
320,192,28083,1,0,0:0:0:0:
192,192,28083,1,0,0:0:0:0:
192,192,28222,1,0,0:0:0:0:
64,192,28222,1,0,0:0:0:0:
448,192,28361,128,0,28395:0:0:0:0:
448,192,28500,128,0,28534:0:0:0:0:
64,192,28638,1,0,0:0:0:0:
192,192,28708,1,0,0:0:0:0:
320,192,28777,1,0,0:0:0:0:
448,192,28847,1,0,0:0:0:0:
64,192,28916,1,0,0:0:0:0:
192,192,28916,1,0,0:0:0:0:
320,192,28916,1,0,0:0:0:0:
192,192,29055,1,0,0:0:0:0:
448,192,29055,1,0,0:0:0:0:
64,192,29194,1,0,0:0:0:0:
192,192,29194,1,0,0:0:0:0:
320,192,29194,1,0,0:0:0:0:
192,192,29333,1,0,0:0:0:0:
448,192,29333,1,0,0:0:0:0:
64,192,29472,1,0,0:0:0:0:
192,192,29472,1,0,0:0:0:0:
320,192,29472,1,0,0:0:0:0:
448,192,29611,1,0,0:0:0:0:
64,192,29750,1,0,0:0:0:0:
192,192,29750,1,0,0:0:0:0:
320,192,29750,1,0,0:0:0:0:
192,192,29888,1,0,0:0:0:0:
448,192,29888,1,0,0:0:0:0:
64,192,30027,1,0,0:0:0:0:
192,192,30027,1,0,0:0:0:0:
320,192,30027,1,0,0:0:0:0:
192,192,30166,1,0,0:0:0:0:
448,192,30166,1,0,0:0:0:0:
64,192,30305,1,0,0:0:0:0:
192,192,30305,1,0,0:0:0:0:
320,192,30305,1,0,0:0:0:0:
192,192,30444,1,0,0:0:0:0:
448,192,30444,1,0,0:0:0:0:
64,192,30583,1,0,0:0:0:0:
192,192,30583,1,0,0:0:0:0:
320,192,30583,1,0,0:0:0:0:
448,192,30722,1,0,0:0:0:0:
320,192,30861,128,0,30930:0:0:0:0:
192,192,30861,1,0,0:0:0:0:
64,192,31000,1,0,0:0:0:0:
192,192,31138,1,0,0:0:0:0:
320,192,31138,1,0,0:0:0:0:
448,192,31138,1,0,0:0:0:0:
64,192,31277,1,0,0:0:0:0:
320,192,31277,1,0,0:0:0:0:
192,192,31416,1,0,0:0:0:0:
320,192,31416,1,0,0:0:0:0:
448,192,31416,1,0,0:0:0:0:
64,192,31555,1,0,0:0:0:0:
320,192,31555,1,0,0:0:0:0:
192,192,31694,1,0,0:0:0:0:
320,192,31694,1,0,0:0:0:0:
448,192,31694,1,0,0:0:0:0:
64,192,31833,1,0,0:0:0:0:
192,192,31972,1,0,0:0:0:0:
320,192,31972,1,0,0:0:0:0:
448,192,31972,1,0,0:0:0:0:
64,192,32111,1,0,0:0:0:0:
320,192,32111,1,0,0:0:0:0:
192,192,32250,1,0,0:0:0:0:
320,192,32250,1,0,0:0:0:0:
448,192,32250,1,0,0:0:0:0:
64,192,32388,1,0,0:0:0:0:
320,192,32388,1,0,0:0:0:0:
192,192,32458,1,0,0:0:0:0:
64,192,32527,1,0,0:0:0:0:
320,192,32527,1,0,0:0:0:0:
448,192,32527,1,0,0:0:0:0:
192,192,32666,1,0,0:0:0:0:
448,192,32666,1,0,0:0:0:0:
64,192,32805,1,0,0:0:0:0:
192,192,32805,1,0,0:0:0:0:
320,192,32805,1,0,0:0:0:0:
64,192,32944,1,0,0:0:0:0:
448,192,32944,1,0,0:0:0:0:
192,192,33013,1,0,0:0:0:0:
320,192,33013,1,0,0:0:0:0:
64,192,33083,1,0,0:0:0:0:
448,192,33083,1,0,0:0:0:0:
64,192,33222,1,0,0:0:0:0:
448,192,33222,1,0,0:0:0:0:
64,192,33361,1,0,0:0:0:0:
192,192,33361,1,0,0:0:0:0:
320,192,33361,1,0,0:0:0:0:
192,192,33500,1,0,0:0:0:0:
448,192,33500,1,0,0:0:0:0:
64,192,33638,1,0,0:0:0:0:
192,192,33638,1,0,0:0:0:0:
320,192,33638,1,0,0:0:0:0:
192,192,33777,1,0,0:0:0:0:
448,192,33777,1,0,0:0:0:0:
64,192,33916,1,0,0:0:0:0:
192,192,33916,1,0,0:0:0:0:
320,192,33916,1,0,0:0:0:0:
448,192,34055,1,0,0:0:0:0:
320,192,34125,1,0,0:0:0:0:
64,192,34194,1,0,0:0:0:0:
192,192,34194,1,0,0:0:0:0:
448,192,34194,1,0,0:0:0:0:
192,192,34333,1,0,0:0:0:0:
320,192,34333,1,0,0:0:0:0:
64,192,34472,1,0,0:0:0:0:
192,192,34472,1,0,0:0:0:0:
448,192,34472,1,0,0:0:0:0:
192,192,34611,1,0,0:0:0:0:
320,192,34611,1,0,0:0:0:0:
320,192,34750,1,0,0:0:0:0:
192,192,34750,1,0,0:0:0:0:
64,192,34750,1,0,0:0:0:0:
448,192,34888,1,0,0:0:0:0:
192,192,34888,1,0,0:0:0:0:
64,192,35027,1,0,0:0:0:0:
192,192,35027,1,0,0:0:0:0:
320,192,35027,1,0,0:0:0:0:
64,192,35166,1,0,0:0:0:0:
192,192,35166,1,0,0:0:0:0:
320,192,35236,1,0,0:0:0:0:
448,192,35305,1,0,0:0:0:0:
64,192,35305,128,0,35583:0:0:0:0:
192,192,35305,128,0,35583:0:0:0:0:
448,192,35583,1,0,0:0:0:0:
64,192,36000,1,0,0:0:0:0:
192,192,36069,1,0,0:0:0:0:
320,192,36138,1,0,0:0:0:0:
448,192,36208,1,0,0:0:0:0:
192,192,36277,1,0,0:0:0:0:
320,192,36347,1,0,0:0:0:0:
64,192,36416,1,0,0:0:0:0:
320,192,36486,1,0,0:0:0:0:
192,192,36555,1,0,0:0:0:0:
448,192,36625,1,0,0:0:0:0:
64,192,36694,1,0,0:0:0:0:
192,192,36833,1,0,0:0:0:0:
64,192,36833,1,0,0:0:0:0:
64,192,36972,1,0,0:0:0:0:
192,192,36972,1,0,0:0:0:0:
320,192,36972,1,0,0:0:0:0:
64,192,37111,1,0,0:0:0:0:
192,192,37111,1,0,0:0:0:0:
320,192,37111,1,0,0:0:0:0:
448,192,37111,1,0,0:0:0:0:
192,192,37250,1,0,0:0:0:0:
320,192,37250,1,0,0:0:0:0:
448,192,37250,1,0,0:0:0:0:
320,192,37388,1,0,0:0:0:0:
448,192,37388,1,0,0:0:0:0:
448,192,37527,128,0,37805:0:0:0:0:
320,192,37805,1,0,0:0:0:0:
64,192,37805,128,0,38361:0:0:0:0:
192,192,38361,1,0,0:0:0:0:
448,192,38361,1,0,0:0:0:0:
320,192,38500,1,0,0:0:0:0:
448,192,38500,1,0,0:0:0:0:
320,192,38638,1,0,0:0:0:0:
448,192,38638,1,0,0:0:0:0:
64,192,38777,1,0,0:0:0:0:
192,192,38777,1,0,0:0:0:0:
320,192,38847,1,0,0:0:0:0:
448,192,38847,1,0,0:0:0:0:
64,192,38916,1,0,0:0:0:0:
192,192,38916,1,0,0:0:0:0:
64,192,39055,1,0,0:0:0:0:
320,192,39055,1,0,0:0:0:0:
192,192,39194,1,0,0:0:0:0:
320,192,39194,1,0,0:0:0:0:
448,192,39194,1,0,0:0:0:0:
320,192,39472,128,0,39541:0:0:0:0:
448,192,39472,128,0,39541:0:0:0:0:
64,192,39472,1,0,0:0:0:0:
320,192,39611,128,0,39680:0:0:0:0:
448,192,39611,128,0,39680:0:0:0:0:
192,192,39750,1,0,0:0:0:0:
320,192,39750,1,0,0:0:0:0:
64,192,39750,128,0,40027:0:0:0:0:
320,192,40027,1,0,0:0:0:0:
448,192,40027,128,0,40305:0:0:0:0:
192,192,40166,1,0,0:0:0:0:
64,192,40305,1,0,0:0:0:0:
320,192,40305,1,0,0:0:0:0:
320,192,40444,1,0,0:0:0:0:
192,192,40583,1,0,0:0:0:0:
320,192,40583,1,0,0:0:0:0:
448,192,40583,1,0,0:0:0:0:
64,192,40722,1,0,0:0:0:0:
192,192,40722,1,0,0:0:0:0:
192,192,40861,1,0,0:0:0:0:
320,192,40861,1,0,0:0:0:0:
448,192,40861,1,0,0:0:0:0:
64,192,41000,1,0,0:0:0:0:
192,192,41000,1,0,0:0:0:0:
320,192,41069,1,0,0:0:0:0:
448,192,41138,1,0,0:0:0:0:
64,192,41138,1,0,0:0:0:0:
192,192,41138,1,0,0:0:0:0:
320,192,41208,1,0,0:0:0:0:
64,192,41277,1,0,0:0:0:0:
448,192,41277,1,0,0:0:0:0:
192,192,41347,1,0,0:0:0:0:
320,192,41347,1,0,0:0:0:0:
64,192,41416,1,0,0:0:0:0:
448,192,41416,1,0,0:0:0:0:
64,192,41555,1,0,0:0:0:0:
192,192,41555,1,0,0:0:0:0:
320,192,41625,1,0,0:0:0:0:
448,192,41625,1,0,0:0:0:0:
192,192,41694,1,0,0:0:0:0:
64,192,41694,128,0,41833:0:0:0:0:
192,192,41902,128,0,42041:0:0:0:0:
320,192,41902,1,0,0:0:0:0:
320,192,42111,128,0,42250:0:0:0:0:
448,192,42111,1,0,0:0:0:0:
64,192,42250,1,0,0:0:0:0:
192,192,42250,1,0,0:0:0:0:
448,192,42388,128,0,42527:0:0:0:0:
192,192,42527,1,0,0:0:0:0:
320,192,42527,1,0,0:0:0:0:
448,192,42666,128,0,42805:0:0:0:0:
64,192,42805,128,0,43083:0:0:0:0:
192,192,42944,1,0,0:0:0:0:
320,192,42944,1,0,0:0:0:0:
320,192,43083,1,0,0:0:0:0:
448,192,43083,128,0,43361:0:0:0:0:
192,192,43222,1,0,0:0:0:0:
64,192,43361,128,0,43500:0:0:0:0:
320,192,43361,1,0,0:0:0:0:
448,192,43500,128,0,43638:0:0:0:0:
64,192,43638,1,0,0:0:0:0:
320,192,43638,1,0,0:0:0:0:
192,192,43638,1,0,0:0:0:0:
64,192,43777,1,0,0:0:0:0:
192,192,43777,1,0,0:0:0:0:
192,192,43916,1,0,0:0:0:0:
320,192,43916,1,0,0:0:0:0:
448,192,43916,1,0,0:0:0:0:
192,192,44055,1,0,0:0:0:0:
320,192,44055,1,0,0:0:0:0:
448,192,44055,1,0,0:0:0:0:
320,192,44194,1,0,0:0:0:0:
448,192,44194,1,0,0:0:0:0:
64,192,44194,128,0,44333:0:0:0:0:
192,192,44333,1,0,0:0:0:0:
64,192,44472,1,0,0:0:0:0:
320,192,44472,1,0,0:0:0:0:
448,192,44472,1,0,0:0:0:0:
64,192,44611,1,0,0:0:0:0:
320,192,44611,1,0,0:0:0:0:
192,192,44680,1,0,0:0:0:0:
448,192,44680,1,0,0:0:0:0:
64,192,44750,1,0,0:0:0:0:
320,192,44750,128,0,44888:0:0:0:0:
192,192,44888,1,0,0:0:0:0:
448,192,44888,1,0,0:0:0:0:
64,192,44958,1,0,0:0:0:0:
320,192,44958,1,0,0:0:0:0:
192,192,45027,1,0,0:0:0:0:
448,192,45027,1,0,0:0:0:0:
320,192,45166,1,0,0:0:0:0:
448,192,45166,1,0,0:0:0:0:
64,192,45305,1,0,0:0:0:0:
192,192,45305,1,0,0:0:0:0:
320,192,45305,1,0,0:0:0:0:
192,192,45444,1,0,0:0:0:0:
448,192,45444,1,0,0:0:0:0:
64,192,45583,1,0,0:0:0:0:
192,192,45583,1,0,0:0:0:0:
320,192,45583,1,0,0:0:0:0:
192,192,45722,1,0,0:0:0:0:
448,192,45722,1,0,0:0:0:0:
64,192,45861,1,0,0:0:0:0:
320,192,45861,1,0,0:0:0:0:
448,192,45861,1,0,0:0:0:0:
192,192,46000,1,0,0:0:0:0:
320,192,46000,1,0,0:0:0:0:
64,192,46138,1,0,0:0:0:0:
192,192,46138,1,0,0:0:0:0:
448,192,46138,1,0,0:0:0:0:
64,192,46277,1,0,0:0:0:0:
192,192,46277,1,0,0:0:0:0:
64,192,46416,1,0,0:0:0:0:
192,192,46416,1,0,0:0:0:0:
320,192,46416,128,0,46694:0:0:0:0:
448,192,46694,1,0,0:0:0:0:
192,192,46694,1,0,0:0:0:0:
64,192,46694,128,0,47250:0:0:0:0:
192,192,47041,128,0,47250:0:0:0:0:
448,192,47250,1,0,0:0:0:0:
320,192,47284,1,0,0:0:0:0:
64,192,47319,1,0,0:0:0:0:
192,192,47354,1,0,0:0:0:0:
448,192,47388,1,0,0:0:0:0:
320,192,47423,1,0,0:0:0:0:
192,192,47527,1,0,0:0:0:0:
64,192,47562,1,0,0:0:0:0:
320,192,47597,1,0,0:0:0:0:
448,192,47631,1,0,0:0:0:0:
192,192,47666,1,0,0:0:0:0:
64,192,47701,1,0,0:0:0:0:
320,192,47736,1,0,0:0:0:0:
448,192,47770,1,0,0:0:0:0:
64,192,47805,1,0,0:0:0:0:
192,192,47805,1,0,0:0:0:0:
320,192,47944,1,0,0:0:0:0:
448,192,47944,1,0,0:0:0:0:
64,192,48083,1,0,0:0:0:0:
192,192,48083,1,0,0:0:0:0:
448,192,48083,1,0,0:0:0:0:
64,192,48361,1,0,0:0:0:0:
320,192,48361,128,0,48430:0:0:0:0:
448,192,48361,128,0,48430:0:0:0:0:
320,192,48500,128,0,48569:0:0:0:0:
448,192,48500,128,0,48569:0:0:0:0:
64,192,48638,128,0,48916:0:0:0:0:
192,192,48638,1,0,0:0:0:0:
320,192,48638,1,0,0:0:0:0:
192,192,48916,1,0,0:0:0:0:
448,192,48916,128,0,49194:0:0:0:0:
320,192,49055,1,0,0:0:0:0:
64,192,49194,1,0,0:0:0:0:
192,192,49194,1,0,0:0:0:0:
192,192,49333,1,0,0:0:0:0:
64,192,49472,1,0,0:0:0:0:
192,192,49472,1,0,0:0:0:0:
320,192,49472,1,0,0:0:0:0:
320,192,49611,1,0,0:0:0:0:
448,192,49611,1,0,0:0:0:0:
64,192,49750,1,0,0:0:0:0:
320,192,49750,1,0,0:0:0:0:
192,192,49750,1,0,0:0:0:0:
192,192,49888,1,0,0:0:0:0:
448,192,49888,1,0,0:0:0:0:
320,192,49958,1,0,0:0:0:0:
64,192,50027,1,0,0:0:0:0:
192,192,50027,1,0,0:0:0:0:
448,192,50027,1,0,0:0:0:0:
320,192,50097,1,0,0:0:0:0:
64,192,50166,1,0,0:0:0:0:
192,192,50166,1,0,0:0:0:0:
320,192,50236,1,0,0:0:0:0:
448,192,50236,1,0,0:0:0:0:
64,192,50305,1,0,0:0:0:0:
192,192,50305,1,0,0:0:0:0:
64,192,50444,1,0,0:0:0:0:
320,192,50444,1,0,0:0:0:0:
192,192,50513,1,0,0:0:0:0:
448,192,50513,1,0,0:0:0:0:
320,192,50583,1,0,0:0:0:0:
64,192,50583,128,0,50722:0:0:0:0:
192,192,50791,128,0,50930:0:0:0:0:
448,192,50791,1,0,0:0:0:0:
320,192,51000,128,0,51138:0:0:0:0:
64,192,51000,1,0,0:0:0:0:
192,192,51138,1,0,0:0:0:0:
448,192,51138,1,0,0:0:0:0:
64,192,51277,128,0,51416:0:0:0:0:
192,192,51416,1,0,0:0:0:0:
320,192,51416,1,0,0:0:0:0:
64,192,51555,128,0,51694:0:0:0:0:
320,192,51694,1,0,0:0:0:0:
448,192,51694,128,0,51972:0:0:0:0:
64,192,51833,1,0,0:0:0:0:
320,192,51972,1,0,0:0:0:0:
192,192,51972,128,0,52250:0:0:0:0:
64,192,52111,1,0,0:0:0:0:
320,192,52250,1,0,0:0:0:0:
448,192,52250,128,0,52388:0:0:0:0:
64,192,52388,128,0,52527:0:0:0:0:
320,192,52527,1,0,0:0:0:0:
448,192,52527,1,0,0:0:0:0:
320,192,52666,1,0,0:0:0:0:
448,192,52666,1,0,0:0:0:0:
192,192,52805,1,0,0:0:0:0:
320,192,52875,1,0,0:0:0:0:
192,192,52944,1,0,0:0:0:0:
320,192,53013,1,0,0:0:0:0:
64,192,53083,1,0,0:0:0:0:
192,192,53083,1,0,0:0:0:0:
448,192,53083,1,0,0:0:0:0:
192,192,53361,1,0,0:0:0:0:
320,192,53361,128,0,54333:0:0:0:0:
192,192,55583,1,0,0:0:0:0:
64,192,55583,1,0,0:0:0:0:
448,192,55583,1,0,0:0:0:0:
64,192,55722,1,0,0:0:0:0:
320,192,55722,1,0,0:0:0:0:
448,192,55722,1,0,0:0:0:0:
64,192,55861,1,0,0:0:0:0:
192,192,55861,1,0,0:0:0:0:
448,192,55861,1,0,0:0:0:0:
320,192,56000,1,0,0:0:0:0:
64,192,56138,1,0,0:0:0:0:
320,192,56277,1,0,0:0:0:0:
192,192,56416,1,0,0:0:0:0:
64,192,56694,1,0,0:0:0:0:
320,192,56787,1,0,0:0:0:0:
192,192,56879,1,0,0:0:0:0:
448,192,56972,1,0,0:0:0:0:
448,192,57250,1,0,0:0:0:0:
192,192,57342,1,0,0:0:0:0:
320,192,57435,1,0,0:0:0:0:
64,192,57527,1,0,0:0:0:0:
64,192,57805,1,0,0:0:0:0:
192,192,57805,1,0,0:0:0:0:
320,192,57805,1,0,0:0:0:0:
192,192,57944,1,0,0:0:0:0:
320,192,57944,1,0,0:0:0:0:
448,192,57944,1,0,0:0:0:0:
64,192,58083,1,0,0:0:0:0:
192,192,58083,1,0,0:0:0:0:
320,192,58083,1,0,0:0:0:0:
448,192,58222,1,0,0:0:0:0:
64,192,58361,1,0,0:0:0:0:
320,192,58500,1,0,0:0:0:0:
192,192,58638,1,0,0:0:0:0:
448,192,58916,1,0,0:0:0:0:
320,192,59194,1,0,0:0:0:0:
64,192,59472,1,0,0:0:0:0:
192,192,59472,1,0,0:0:0:0:
448,192,59564,1,0,0:0:0:0:
192,192,59657,1,0,0:0:0:0:
320,192,59750,1,0,0:0:0:0:
64,192,60027,1,0,0:0:0:0:
192,192,60027,1,0,0:0:0:0:
320,192,60027,1,0,0:0:0:0:
64,192,60166,1,0,0:0:0:0:
192,192,60166,1,0,0:0:0:0:
448,192,60166,1,0,0:0:0:0:
64,192,60305,1,0,0:0:0:0:
192,192,60305,1,0,0:0:0:0:
320,192,60305,1,0,0:0:0:0:
448,192,60444,128,0,60861:0:0:0:0:
192,192,60861,128,0,61138:0:0:0:0:
320,192,61138,1,0,0:0:0:0:
64,192,61416,1,0,0:0:0:0:
192,192,61694,1,0,0:0:0:0:
320,192,61972,1,0,0:0:0:0:
64,192,62250,1,0,0:0:0:0:
192,192,62250,1,0,0:0:0:0:
448,192,62250,1,0,0:0:0:0:
192,192,62388,1,0,0:0:0:0:
64,192,62388,1,0,0:0:0:0:
320,192,62388,1,0,0:0:0:0:
64,192,62527,1,0,0:0:0:0:
192,192,62527,1,0,0:0:0:0:
448,192,62527,1,0,0:0:0:0:
320,192,62666,1,0,0:0:0:0:
320,192,63083,1,0,0:0:0:0:
192,192,63361,1,0,0:0:0:0:
320,192,63361,1,0,0:0:0:0:
448,192,63361,1,0,0:0:0:0:
64,192,63500,1,0,0:0:0:0:
320,192,63500,1,0,0:0:0:0:
448,192,63500,1,0,0:0:0:0:
64,192,63638,1,0,0:0:0:0:
192,192,63638,1,0,0:0:0:0:
320,192,63638,1,0,0:0:0:0:
192,192,63777,1,0,0:0:0:0:
320,192,63777,1,0,0:0:0:0:
448,192,63777,1,0,0:0:0:0:
192,192,63916,1,0,0:0:0:0:
64,192,63916,128,0,64472:0:0:0:0:
192,192,64472,1,0,0:0:0:0:
320,192,64472,1,0,0:0:0:0:
448,192,64472,1,0,0:0:0:0:
64,192,64611,1,0,0:0:0:0:
448,192,64611,1,0,0:0:0:0:
192,192,64611,1,0,0:0:0:0:
192,192,64750,1,0,0:0:0:0:
320,192,64750,1,0,0:0:0:0:
448,192,64750,1,0,0:0:0:0:
64,192,64888,1,0,0:0:0:0:
448,192,65027,1,0,0:0:0:0:
192,192,65166,1,0,0:0:0:0:
320,192,65305,1,0,0:0:0:0:
320,192,65583,1,0,0:0:0:0:
448,192,65583,1,0,0:0:0:0:
64,192,65583,1,0,0:0:0:0:
192,192,65722,1,0,0:0:0:0:
320,192,65722,1,0,0:0:0:0:
448,192,65722,1,0,0:0:0:0:
64,192,65861,1,0,0:0:0:0:
320,192,65861,1,0,0:0:0:0:
448,192,65861,1,0,0:0:0:0:
192,192,66000,1,0,0:0:0:0:
448,192,66277,128,0,66347:0:0:0:0:
448,192,66416,128,0,66486:0:0:0:0:
64,192,66694,1,0,0:0:0:0:
192,192,66694,1,0,0:0:0:0:
320,192,66694,1,0,0:0:0:0:
320,192,66833,1,0,0:0:0:0:
448,192,66833,1,0,0:0:0:0:
64,192,66833,1,0,0:0:0:0:
64,192,66972,1,0,0:0:0:0:
192,192,66972,1,0,0:0:0:0:
320,192,66972,1,0,0:0:0:0:
448,192,67111,1,0,0:0:0:0:
64,192,67250,1,0,0:0:0:0:
320,192,67388,1,0,0:0:0:0:
448,192,67527,1,0,0:0:0:0:
64,192,67805,1,0,0:0:0:0:
320,192,67805,1,0,0:0:0:0:
448,192,67805,1,0,0:0:0:0:
64,192,67944,1,0,0:0:0:0:
192,192,67944,1,0,0:0:0:0:
320,192,67944,1,0,0:0:0:0:
64,192,68083,1,0,0:0:0:0:
320,192,68083,1,0,0:0:0:0:
448,192,68083,1,0,0:0:0:0:
192,192,68222,1,0,0:0:0:0:
448,192,68361,1,0,0:0:0:0:
320,192,68430,1,0,0:0:0:0:
448,192,68500,1,0,0:0:0:0:
64,192,68500,1,0,0:0:0:0:
320,192,68569,1,0,0:0:0:0:
448,192,68638,1,0,0:0:0:0:
192,192,68638,1,0,0:0:0:0:
64,192,68916,1,0,0:0:0:0:
192,192,68916,1,0,0:0:0:0:
320,192,68916,1,0,0:0:0:0:
192,192,69055,1,0,0:0:0:0:
448,192,69055,1,0,0:0:0:0:
64,192,69055,1,0,0:0:0:0:
320,192,69194,1,0,0:0:0:0:
448,192,69194,1,0,0:0:0:0:
192,192,69194,1,0,0:0:0:0:
64,192,69333,1,0,0:0:0:0:
320,192,69333,1,0,0:0:0:0:
448,192,69333,1,0,0:0:0:0:
192,192,69472,1,0,0:0:0:0:
320,192,69472,1,0,0:0:0:0:
64,192,69472,1,0,0:0:0:0:
448,192,69611,1,0,0:0:0:0:
320,192,69611,1,0,0:0:0:0:
192,192,69611,1,0,0:0:0:0:
64,192,69750,1,0,0:0:0:0:
192,192,69750,1,0,0:0:0:0:
448,192,69750,1,0,0:0:0:0:
320,192,69819,1,0,0:0:0:0:
64,192,69888,1,0,0:0:0:0:
192,192,69888,1,0,0:0:0:0:
448,192,69888,1,0,0:0:0:0:
320,192,70027,1,0,0:0:0:0:
448,192,70027,1,0,0:0:0:0:
192,192,70097,1,0,0:0:0:0:
64,192,70097,1,0,0:0:0:0:
320,192,70166,1,0,0:0:0:0:
448,192,70166,1,0,0:0:0:0:
64,192,70236,1,0,0:0:0:0:
192,192,70236,1,0,0:0:0:0:
320,192,70305,1,0,0:0:0:0:
448,192,70305,1,0,0:0:0:0:
192,192,70375,1,0,0:0:0:0:
64,192,70375,1,0,0:0:0:0:
320,192,70444,1,0,0:0:0:0:
448,192,70444,1,0,0:0:0:0:
192,192,70513,1,0,0:0:0:0:
64,192,70513,1,0,0:0:0:0:
320,192,70583,1,0,0:0:0:0:
448,192,70583,1,0,0:0:0:0:
192,192,70652,1,0,0:0:0:0:
64,192,70652,1,0,0:0:0:0:
320,192,70722,1,0,0:0:0:0:
448,192,70722,1,0,0:0:0:0:
192,192,70791,1,0,0:0:0:0:
64,192,70791,1,0,0:0:0:0:
320,192,70861,1,0,0:0:0:0:
448,192,70861,1,0,0:0:0:0:
192,192,70930,1,0,0:0:0:0:
64,192,70930,1,0,0:0:0:0:
320,192,71000,1,0,0:0:0:0:
448,192,71000,1,0,0:0:0:0:
192,192,71069,1,0,0:0:0:0:
64,192,71069,1,0,0:0:0:0:
448,192,71138,1,0,0:0:0:0:
192,192,71324,1,0,0:0:0:0:
64,192,71416,1,0,0:0:0:0:
448,192,71486,1,0,0:0:0:0:
320,192,71555,1,0,0:0:0:0:
192,192,71625,1,0,0:0:0:0:
64,192,71694,1,0,0:0:0:0:
320,192,71833,1,0,0:0:0:0:
64,192,71972,1,0,0:0:0:0:
448,192,72250,128,0,72527:0:0:0:0:
64,192,72527,1,0,0:0:0:0:
320,192,72597,1,0,0:0:0:0:
192,192,72666,1,0,0:0:0:0:
64,192,72805,1,0,0:0:0:0:
320,192,72990,1,0,0:0:0:0:
64,192,73083,1,0,0:0:0:0:
64,192,73361,1,0,0:0:0:0:
192,192,73361,1,0,0:0:0:0:
64,192,74611,1,0,0:0:0:0:
192,192,74680,1,0,0:0:0:0:
64,192,74750,1,0,0:0:0:0:
320,192,74784,1,0,0:0:0:0:
448,192,75131,128,0,75340:0:0:0:0:
192,192,75351,1,0,0:0:0:0:
448,192,75409,1,0,0:0:0:0:
320,192,75427,1,0,0:0:0:0:
448,192,75467,1,0,0:0:0:0:
320,192,76243,1,0,0:0:0:0:
448,192,76277,128,0,77805:0:0:0:0:
192,192,77805,1,0,0:0:0:0:
320,192,77805,1,0,0:0:0:0:
64,192,77805,128,0,78361:0:0:0:0:
448,192,78083,128,0,78152:0:0:0:0:
192,192,78361,1,0,0:0:0:0:
320,192,78361,1,0,0:0:0:0:
448,192,78500,1,0,0:0:0:0:
192,192,78500,1,0,0:0:0:0:
64,192,78569,1,0,0:0:0:0:
320,192,78569,1,0,0:0:0:0:
448,192,78638,128,0,78708:0:0:0:0:
192,192,78638,1,0,0:0:0:0:
64,192,78916,1,0,0:0:0:0:
448,192,78916,1,0,0:0:0:0:
320,192,78986,1,0,0:0:0:0:
448,192,79055,1,0,0:0:0:0:
192,192,79055,1,0,0:0:0:0:
192,192,79194,1,0,0:0:0:0:
64,192,79194,1,0,0:0:0:0:
192,192,79333,1,0,0:0:0:0:
448,192,79333,1,0,0:0:0:0:
64,192,79472,1,0,0:0:0:0:
320,192,79472,1,0,0:0:0:0:
192,192,79611,1,0,0:0:0:0:
448,192,79611,1,0,0:0:0:0:
192,192,79750,1,0,0:0:0:0:
320,192,79750,1,0,0:0:0:0:
64,192,79819,1,0,0:0:0:0:
192,192,79888,1,0,0:0:0:0:
448,192,79888,1,0,0:0:0:0:
64,192,80027,1,0,0:0:0:0:
448,192,80027,1,0,0:0:0:0:
320,192,80166,1,0,0:0:0:0:
64,192,80305,1,0,0:0:0:0:
448,192,80305,1,0,0:0:0:0:
192,192,80305,1,0,0:0:0:0:
320,192,80444,1,0,0:0:0:0:
192,192,80513,1,0,0:0:0:0:
64,192,80583,1,0,0:0:0:0:
320,192,80583,1,0,0:0:0:0:
448,192,80583,1,0,0:0:0:0:
448,192,80722,1,0,0:0:0:0:
192,192,80722,1,0,0:0:0:0:
64,192,80861,1,0,0:0:0:0:
192,192,80861,1,0,0:0:0:0:
320,192,81000,1,0,0:0:0:0:
448,192,81000,1,0,0:0:0:0:
64,192,81138,1,0,0:0:0:0:
448,192,81138,1,0,0:0:0:0:
192,192,81208,1,0,0:0:0:0:
64,192,81277,1,0,0:0:0:0:
320,192,81277,1,0,0:0:0:0:
192,192,81416,1,0,0:0:0:0:
448,192,81416,1,0,0:0:0:0:
192,192,81555,1,0,0:0:0:0:
320,192,81555,1,0,0:0:0:0:
64,192,81694,1,0,0:0:0:0:
448,192,81694,1,0,0:0:0:0:
64,192,81833,1,0,0:0:0:0:
192,192,81833,1,0,0:0:0:0:
64,192,81972,1,0,0:0:0:0:
320,192,81972,1,0,0:0:0:0:
448,192,81972,1,0,0:0:0:0:
192,192,82111,1,0,0:0:0:0:
64,192,82250,1,0,0:0:0:0:
448,192,82250,1,0,0:0:0:0:
320,192,82388,1,0,0:0:0:0:
192,192,82458,1,0,0:0:0:0:
320,192,82527,1,0,0:0:0:0:
64,192,82527,1,0,0:0:0:0:
448,192,82527,1,0,0:0:0:0:
320,192,82666,1,0,0:0:0:0:
64,192,82805,1,0,0:0:0:0:
192,192,82805,1,0,0:0:0:0:
448,192,82805,1,0,0:0:0:0:
320,192,82944,1,0,0:0:0:0:
448,192,82944,1,0,0:0:0:0:
64,192,83083,1,0,0:0:0:0:
320,192,83083,1,0,0:0:0:0:
192,192,83222,1,0,0:0:0:0:
320,192,83222,1,0,0:0:0:0:
64,192,83361,1,0,0:0:0:0:
448,192,83361,1,0,0:0:0:0:
320,192,83430,1,0,0:0:0:0:
192,192,83500,1,0,0:0:0:0:
448,192,83500,1,0,0:0:0:0:
192,192,83638,1,0,0:0:0:0:
64,192,83638,1,0,0:0:0:0:
192,192,83777,1,0,0:0:0:0:
448,192,83777,1,0,0:0:0:0:
64,192,83916,1,0,0:0:0:0:
320,192,83916,1,0,0:0:0:0:
192,192,84055,1,0,0:0:0:0:
320,192,84055,1,0,0:0:0:0:
192,192,84194,1,0,0:0:0:0:
64,192,84194,1,0,0:0:0:0:
320,192,84263,1,0,0:0:0:0:
192,192,84333,1,0,0:0:0:0:
448,192,84333,1,0,0:0:0:0:
64,192,84472,1,0,0:0:0:0:
320,192,84472,1,0,0:0:0:0:
192,192,84611,1,0,0:0:0:0:
64,192,84750,1,0,0:0:0:0:
320,192,84750,1,0,0:0:0:0:
448,192,84750,1,0,0:0:0:0:
192,192,84888,1,0,0:0:0:0:
320,192,84958,1,0,0:0:0:0:
64,192,85027,1,0,0:0:0:0:
448,192,85027,1,0,0:0:0:0:
192,192,85027,1,0,0:0:0:0:
192,192,85166,1,0,0:0:0:0:
320,192,85166,1,0,0:0:0:0:
64,192,85305,1,0,0:0:0:0:
320,192,85305,1,0,0:0:0:0:
192,192,85444,1,0,0:0:0:0:
448,192,85444,1,0,0:0:0:0:
64,192,85583,1,0,0:0:0:0:
448,192,85583,1,0,0:0:0:0:
192,192,85652,1,0,0:0:0:0:
64,192,85722,1,0,0:0:0:0:
320,192,85722,1,0,0:0:0:0:
320,192,85861,1,0,0:0:0:0:
448,192,85861,1,0,0:0:0:0:
192,192,86000,1,0,0:0:0:0:
64,192,86000,1,0,0:0:0:0:
320,192,86138,128,0,86208:0:0:0:0:
320,192,86277,128,0,86347:0:0:0:0:
192,192,86416,1,0,0:0:0:0:
320,192,86486,1,0,0:0:0:0:
192,192,86555,1,0,0:0:0:0:
320,192,86625,1,0,0:0:0:0:
64,192,86694,1,0,0:0:0:0:
192,192,86694,1,0,0:0:0:0:
448,192,86694,1,0,0:0:0:0:
320,192,86833,1,0,0:0:0:0:
192,192,86902,1,0,0:0:0:0:
64,192,86972,1,0,0:0:0:0:
320,192,86972,1,0,0:0:0:0:
448,192,86972,1,0,0:0:0:0:
320,192,87111,1,0,0:0:0:0:
64,192,87250,1,0,0:0:0:0:
192,192,87250,1,0,0:0:0:0:
448,192,87250,1,0,0:0:0:0:
320,192,87388,1,0,0:0:0:0:
448,192,87388,1,0,0:0:0:0:
64,192,87527,1,0,0:0:0:0:
320,192,87527,1,0,0:0:0:0:
320,192,87666,1,0,0:0:0:0:
192,192,87666,1,0,0:0:0:0:
64,192,87805,1,0,0:0:0:0:
448,192,87805,1,0,0:0:0:0:
320,192,87875,1,0,0:0:0:0:
192,192,87944,1,0,0:0:0:0:
448,192,87944,1,0,0:0:0:0:
192,192,88083,1,0,0:0:0:0:
64,192,88083,1,0,0:0:0:0:
192,192,88222,1,0,0:0:0:0:
320,192,88222,1,0,0:0:0:0:
64,192,88361,1,0,0:0:0:0:
448,192,88361,1,0,0:0:0:0:
192,192,88500,1,0,0:0:0:0:
320,192,88500,1,0,0:0:0:0:
64,192,88638,1,0,0:0:0:0:
192,192,88638,1,0,0:0:0:0:
320,192,88708,1,0,0:0:0:0:
192,192,88777,1,0,0:0:0:0:
448,192,88777,1,0,0:0:0:0:
64,192,88916,1,0,0:0:0:0:
320,192,88916,1,0,0:0:0:0:
192,192,89055,1,0,0:0:0:0:
64,192,89194,1,0,0:0:0:0:
320,192,89194,1,0,0:0:0:0:
448,192,89194,1,0,0:0:0:0:
192,192,89333,1,0,0:0:0:0:
320,192,89402,1,0,0:0:0:0:
64,192,89472,1,0,0:0:0:0:
192,192,89472,1,0,0:0:0:0:
448,192,89472,1,0,0:0:0:0:
320,192,89611,1,0,0:0:0:0:
448,192,89611,1,0,0:0:0:0:
64,192,89750,1,0,0:0:0:0:
320,192,89750,1,0,0:0:0:0:
192,192,89888,1,0,0:0:0:0:
448,192,89888,1,0,0:0:0:0:
64,192,90027,1,0,0:0:0:0:
448,192,90027,1,0,0:0:0:0:
192,192,90097,1,0,0:0:0:0:
64,192,90166,1,0,0:0:0:0:
320,192,90166,1,0,0:0:0:0:
192,192,90305,1,0,0:0:0:0:
448,192,90305,1,0,0:0:0:0:
192,192,90444,1,0,0:0:0:0:
320,192,90444,1,0,0:0:0:0:
448,192,90583,1,0,0:0:0:0:
64,192,90583,1,0,0:0:0:0:
64,192,90722,1,0,0:0:0:0:
192,192,90722,1,0,0:0:0:0:
448,192,90861,1,0,0:0:0:0:
64,192,90861,1,0,0:0:0:0:
320,192,90861,1,0,0:0:0:0:
192,192,91000,1,0,0:0:0:0:
64,192,91138,1,0,0:0:0:0:
448,192,91138,1,0,0:0:0:0:
320,192,91277,1,0,0:0:0:0:
192,192,91347,1,0,0:0:0:0:
64,192,91416,1,0,0:0:0:0:
320,192,91416,1,0,0:0:0:0:
448,192,91416,1,0,0:0:0:0:
320,192,91555,1,0,0:0:0:0:
64,192,91694,1,0,0:0:0:0:
192,192,91694,1,0,0:0:0:0:
448,192,91694,1,0,0:0:0:0:
320,192,91833,1,0,0:0:0:0:
448,192,91833,1,0,0:0:0:0:
64,192,91972,1,0,0:0:0:0:
320,192,91972,1,0,0:0:0:0:
192,192,92111,1,0,0:0:0:0:
320,192,92111,1,0,0:0:0:0:
64,192,92250,1,0,0:0:0:0:
448,192,92250,1,0,0:0:0:0:
320,192,92319,1,0,0:0:0:0:
192,192,92388,1,0,0:0:0:0:
448,192,92388,1,0,0:0:0:0:
64,192,92527,1,0,0:0:0:0:
192,192,92527,1,0,0:0:0:0:
192,192,92666,1,0,0:0:0:0:
448,192,92666,1,0,0:0:0:0:
64,192,92805,1,0,0:0:0:0:
320,192,92805,1,0,0:0:0:0:
192,192,92944,1,0,0:0:0:0:
320,192,92944,1,0,0:0:0:0:
64,192,93083,1,0,0:0:0:0:
192,192,93083,1,0,0:0:0:0:
320,192,93152,1,0,0:0:0:0:
192,192,93222,1,0,0:0:0:0:
448,192,93222,1,0,0:0:0:0:
64,192,93361,1,0,0:0:0:0:
320,192,93361,1,0,0:0:0:0:
192,192,93500,1,0,0:0:0:0:
64,192,93638,1,0,0:0:0:0:
320,192,93638,1,0,0:0:0:0:
448,192,93638,1,0,0:0:0:0:
192,192,93777,1,0,0:0:0:0:
320,192,93847,1,0,0:0:0:0:
64,192,93916,1,0,0:0:0:0:
192,192,93916,1,0,0:0:0:0:
448,192,93916,1,0,0:0:0:0:
320,192,94055,1,0,0:0:0:0:
448,192,94055,1,0,0:0:0:0:
64,192,94194,1,0,0:0:0:0:
320,192,94194,1,0,0:0:0:0:
192,192,94333,1,0,0:0:0:0:
448,192,94333,1,0,0:0:0:0:
64,192,94472,1,0,0:0:0:0:
192,192,94472,1,0,0:0:0:0:
320,192,94541,1,0,0:0:0:0:
448,192,94541,1,0,0:0:0:0:
64,192,94611,1,0,0:0:0:0:
192,192,94611,1,0,0:0:0:0:
320,192,94680,1,0,0:0:0:0:
448,192,94680,1,0,0:0:0:0:
64,192,94750,1,0,0:0:0:0:
192,192,94750,1,0,0:0:0:0:
320,192,94819,1,0,0:0:0:0:
448,192,94819,1,0,0:0:0:0:
64,192,94888,1,0,0:0:0:0:
192,192,94888,1,0,0:0:0:0:
320,192,94958,1,0,0:0:0:0:
448,192,94958,1,0,0:0:0:0:
192,192,95027,1,0,0:0:0:0:
64,192,95027,128,0,95097:0:0:0:0:
64,192,95166,128,0,95236:0:0:0:0:
64,192,95305,128,0,95444:0:0:0:0:
64,192,95583,1,0,0:0:0:0:
320,192,95583,1,0,0:0:0:0:
448,192,95583,1,0,0:0:0:0:
192,192,95722,1,0,0:0:0:0:
192,192,95861,1,0,0:0:0:0:
448,192,95861,1,0,0:0:0:0:
320,192,95930,1,0,0:0:0:0:
192,192,96000,1,0,0:0:0:0:
64,192,96069,1,0,0:0:0:0:
320,192,96138,1,0,0:0:0:0:
448,192,96138,1,0,0:0:0:0:
64,192,96208,1,0,0:0:0:0:
192,192,96277,1,0,0:0:0:0:
320,192,96347,1,0,0:0:0:0:
448,192,96347,1,0,0:0:0:0:
64,192,96416,1,0,0:0:0:0:
192,192,96416,1,0,0:0:0:0:
192,192,96555,1,0,0:0:0:0:
64,192,96694,1,0,0:0:0:0:
448,192,96694,1,0,0:0:0:0:
320,192,96833,1,0,0:0:0:0:
448,192,96833,1,0,0:0:0:0:
320,192,96972,1,0,0:0:0:0:
64,192,96972,1,0,0:0:0:0:
192,192,97041,1,0,0:0:0:0:
320,192,97111,1,0,0:0:0:0:
64,192,97250,1,0,0:0:0:0:
192,192,97250,1,0,0:0:0:0:
448,192,97250,1,0,0:0:0:0:
320,192,97388,1,0,0:0:0:0:
192,192,97458,1,0,0:0:0:0:
64,192,97527,1,0,0:0:0:0:
320,192,97527,1,0,0:0:0:0:
448,192,97527,1,0,0:0:0:0:
320,192,97666,1,0,0:0:0:0:
448,192,97805,1,0,0:0:0:0:
64,192,97805,1,0,0:0:0:0:
192,192,97805,128,0,98083:0:0:0:0:
320,192,97944,1,0,0:0:0:0:
64,192,98083,1,0,0:0:0:0:
448,192,98083,1,0,0:0:0:0:
320,192,98083,128,0,98361:0:0:0:0:
192,192,98222,1,0,0:0:0:0:
64,192,98361,1,0,0:0:0:0:
192,192,98361,1,0,0:0:0:0:
448,192,98500,1,0,0:0:0:0:
320,192,98500,128,0,98777:0:0:0:0:
64,192,98638,1,0,0:0:0:0:
192,192,98777,1,0,0:0:0:0:
448,192,98777,1,0,0:0:0:0:
64,192,98916,1,0,0:0:0:0:
320,192,98916,128,0,99055:0:0:0:0:
192,192,99055,1,0,0:0:0:0:
64,192,99194,1,0,0:0:0:0:
192,192,99194,128,0,99333:0:0:0:0:
320,192,99333,1,0,0:0:0:0:
64,192,99472,1,0,0:0:0:0:
320,192,99472,128,0,99611:0:0:0:0:
192,192,99611,1,0,0:0:0:0:
448,192,99611,1,0,0:0:0:0:
64,192,99750,1,0,0:0:0:0:
448,192,99750,1,0,0:0:0:0:
320,192,99750,128,0,99888:0:0:0:0:
192,192,99888,1,0,0:0:0:0:
64,192,100027,1,0,0:0:0:0:
448,192,100027,1,0,0:0:0:0:
192,192,100097,1,0,0:0:0:0:
320,192,100166,1,0,0:0:0:0:
64,192,100236,1,0,0:0:0:0:
192,192,100305,1,0,0:0:0:0:
320,192,100305,1,0,0:0:0:0:
64,192,100375,1,0,0:0:0:0:
192,192,100444,1,0,0:0:0:0:
320,192,100513,1,0,0:0:0:0:
64,192,100583,1,0,0:0:0:0:
448,192,100583,1,0,0:0:0:0:
192,192,100652,1,0,0:0:0:0:
320,192,100722,1,0,0:0:0:0:
448,192,100791,1,0,0:0:0:0:
64,192,100861,1,0,0:0:0:0:
192,192,100861,1,0,0:0:0:0:
320,192,100930,1,0,0:0:0:0:
448,192,101000,1,0,0:0:0:0:
192,192,101069,1,0,0:0:0:0:
320,192,101138,1,0,0:0:0:0:
448,192,101138,1,0,0:0:0:0:
64,192,101277,1,0,0:0:0:0:
320,192,101347,1,0,0:0:0:0:
64,192,101416,1,0,0:0:0:0:
448,192,101416,1,0,0:0:0:0:
320,192,101486,1,0,0:0:0:0:
192,192,101555,1,0,0:0:0:0:
448,192,101625,1,0,0:0:0:0:
64,192,101694,1,0,0:0:0:0:
320,192,101694,1,0,0:0:0:0:
192,192,101763,1,0,0:0:0:0:
64,192,101833,1,0,0:0:0:0:
320,192,101902,1,0,0:0:0:0:
192,192,101972,1,0,0:0:0:0:
448,192,101972,1,0,0:0:0:0:
64,192,102041,1,0,0:0:0:0:
320,192,102111,1,0,0:0:0:0:
192,192,102180,1,0,0:0:0:0:
64,192,102250,1,0,0:0:0:0:
448,192,102250,1,0,0:0:0:0:
320,192,102250,1,0,0:0:0:0:
64,192,102388,1,0,0:0:0:0:
320,192,102388,1,0,0:0:0:0:
448,192,102388,1,0,0:0:0:0:
64,192,102527,1,0,0:0:0:0:
192,192,102527,1,0,0:0:0:0:
320,192,102597,1,0,0:0:0:0:
192,192,102666,1,0,0:0:0:0:
320,192,102736,1,0,0:0:0:0:
64,192,102805,1,0,0:0:0:0:
448,192,102805,1,0,0:0:0:0:
320,192,102875,1,0,0:0:0:0:
448,192,102944,1,0,0:0:0:0:
320,192,103013,1,0,0:0:0:0:
448,192,103083,1,0,0:0:0:0:
64,192,103083,1,0,0:0:0:0:
320,192,103152,1,0,0:0:0:0:
192,192,103222,1,0,0:0:0:0:
64,192,103291,1,0,0:0:0:0:
192,192,103361,1,0,0:0:0:0:
448,192,103361,1,0,0:0:0:0:
320,192,103430,1,0,0:0:0:0:
192,192,103500,1,0,0:0:0:0:
64,192,103569,1,0,0:0:0:0:
448,192,103638,1,0,0:0:0:0:
192,192,103638,128,0,103777:0:0:0:0:
320,192,103777,1,0,0:0:0:0:
64,192,103916,1,0,0:0:0:0:
448,192,103916,128,0,104194:0:0:0:0:
192,192,104055,1,0,0:0:0:0:
64,192,104194,1,0,0:0:0:0:
192,192,104263,1,0,0:0:0:0:
320,192,104333,1,0,0:0:0:0:
448,192,104402,1,0,0:0:0:0:
64,192,104472,1,0,0:0:0:0:
192,192,104472,1,0,0:0:0:0:
320,192,104472,1,0,0:0:0:0:
192,192,104611,1,0,0:0:0:0:
448,192,104611,1,0,0:0:0:0:
64,192,104750,1,0,0:0:0:0:
192,192,104750,1,0,0:0:0:0:
320,192,104750,1,0,0:0:0:0:
192,192,104888,1,0,0:0:0:0:
448,192,104888,1,0,0:0:0:0:
64,192,105027,1,0,0:0:0:0:
192,192,105027,1,0,0:0:0:0:
320,192,105027,1,0,0:0:0:0:
448,192,105166,1,0,0:0:0:0:
64,192,105305,1,0,0:0:0:0:
192,192,105305,1,0,0:0:0:0:
320,192,105305,1,0,0:0:0:0:
192,192,105444,1,0,0:0:0:0:
448,192,105444,1,0,0:0:0:0:
64,192,105583,1,0,0:0:0:0:
192,192,105583,1,0,0:0:0:0:
320,192,105583,1,0,0:0:0:0:
192,192,105722,1,0,0:0:0:0:
448,192,105722,1,0,0:0:0:0:
64,192,105861,1,0,0:0:0:0:
192,192,105861,1,0,0:0:0:0:
320,192,105861,1,0,0:0:0:0:
192,192,106000,1,0,0:0:0:0:
448,192,106000,1,0,0:0:0:0:
64,192,106138,1,0,0:0:0:0:
192,192,106138,1,0,0:0:0:0:
320,192,106138,1,0,0:0:0:0:
448,192,106277,1,0,0:0:0:0:
320,192,106416,128,0,106486:0:0:0:0:
192,192,106416,1,0,0:0:0:0:
64,192,106555,1,0,0:0:0:0:
192,192,106694,1,0,0:0:0:0:
320,192,106694,1,0,0:0:0:0:
448,192,106694,1,0,0:0:0:0:
64,192,106833,1,0,0:0:0:0:
320,192,106833,1,0,0:0:0:0:
192,192,106972,1,0,0:0:0:0:
320,192,106972,1,0,0:0:0:0:
448,192,106972,1,0,0:0:0:0:
64,192,107111,1,0,0:0:0:0:
320,192,107111,1,0,0:0:0:0:
192,192,107250,1,0,0:0:0:0:
320,192,107250,1,0,0:0:0:0:
448,192,107250,1,0,0:0:0:0:
64,192,107388,1,0,0:0:0:0:
192,192,107527,1,0,0:0:0:0:
320,192,107527,1,0,0:0:0:0:
448,192,107527,1,0,0:0:0:0:
64,192,107666,1,0,0:0:0:0:
320,192,107666,1,0,0:0:0:0:
192,192,107805,1,0,0:0:0:0:
320,192,107805,1,0,0:0:0:0:
448,192,107805,1,0,0:0:0:0:
64,192,107944,1,0,0:0:0:0:
320,192,107944,1,0,0:0:0:0:
192,192,108013,1,0,0:0:0:0:
64,192,108083,1,0,0:0:0:0:
320,192,108083,1,0,0:0:0:0:
448,192,108083,1,0,0:0:0:0:
192,192,108222,1,0,0:0:0:0:
448,192,108222,1,0,0:0:0:0:
64,192,108361,1,0,0:0:0:0:
192,192,108361,1,0,0:0:0:0:
320,192,108361,1,0,0:0:0:0:
64,192,108500,1,0,0:0:0:0:
448,192,108500,1,0,0:0:0:0:
192,192,108569,1,0,0:0:0:0:
320,192,108569,1,0,0:0:0:0:
64,192,108638,1,0,0:0:0:0:
448,192,108638,1,0,0:0:0:0:
192,192,108777,1,0,0:0:0:0:
320,192,108777,1,0,0:0:0:0:
64,192,108916,1,0,0:0:0:0:
192,192,108916,1,0,0:0:0:0:
320,192,108916,1,0,0:0:0:0:
192,192,109055,1,0,0:0:0:0:
448,192,109055,1,0,0:0:0:0:
64,192,109194,1,0,0:0:0:0:
192,192,109194,1,0,0:0:0:0:
320,192,109194,1,0,0:0:0:0:
192,192,109333,1,0,0:0:0:0:
448,192,109333,1,0,0:0:0:0:
64,192,109472,1,0,0:0:0:0:
192,192,109472,1,0,0:0:0:0:
320,192,109472,1,0,0:0:0:0:
448,192,109611,1,0,0:0:0:0:
320,192,109680,1,0,0:0:0:0:
192,192,109750,1,0,0:0:0:0:
64,192,109750,1,0,0:0:0:0:
448,192,109750,1,0,0:0:0:0:
192,192,109888,1,0,0:0:0:0:
320,192,109888,1,0,0:0:0:0:
64,192,110027,1,0,0:0:0:0:
192,192,110027,1,0,0:0:0:0:
448,192,110027,1,0,0:0:0:0:
192,192,110166,1,0,0:0:0:0:
320,192,110166,1,0,0:0:0:0:
64,192,110305,1,0,0:0:0:0:
320,192,110305,1,0,0:0:0:0:
448,192,110305,1,0,0:0:0:0:
192,192,110444,1,0,0:0:0:0:
320,192,110444,1,0,0:0:0:0:
64,192,110583,1,0,0:0:0:0:
192,192,110583,1,0,0:0:0:0:
448,192,110583,1,0,0:0:0:0:
64,192,110722,1,0,0:0:0:0:
192,192,110722,1,0,0:0:0:0:
320,192,110791,1,0,0:0:0:0:
64,192,110861,128,0,111138:0:0:0:0:
192,192,110861,128,0,111138:0:0:0:0:
448,192,110861,1,0,0:0:0:0:
448,192,111138,1,0,0:0:0:0:
64,192,111555,1,0,0:0:0:0:
192,192,111625,1,0,0:0:0:0:
320,192,111694,1,0,0:0:0:0:
448,192,111763,1,0,0:0:0:0:
192,192,111833,1,0,0:0:0:0:
320,192,111902,1,0,0:0:0:0:
64,192,111972,1,0,0:0:0:0:
320,192,112041,1,0,0:0:0:0:
192,192,112111,1,0,0:0:0:0:
448,192,112180,1,0,0:0:0:0:
64,192,112250,1,0,0:0:0:0:
64,192,112388,1,0,0:0:0:0:
192,192,112388,1,0,0:0:0:0:
64,192,112527,1,0,0:0:0:0:
192,192,112527,1,0,0:0:0:0:
320,192,112527,1,0,0:0:0:0:
64,192,112666,1,0,0:0:0:0:
192,192,112666,1,0,0:0:0:0:
320,192,112666,1,0,0:0:0:0:
448,192,112666,1,0,0:0:0:0:
192,192,112805,1,0,0:0:0:0:
320,192,112805,1,0,0:0:0:0:
448,192,112805,1,0,0:0:0:0:
320,192,112944,1,0,0:0:0:0:
448,192,112944,1,0,0:0:0:0:
64,192,112944,1,0,0:0:0:0:
192,192,113083,128,0,113361:0:0:0:0:
448,192,113083,1,0,0:0:0:0:
64,192,113361,1,0,0:0:0:0:
320,192,113361,128,0,116694:0:0:0:0:
64,192,116694,1,0,0:0:0:0:
192,192,116694,1,0,0:0:0:0:
448,192,116694,1,0,0:0:0:0:
