osu file format v14

[General]
AudioFilename: audio.mp3
AudioLeadIn: 0
PreviewTime: 133427
Countdown: 0
SampleSet: Normal
StackLeniency: 0.7
Mode: 1
LetterboxInBreaks: 0
WidescreenStoryboard: 0

[Editor]
DistanceSpacing: 1.3
BeatDivisor: 4
GridSize: 32
TimelineZoom: 1

[Metadata]
Title:How to make Slime
TitleUnicode:How to make Slime
Artist:O2i3
ArtistUnicode:O2i3
Creator:Nifty
Version:Futsuu
Source:
Tags:Ayyri Future Bass Electronic Instrumental Glitch Hop
BeatmapID:1335820
BeatmapSetID:631097

[Difficulty]
HPDrainRate:6.5
CircleSize:2
OverallDifficulty:3
ApproachRate:9
SliderMultiplier:1.4
SliderTickRate:1

[Events]
//Background and Video events
0,0,"slyme.png",0,50
//Break Periods
//Storyboard Layer 0 (Background)
//Storyboard Layer 1 (Fail)
//Storyboard Layer 2 (Pass)
//Storyboard Layer 3 (Foreground)
//Storyboard Sound Samples

[TimingPoints]
735,461.538461538462,4,1,0,70,1,0
45273,-100,4,1,0,80,0,1
51965,-100,4,1,0,50,0,0
52658,-100,4,1,0,80,0,1
57735,-100,4,1,0,80,0,0
57965,-100,4,1,0,50,0,0
80119,461.538461538462,4,1,0,50,1,8
80149,461.538461538462,4,1,0,50,1,0
81533,-100,4,1,0,20,0,0
89349,461.538461538462,4,1,0,50,1,0
89349,-100,4,1,0,50,0,0
95696,-100,4,1,0,20,0,0
96619,-100,4,1,0,60,0,0
98465,-100,4,1,0,70,0,0
126504,-100,4,1,0,80,0,1
133195,-100,4,1,0,50,0,0
133887,-100,4,1,0,80,0,1
138964,-100,4,1,0,80,0,0
139196,-100,4,1,0,50,0,0
168273,-100,4,1,0,20,0,0

[HitObjects]
256,96,735,5,0,0:0:0:0:
256,96,1658,1,0,0:0:0:0:
256,96,2581,1,0,0:0:0:0:
256,96,3504,1,0,0:0:0:0:
256,96,3965,1,8,0:0:0:0:
256,96,4427,1,0,0:0:0:0:
256,96,4888,1,8,0:0:0:0:
256,96,5119,1,0,0:0:0:0:
256,96,5350,1,8,0:0:0:0:
256,96,5811,1,0,0:0:0:0:
256,96,6735,1,0,0:0:0:0:
256,96,7196,1,8,0:0:0:0:
256,96,7773,1,8,0:0:0:0:
256,96,8119,1,0,0:0:0:0:
256,96,9042,1,0,0:0:0:0:
256,96,9504,1,8,0:0:0:0:
256,96,9965,1,0,0:0:0:0:
256,96,10888,1,0,0:0:0:0:
256,96,11119,1,0,0:0:0:0:
256,96,11465,1,8,0:0:0:0:
256,96,12042,1,0,0:0:0:0:
256,96,12388,1,0,0:0:0:0:
256,96,12735,1,8,0:0:0:0:
256,96,13081,1,8,0:0:0:0:
256,96,13427,1,0,0:0:0:0:
96,320,14581,2,0,L|320:320,1,210
256,96,15504,1,0,0:0:0:0:
256,96,15965,1,0,0:0:0:0:
256,96,16427,1,8,0:0:0:0:
256,96,16888,1,8,0:0:0:0:
256,96,17350,1,0,0:0:0:0:
256,96,18273,1,8,0:0:0:0:
256,96,18504,1,8,0:0:0:0:
256,96,18850,1,0,0:0:0:0:
256,96,19196,1,8,0:0:0:0:
256,96,20119,1,8,0:0:0:0:
256,96,20581,1,0,0:0:0:0:
256,96,21504,1,8,0:0:0:0:
256,96,21965,1,0,0:0:0:0:
256,96,22542,1,8,0:0:0:0:
256,96,22888,1,0,0:0:0:0:
256,96,23350,1,0,0:0:0:0:
256,96,23811,1,8,0:0:0:0:
256,96,24273,1,8,0:0:0:0:
256,96,24735,1,0,0:0:0:0:
256,96,25658,1,8,0:0:0:0:
256,96,25888,1,0,0:0:0:0:
256,96,26235,1,8,0:0:0:0:
256,96,26581,1,0,0:0:0:0:
256,96,27042,1,8,0:0:0:0:
256,96,27504,1,8,0:0:0:0:
256,96,27965,1,4,0:0:0:0:
256,96,29581,1,0,0:0:0:0:
256,96,29811,1,8,0:0:0:0:
256,96,30273,1,8,0:0:0:0:
256,96,31196,1,0,0:0:0:0:
256,96,32119,1,0,0:0:0:0:
256,96,32811,1,0,0:0:0:0:
256,96,33042,1,8,0:0:0:0:
256,96,33273,1,8,0:0:0:0:
256,96,33619,1,0,0:0:0:0:
256,96,33965,1,8,0:0:0:0:
256,96,34888,1,8,0:0:0:0:
256,96,35350,1,0,0:0:0:0:
256,96,36042,1,8,0:0:0:0:
256,96,36273,1,8,0:0:0:0:
256,96,36735,1,8,0:0:0:0:
256,96,36965,1,0,0:0:0:0:
256,96,37196,1,8,0:0:0:0:
256,96,37658,1,0,0:0:0:0:
256,96,38119,1,0,0:0:0:0:
256,96,38581,1,8,0:0:0:0:
256,96,39042,1,8,0:0:0:0:
256,96,39504,1,0,0:0:0:0:
256,96,40427,1,8,0:0:0:0:
256,96,40658,1,0,0:0:0:0:
256,96,41004,1,8,0:0:0:0:
256,96,41581,1,8,0:0:0:0:
256,96,41927,1,0,0:0:0:0:
256,96,42273,1,8,0:0:0:0:
256,96,42619,1,12,0:0:0:0:
256,96,42965,1,4,0:0:0:0:
224,96,44119,1,8,0:0:0:0:
224,96,44581,1,8,0:0:0:0:
256,96,45042,1,8,0:0:0:0:
256,96,45273,1,0,0:0:0:0:
256,96,45504,1,8,0:0:0:0:
256,96,46196,1,0,0:0:0:0:
256,96,46427,1,8,0:0:0:0:
256,96,46888,1,8,0:0:0:0:
256,96,47235,1,8,0:0:0:0:
256,96,47465,1,0,0:0:0:0:
256,96,47696,1,0,0:0:0:0:
256,96,48042,1,8,0:0:0:0:
256,96,48735,1,8,0:0:0:0:
256,96,48965,1,0,0:0:0:0:
256,96,49196,1,8,0:0:0:0:
256,96,49542,1,0,0:0:0:0:
256,96,50004,1,8,0:0:0:0:
256,96,50581,1,8,0:0:0:0:
256,96,50927,1,0,0:0:0:0:
256,96,51273,1,8,0:0:0:0:
256,96,51619,1,0,0:0:0:0:
256,96,52427,1,8,0:0:0:0:
256,96,52658,1,0,0:0:0:0:
256,96,52888,1,8,0:0:0:0:
256,96,53581,1,0,0:0:0:0:
256,96,53811,1,8,0:0:0:0:
256,96,54273,1,8,0:0:0:0:
256,96,54619,1,8,0:0:0:0:
256,96,55081,1,0,0:0:0:0:
256,96,55427,1,8,0:0:0:0:
256,96,56350,1,8,0:0:0:0:
256,96,56696,1,0,0:0:0:0:
256,96,57042,1,8,0:0:0:0:
256,96,57388,1,12,0:0:0:0:
256,96,57735,1,4,0:0:0:0:
256,96,59811,1,0,0:0:0:0:
256,96,60735,1,8,0:0:0:0:
256,96,62581,1,8,0:0:0:0:
256,96,63504,1,0,0:0:0:0:
256,96,64427,1,8,0:0:0:0:
256,96,66273,1,8,0:0:0:0:
256,96,67196,1,0,0:0:0:0:
256,96,68119,1,8,0:0:0:0:
256,96,69965,1,8,0:0:0:0:
256,96,70888,1,8,0:0:0:0:
256,96,72735,1,0,0:0:0:0:
256,96,73196,1,8,0:0:0:0:
256,96,73658,1,8,0:0:0:0:
256,96,74119,1,0,0:0:0:0:
256,96,74581,1,0,0:0:0:0:
256,96,76427,1,0,0:0:0:0:
256,96,76888,1,0,0:0:0:0:
256,96,77350,1,8,0:0:0:0:
256,96,77811,1,8,0:0:0:0:
256,96,78273,1,4,0:0:0:0:
256,96,80119,1,4,0:0:0:0:
256,96,81072,1,8,0:0:0:0:
256,192,81995,12,0,83379,0:0:0:0:
256,192,83841,12,0,85225,0:0:0:0:
256,192,85687,12,0,88456,0:0:0:0:
256,128,89349,5,8,0:0:0:0:
256,128,90272,1,8,0:0:0:0:
256,128,91195,1,8,0:0:0:0:
256,128,91656,1,8,0:0:0:0:
256,128,92118,1,8,0:0:0:0:
256,128,92349,1,0,0:0:0:0:
256,128,92579,1,8,0:0:0:0:
256,128,93041,1,8,0:0:0:0:
256,128,93964,1,8,0:0:0:0:
256,128,94425,1,8,0:0:0:0:
256,128,94656,1,0,0:0:0:0:
256,128,94887,1,8,0:0:0:0:
256,128,95349,1,8,0:0:0:0:
256,128,95810,2,8,L|480:128,1,210
256,128,96733,1,0,0:0:0:0:
256,128,97656,1,0,0:0:0:0:
256,128,98118,1,8,0:0:0:0:
256,128,98579,1,0,0:0:0:0:
256,128,99272,1,0,0:0:0:0:
256,128,99502,1,8,0:0:0:0:
256,128,99733,1,8,0:0:0:0:
256,128,100079,1,0,0:0:0:0:
256,128,100425,1,0,0:0:0:0:
256,128,100887,1,8,0:0:0:0:
256,128,101349,1,8,0:0:0:0:
256,128,101810,1,0,0:0:0:0:
256,128,102502,1,8,0:0:0:0:
256,128,103195,1,0,0:0:0:0:
256,128,103541,1,8,0:0:0:0:
256,128,104579,1,0,0:0:0:0:
256,128,105041,1,8,0:0:0:0:
256,128,105387,1,8,0:0:0:0:
256,128,105733,1,8,0:0:0:0:
256,128,105964,1,0,0:0:0:0:
256,128,106887,1,8,0:0:0:0:
224,128,107233,1,8,0:0:0:0:
256,128,107464,1,0,0:0:0:0:
256,128,107810,1,0,0:0:0:0:
256,128,108272,1,8,0:0:0:0:
256,128,108733,1,8,0:0:0:0:
256,128,109195,1,4,0:0:0:0:
256,128,111502,1,8,0:0:0:0:
256,128,111964,1,0,0:0:0:0:
256,128,112425,1,0,0:0:0:0:
256,128,112656,1,8,0:0:0:0:
256,128,113118,1,0,0:0:0:0:
256,128,113349,1,0,0:0:0:0:
256,128,114272,1,8,0:0:0:0:
224,128,114502,1,8,0:0:0:0:
224,128,114849,1,0,0:0:0:0:
224,128,115195,1,8,0:0:0:0:
256,96,116118,1,8,0:0:0:0:
256,96,116579,1,0,0:0:0:0:
256,96,117272,1,8,0:0:0:0:
256,96,117502,1,8,0:0:0:0:
256,96,117964,1,8,0:0:0:0:
256,96,118195,1,0,0:0:0:0:
256,96,118425,1,8,0:0:0:0:
256,96,118887,1,0,0:0:0:0:
256,96,119349,1,0,0:0:0:0:
256,96,119810,1,8,0:0:0:0:
256,96,120272,1,8,0:0:0:0:
256,96,120733,1,0,0:0:0:0:
256,96,121656,1,8,0:0:0:0:
256,96,121887,1,0,0:0:0:0:
256,96,122233,1,8,0:0:0:0:
256,96,122810,1,8,0:0:0:0:
256,96,123156,1,0,0:0:0:0:
256,96,123502,1,8,0:0:0:0:
256,96,123849,1,12,0:0:0:0:
256,96,124195,1,4,0:0:0:0:
224,96,125349,1,8,0:0:0:0:
224,96,125810,1,8,0:0:0:0:
256,96,126272,1,8,0:0:0:0:
256,96,126502,1,0,0:0:0:0:
256,96,126733,1,8,0:0:0:0:
256,96,127425,1,0,0:0:0:0:
256,96,127656,1,8,0:0:0:0:
256,96,128118,1,8,0:0:0:0:
256,96,128464,1,8,0:0:0:0:
256,96,128695,1,0,0:0:0:0:
256,96,128925,1,0,0:0:0:0:
256,96,129272,1,8,0:0:0:0:
256,96,129964,1,8,0:0:0:0:
256,96,130195,1,0,0:0:0:0:
256,96,130425,1,8,0:0:0:0:
256,96,130772,1,0,0:0:0:0:
256,96,131233,1,8,0:0:0:0:
256,96,131810,1,8,0:0:0:0:
256,96,132156,1,0,0:0:0:0:
256,96,132502,1,8,0:0:0:0:
256,96,132849,1,0,0:0:0:0:
256,96,133656,1,8,0:0:0:0:
256,96,133887,1,0,0:0:0:0:
256,96,134118,1,8,0:0:0:0:
256,96,134810,1,0,0:0:0:0:
256,96,135041,1,8,0:0:0:0:
256,96,135502,1,8,0:0:0:0:
256,96,135849,1,8,0:0:0:0:
256,96,136310,1,0,0:0:0:0:
256,96,136656,1,8,0:0:0:0:
256,96,137579,1,8,0:0:0:0:
256,96,137925,1,0,0:0:0:0:
256,96,138272,1,8,0:0:0:0:
256,96,138618,1,12,0:0:0:0:
256,96,138964,1,4,0:0:0:0:
256,96,141041,5,0,0:0:0:0:
256,128,141964,1,0,0:0:0:0:
256,128,142887,1,0,0:0:0:0:
256,128,143810,1,0,0:0:0:0:
256,128,144041,1,0,0:0:0:0:
256,128,144272,1,0,0:0:0:0:
256,128,144733,1,0,0:0:0:0:
256,128,145656,1,0,0:0:0:0:
256,128,146118,1,12,0:0:0:0:
256,128,148425,1,0,0:0:0:0:
256,128,149349,1,0,0:0:0:0:
256,128,150272,1,0,0:0:0:0:
256,128,150733,1,0,0:0:0:0:
256,128,151195,1,0,0:0:0:0:
256,128,151656,1,0,0:0:0:0:
256,128,151887,1,0,0:0:0:0:
256,128,152118,1,0,0:0:0:0:
256,128,153041,1,0,0:0:0:0:
256,128,153502,1,12,0:0:0:0:
256,128,155349,1,8,0:0:0:0:
256,128,155810,1,8,0:0:0:0:
256,128,156733,1,0,0:0:0:0:
256,128,157656,1,8,0:0:0:0:
256,128,159502,1,8,0:0:0:0:
256,128,160425,1,0,0:0:0:0:
256,128,161349,1,0,0:0:0:0:
256,128,163195,1,8,0:0:0:0:
256,128,164118,1,0,0:0:0:0:
256,128,165041,1,8,0:0:0:0:
256,128,165964,1,0,0:0:0:0:
256,128,166425,1,0,0:0:0:0:
256,128,166887,1,8,0:0:0:0:
256,192,168502,12,0,171502,0:0:0:0:
