osu file format v14

[General]
AudioFilename: audio.mp3
AudioLeadIn: 0
PreviewTime: 42062
Countdown: 0
SampleSet: Soft
StackLeniency: 1
Mode: 0
LetterboxInBreaks: 0
WidescreenStoryboard: 0

[Editor]
DistanceSpacing: 1.1
BeatDivisor: 8
GridSize: 16
TimelineZoom: 1.7

[Metadata]
Title:Heart Function
TitleUnicode:Heart Function
Artist:O2i3
ArtistUnicode:O2i3
Creator:VINXIS
Version:Extra
Source:osu!
Tags:toybot vikala hardstyle electronic edm dance music rhythm game kirara anthems records volume vol. 3
BeatmapID:2367250
BeatmapSetID:1133480

[Difficulty]
HPDrainRate:6
CircleSize:4
OverallDifficulty:8
ApproachRate:9
SliderMultiplier:1.4
SliderTickRate:1

[Events]
//Background and Video events
0,0,"74279906_p011.png",0,0
//Break Periods
//Storyboard Layer 0 (Background)
//Storyboard Layer 1 (Fail)
//Storyboard Layer 2 (Pass)
//Storyboard Layer 3 (Foreground)
//Storyboard Layer 4 (Overlay)
//Storyboard Sound Samples

[TimingPoints]
873,324.324324324324,4,2,0,80,1,0
3467,-83.3333333333333,4,2,0,80,0,0
6062,-100,4,2,0,80,0,0
8656,-83.3333333333333,4,2,0,80,0,0
10602,-71.4285714285714,4,2,0,80,0,0
11251,-62.5,4,2,0,80,0,0
21629,-125,4,2,0,40,0,0
32008,-100,4,2,0,60,0,0
37197,-83.3333333333333,4,2,0,60,0,0
41089,-333.333333333333,4,2,0,60,0,0
41143,-333.333333333333,4,2,0,30,0,0
42062,-52.6315789473684,4,2,0,30,0,0
42386,-50,4,2,0,90,0,0
44656,-83.3333333333333,4,2,0,90,0,0
44981,-50,4,2,0,90,0,0
47251,-83.3333333333333,4,2,0,90,0,0
47575,-50,4,2,0,90,0,0
49845,-83.3333333333333,4,2,0,90,0,0
50170,-50,4,2,0,90,0,0
63143,-125,4,2,0,30,0,0
83251,-500,4,2,0,30,0,0
83818,-500,4,2,0,5,0,0
83900,-71.4285714285714,4,2,0,90,0,0
94278,-55.5555555555556,4,2,0,90,0,1
101413,-111.111111111111,4,2,0,90,0,1
101737,-142.857142857143,4,2,0,90,0,1
102062,-55.5555555555556,4,2,0,90,0,1
103521,-83.3333333333333,4,2,0,90,0,1
104332,-71.4285714285714,4,2,0,90,0,1
104656,-50,4,2,0,90,0,0
113737,-71.4285714285714,4,2,0,90,0,0
115359,-50,4,2,0,90,0,0
125413,-62.5,4,2,0,90,0,0
135791,-83.3333333333333,4,2,0,80,0,0
144872,-83.3333333333333,4,2,0,50,0,0
145359,-100,4,2,0,50,0,0
145683,-125,4,2,0,50,0,0

[Colours]
Combo1 : 17,254,176
Combo2 : 173,255,95
Combo3 : 255,88,100
Combo4 : 255,94,55

[HitObjects]
92,138,873,6,0,L|190:144,1,70,6|0,1:2|0:0,0:0:0:0:
355,167,1197,2,0,L|257:161,1,70,6|0,1:2|0:0,0:0:0:0:
255,114,1521,5,0,1:0:0:0:
227,229,1683,1,0,0:0:0:0:
255,114,1845,5,0,1:0:0:0:
227,229,2007,1,0,0:0:0:0:
255,114,2170,5,0,1:0:0:0:
227,229,2332,1,0,0:0:0:0:
255,114,2494,5,0,1:0:0:0:
227,229,2656,1,0,0:0:0:0:
255,114,2818,5,0,1:0:0:0:
227,229,2980,1,0,0:0:0:0:
255,114,3143,5,0,1:0:0:0:
227,229,3305,1,0,0:0:0:0:
255,114,3467,6,0,L|353:120,1,83.9999974365235,6|0,1:2|0:0,0:0:0:0:
349,7,3791,2,0,L|251:1,1,83.9999974365235,6|0,1:2|0:0,0:0:0:0:
424,88,4116,5,0,1:0:0:0:
435,222,4278,1,0,0:0:0:0:
424,88,4440,5,0,1:0:0:0:
435,222,4602,1,0,0:0:0:0:
424,88,4764,5,0,1:0:0:0:
435,222,4926,1,0,0:0:0:0:
424,88,5089,5,0,1:0:0:0:
435,222,5251,1,0,0:0:0:0:
424,88,5413,5,0,1:0:0:0:
445,242,5575,1,0,0:0:0:0:
424,88,5737,5,0,1:0:0:0:
455,262,5899,1,0,0:0:0:0:
284,209,6062,6,0,P|278:260|285:306,1,70,4|0,1:2|0:0,0:0:0:0:
128,173,6386,2,0,P|134:122|127:76,1,70,4|0,1:2|0:0,0:0:0:0:
191,47,6710,5,0,1:0:0:0:
65,70,6872,1,0,0:0:0:0:
191,47,7035,5,0,1:0:0:0:
65,70,7197,1,0,0:0:0:0:
191,47,7359,5,0,1:0:0:0:
65,70,7521,1,0,0:0:0:0:
191,47,7683,5,0,1:0:0:0:
65,70,7845,1,0,0:0:0:0:
191,47,8008,5,0,1:0:0:0:
65,70,8170,1,0,0:0:0:0:
191,47,8332,5,0,1:0:0:0:
65,70,8494,1,0,0:0:0:0:
256,113,8656,6,0,L|356:105,1,83.9999974365235,4|0,1:2|0:0,0:0:0:0:
166,245,8981,2,0,L|66:237,1,83.9999974365235,4|0,1:2|0:0,0:0:0:0:
276,350,9305,5,0,1:0:0:0:
307,207,9467,1,0,0:0:0:0:
276,350,9629,5,0,1:0:0:0:
307,207,9791,1,0,0:0:0:0:
276,350,9954,6,0,P|247:306|240:263,1,83.9999974365235,2|0,0:0|0:0,0:0:0:0:
361,135,10278,2,0,P|390:179|397:222,1,83.9999974365235,2|0,0:0|0:0,0:0:0:0:
167,234,10602,6,0,P|160:168|181:104,1,97.9999970092774,2|0,0:0|0:0,0:0:0:0:
466,253,10927,2,0,P|473:319|452:383,1,97.9999970092774,2|0,0:0|0:0,0:0:0:0:
95,98,11251,6,0,P|132:45|267:30,1,168,6|0,1:2|0:0,0:0:0:0:
256,18,11575,2,0,L|384:31,1,112,6|0,1:2|0:0,0:0:0:0:
456,81,11900,5,0,1:0:0:0:
454,94,11981,1,0,0:0:0:0:
452,108,12062,1,0,0:0:0:0:
450,122,12143,1,0,0:0:0:0:
448,136,12224,5,0,1:0:0:0:
449,149,12305,1,0,0:0:0:0:
451,163,12386,1,0,0:0:0:0:
453,177,12467,1,0,0:0:0:0:
455,191,12548,5,0,1:0:0:0:
453,204,12629,1,0,0:0:0:0:
451,218,12710,1,0,0:0:0:0:
449,232,12791,1,0,0:0:0:0:
447,246,12873,5,0,1:0:0:0:
448,259,12954,1,0,0:0:0:0:
450,273,13035,1,0,0:0:0:0:
452,287,13116,1,0,0:0:0:0:
454,301,13197,5,0,1:0:0:0:
452,314,13278,1,0,0:0:0:0:
450,328,13359,1,0,0:0:0:0:
448,342,13440,1,0,0:0:0:0:
450,360,13521,1,0,1:0:0:0:
450,360,13845,6,0,B|375:362|375:362|358:374|358:374|278:376,1,168,6|0,1:2|0:0,0:0:0:0:
261,375,14170,2,0,L|260:251,1,112,6|0,1:2|0:0,0:0:0:0:
408,20,14494,5,0,1:0:0:0:
383,8,14575,1,0,0:0:0:0:
355,3,14656,1,0,0:0:0:0:
327,5,14737,1,0,0:0:0:0:
301,15,14818,5,0,1:0:0:0:
273,17,14899,1,0,0:0:0:0:
246,26,14980,1,0,0:0:0:0:
223,42,15061,1,0,0:0:0:0:
206,64,15143,5,0,1:0:0:0:
182,80,15224,1,0,0:0:0:0:
163,102,15305,1,0,0:0:0:0:
151,127,15386,1,0,0:0:0:0:
148,154,15467,5,0,1:0:0:0:
135,179,15548,1,0,0:0:0:0:
129,208,15629,1,0,0:0:0:0:
131,236,15710,1,0,0:0:0:0:
142,260,15791,5,0,1:0:0:0:
143,288,15872,1,0,0:0:0:0:
152,316,15953,1,0,0:0:0:0:
168,339,16034,1,0,0:0:0:0:
189,354,16115,1,0,1:0:0:0:
302,365,16278,1,0,0:0:0:0:
33,374,16440,6,0,P|49:250|16:172,1,168,6|0,1:2|0:0,0:0:0:0:
14,183,16764,2,0,L|154:169,1,112,6|0,1:2|0:0,0:0:0:0:
181,104,17089,5,0,1:0:0:0:
194,106,17170,1,0,0:0:0:0:
208,109,17251,1,0,0:0:0:0:
222,111,17332,1,0,0:0:0:0:
236,114,17413,5,0,1:0:0:0:
249,112,17494,1,0,0:0:0:0:
263,109,17575,1,0,0:0:0:0:
277,107,17656,1,0,0:0:0:0:
291,104,17737,5,0,1:0:0:0:
304,106,17818,1,0,0:0:0:0:
318,109,17899,1,0,0:0:0:0:
332,111,17980,1,0,0:0:0:0:
346,114,18062,5,0,1:0:0:0:
359,112,18143,1,0,0:0:0:0:
373,109,18224,1,0,0:0:0:0:
387,107,18305,1,0,0:0:0:0:
401,104,18386,5,0,1:0:0:0:
414,106,18467,1,0,0:0:0:0:
428,109,18548,1,0,0:0:0:0:
442,111,18629,1,0,0:0:0:0:
460,118,18710,1,0,1:0:0:0:
460,118,19035,6,0,B|481:199|481:199|453:280,1,168,6|0,1:2|0:0,0:0:0:0:
465,298,19359,2,0,L|343:285,1,112,6|0,1:2|0:0,0:0:0:0:
255,330,19683,5,0,1:0:0:0:
214,320,19764,1,0,0:0:0:0:
180,296,19845,1,0,0:0:0:0:
157,260,19926,1,0,0:0:0:0:
150,219,20008,5,0,1:0:0:0:
119,189,20089,1,0,0:0:0:0:
102,152,20170,1,0,0:0:0:0:
100,109,20251,1,0,0:0:0:0:
114,70,20332,5,6,1:2:0:0:
114,70,21629,6,0,P|173:88|290:63,1,168,2|2,0:0|0:0,0:0:0:0:
510,110,22927,2,0,P|451:92|334:117,2,168,2|2|2,0:0|0:0|0:0,0:0:0:0:
276,70,24224,5,2,0:0:0:0:
276,70,24710,2,0,B|262:123|262:123|278:152|278:152|248:219|266:300,1,224,2|0,0:0|0:0,0:0:0:0:
481,303,25521,6,0,P|457:248|402:221,1,112,2|0,0:0|0:0,0:0:0:0:
347,288,26008,2,0,P|371:343|426:370,1,112,2|2,0:0|0:0,0:0:0:0:
68,201,26818,6,0,P|50:267|57:388,1,168,2|2,0:0|0:0,0:0:0:0:
52,366,28116,2,0,P|155:351|225:359,2,168,2|2|2,0:0|0:0|0:0,0:0:0:0:
218,357,29413,6,0,B|293:354|293:354|313:369|313:369|404:363,1,168,2|2,0:0|0:0,0:0:0:0:
380,364,30710,2,0,P|399:259|392:234,1,112,2|0,0:0|0:0,0:0:0:0:
298,245,31197,2,0,P|279:350|286:375,1,112,2|2,0:0|0:0,0:0:0:0:
114,70,32008,5,4,0:2:0:0:
201,64,32170,2,0,L|195:161,1,70,2|0,0:0|0:0,0:0:0:0:
163,153,32413,2,0,L|93:148,1,70,2|0,0:0|0:0,0:0:0:0:
69,165,32656,2,0,L|61:293,2,105,2|2|2,0:0|0:0|0:0,0:0:0:0:
120,329,33305,5,2,0:0:0:0:
184,267,33467,2,0,P|238:267|275:283,1,70,2|0,0:0|0:0,0:0:0:0:
283,256,33710,2,0,P|290:221|287:187,1,70,2|0,0:0|0:0,0:0:0:0:
321,167,33954,2,0,P|313:132|316:98,1,70,2|0,0:0|0:0,0:0:0:0:
341,70,34197,2,0,P|374:80|402:100,1,70,2|0,0:0|0:0,0:0:0:0:
415,135,34440,2,0,P|389:158|357:173,1,70,2|2,0:0|0:0,0:0:0:0:
204,130,34764,6,0,L|215:42,1,70,2|0,0:0|0:0,0:0:0:0:
192,32,35008,2,0,L|122:23,1,70,2|0,0:0|0:0,0:0:0:0:
94,44,35251,2,0,L|79:161,2,105,2|2|2,0:0|0:0|0:0,0:0:0:0:
141,217,35900,5,2,0:0:0:0:
202,147,36062,2,0,P|266:148|301:157,1,70,2|0,0:0|0:0,0:0:0:0:
301,167,36305,2,0,P|365:166|400:157,1,70,2|0,0:0|0:0,0:0:0:0:
399,145,36548,1,2,0:0:0:0:
440,36,36710,1,0,0:0:0:0:
440,36,36791,1,2,0:0:0:0:
512,202,36954,1,0,0:0:0:0:
512,202,37035,1,2,0:0:0:0:
320,268,37197,6,0,L|333:367,1,83.9999974365235,2|2,1:2|0:0,0:0:0:0:
220,375,37521,1,0,1:0:0:0:
220,375,37602,1,2,0:0:0:0:
512,202,37845,5,0,1:0:0:0:
512,202,37927,1,2,0:0:0:0:
403,149,38089,1,2,0:0:0:0:
403,149,38170,1,0,1:0:0:0:
494,83,38332,1,2,0:0:0:0:
320,11,38494,6,0,P|329:54|330:105,1,83.9999974365235,2|2,1:2|0:0,0:0:0:0:
403,149,38818,1,0,1:0:0:0:
403,149,38899,1,2,0:0:0:0:
109,149,39143,5,0,1:0:0:0:
109,149,39224,1,2,0:0:0:0:
122,32,39386,1,2,0:0:0:0:
122,32,39467,1,0,1:0:0:0:
239,45,39629,1,2,0:0:0:0:
226,162,39791,5,2,1:2:0:0:
298,216,39954,2,0,L|290:323,1,83.9999974365235,2|0,0:0|1:0,0:0:0:0:
291,299,40197,1,2,0:0:0:0:
388,94,40440,5,0,1:0:0:0:
388,94,40521,1,2,0:0:0:0:
475,188,40683,1,2,0:0:0:0:
475,188,40764,1,0,1:0:0:0:
508,70,40927,1,2,0:0:0:0:
295,56,41089,6,0,P|241:53|218:111,1,115.49999647522,6|0,1:2|0:0,0:0:0:0:
243,114,42062,6,0,L|148:101,1,66.4999982242585,2|0,0:0|0:0,0:0:0:0:
243,114,42386,5,6,1:2:0:0:
98,132,42548,1,0,0:0:0:0:
98,132,42629,1,0,0:0:0:0:
98,132,42710,1,8,1:2:0:0:
66,16,42872,1,0,0:0:0:0:
98,132,43035,2,2,P|99:238|83:298,1,140,0|0,1:0|0:0,0:1:0:0:
151,344,43359,1,8,1:2:0:0:
15,224,43521,1,2,0:0:0:0:
214,256,43683,5,0,1:0:0:0:
32,347,43845,1,2,0:0:0:0:
277,331,44008,2,2,B|362:324|362:324|389:339|389:339|482:329,1,210,8|0,1:2|0:0,0:1:0:0:
482,328,44332,1,0,1:0:0:0:
436,136,44494,1,0,0:0:0:0:
436,136,44575,1,0,0:0:0:0:
436,136,44656,6,2,P|436:211|396:269,1,125.999996154785,8|0,1:2|0:0,0:1:0:0:
411,253,44981,5,6,1:2:0:0:
267,358,45143,1,0,0:0:0:0:
267,358,45224,1,0,0:0:0:0:
267,358,45305,1,8,1:2:0:0:
254,200,45467,1,0,0:0:0:0:
267,358,45629,2,2,P|178:319|86:320,1,140,0|0,1:0|0:0,0:1:0:0:
69,241,45954,1,8,1:2:0:0:
73,370,46116,1,2,0:0:0:0:
146,183,46278,5,0,1:0:0:0:
10,313,46440,1,2,0:0:0:0:
0,152,46602,2,2,B|12:5|12:5|40:74,1,210,8|0,1:2|0:0,0:1:0:0:
35,62,46927,1,0,1:0:0:0:
194,61,47089,1,0,0:0:0:0:
353,63,47251,6,2,P|360:142|359:218,1,125.999996154785,8|0,1:2|0:0,0:1:0:0:
360,189,47575,5,6,1:2:0:0:
498,287,47737,1,0,0:0:0:0:
498,287,47818,1,0,0:0:0:0:
498,287,47900,1,8,1:2:0:0:
473,167,48062,1,0,0:0:0:0:
386,310,48224,2,2,P|304:312|193:298,1,140,0|0,1:2|0:0,0:1:0:0:
181,384,48548,1,8,1:2:0:0:
181,384,48710,1,2,0:0:0:0:
224,178,48872,5,0,1:0:0:0:
381,133,49035,1,2,0:0:0:0:
181,106,49197,2,2,B|141:154|141:154|176:360,1,210,8|0,1:2|0:0,0:1:0:0:
165,299,49521,1,0,1:0:0:0:
345,320,49683,1,0,0:0:0:0:
345,320,49764,1,0,0:0:0:0:
345,320,49845,6,2,P|355:243|323:174,1,125.999996154785,8|0,1:2|0:0,0:1:0:0:
339,198,50170,5,6,1:2:0:0:
450,215,50332,1,0,0:0:0:0:
450,215,50413,1,0,0:0:0:0:
450,215,50494,1,8,1:2:0:0:
349,100,50656,1,0,0:0:0:0:
500,1,50818,2,2,P|480:79|493:156,1,140,0|0,1:0|0:0,0:1:0:0:
254,185,51143,1,8,1:2:0:0:
240,4,51305,1,0,0:0:0:0:
349,100,51467,5,4,1:3:0:0:
163,100,51629,1,0,1:0:0:0:
159,134,51710,1,0,1:0:0:0:
156,169,51791,1,8,1:3:0:0:
155,204,51872,1,0,1:0:0:0:
156,239,51953,1,0,1:0:0:0:
158,274,52034,1,0,1:0:0:0:
162,309,52115,1,8,1:3:0:0:
109,384,52278,1,0,3:0:0:0:
109,384,52359,1,0,3:0:0:0:
109,384,52440,1,0,1:0:0:0:
275,370,52602,1,0,0:0:0:0:
256,192,52764,5,6,1:2:0:0:
256,192,52927,1,0,0:0:0:0:
71,190,53089,5,14,1:2:0:0:
71,190,53251,2,2,L|59:298,1,70,2|0,0:0|0:0,0:1:0:0:
160,267,53413,1,0,1:0:0:0:
160,267,53575,2,2,L|172:159,1,70,2|0,0:0|0:0,0:1:0:0:
201,109,53737,1,8,1:2:0:0:
201,109,53899,2,2,L|189:1,1,70,2|0,0:0|0:0,0:1:0:0:
347,153,54062,5,0,1:0:0:0:
347,153,54224,2,2,L|335:261,1,70,2|0,0:0|0:0,0:1:0:0:
433,235,54386,1,8,1:2:0:0:
433,235,54548,2,2,L|445:127,1,70,2|0,0:0|0:0,0:1:0:0:
496,96,54710,1,0,1:0:0:0:
496,96,54872,2,2,L|409:82,1,70,2|0,0:0|0:0,0:1:0:0:
270,6,55035,2,2,P|344:19|451:-13,1,140,8|0,1:2|0:0,0:1:0:0:
277,286,55359,6,0,P|203:273|96:305,1,140,6|0,1:2|0:0,0:0:0:0:
21,355,55683,1,8,1:2:0:0:
21,355,55845,2,2,L|34:255,1,70,2|0,0:0|0:0,0:1:0:0:
105,201,56008,1,0,1:0:0:0:
105,201,56170,2,2,L|92:101,1,70,2|0,0:0|0:0,0:1:0:0:
9,17,56332,1,8,1:2:0:0:
9,17,56494,2,2,L|-4:117,1,70,2|0,0:0|0:0,0:1:0:0:
171,79,56656,5,0,1:0:0:0:
171,79,56818,2,2,L|184:-21,1,70,2|0,0:0|0:0,0:1:0:0:
338,0,56981,1,8,1:2:0:0:
338,0,57143,2,2,L|325:100,1,70,2|0,0:0|0:0,0:1:0:0:
244,232,57305,1,0,1:0:0:0:
244,232,57467,2,2,L|257:132,1,70,2|0,0:0|0:0,0:1:0:0:
368,169,57629,2,2,P|373:243|334:355,1,140,8|0,1:2|0:0,0:1:0:0:
144,215,57954,6,0,P|139:141|178:29,1,140,6|0,1:2|0:0,0:0:0:0:
48,22,58278,1,8,1:2:0:0:
48,22,58440,2,2,L|52:111,1,70,2|0,0:0|0:0,0:1:0:0:
245,17,58602,1,0,1:0:0:0:
245,17,58764,2,2,L|241:106,1,70,2|0,0:0|0:0,0:1:0:0:
247,182,58927,1,8,1:2:0:0:
247,182,59089,2,2,L|336:178,1,70,2|0,0:0|0:0,0:1:0:0:
474,181,59251,5,0,1:0:0:0:
474,181,59413,2,2,L|470:270,1,70,2|0,0:0|0:0,0:1:0:0:
349,350,59575,1,8,1:2:0:0:
349,350,59737,2,2,L|345:261,1,70,2|0,0:0|0:0,0:1:0:0:
400,75,59900,1,0,1:0:0:0:
400,75,60062,2,2,L|396:164,1,70,2|0,0:0|0:0,0:1:0:0:
234,153,60224,2,2,P|229:66|257:-5,1,140,8|0,1:2|0:0,0:1:0:0:
126,13,60548,5,6,0:2:0:0:
54,99,60710,1,0,1:0:0:0:
54,99,60791,1,0,1:0:0:0:
54,99,60872,1,8,1:2:0:0:
139,152,61035,1,0,1:0:0:0:
139,152,61116,1,0,1:0:0:0:
139,152,61197,1,8,1:2:0:0:
59,223,61359,1,0,1:0:0:0:
59,223,61440,1,0,1:0:0:0:
59,223,61521,1,8,1:2:0:0:
140,302,61683,1,0,1:0:0:0:
140,302,61764,1,0,1:0:0:0:
140,302,61845,6,0,L|216:301,1,70,8|0,1:2|0:0,0:0:0:0:
300,207,62008,1,0,1:0:0:0:
300,207,62089,1,0,1:0:0:0:
300,207,62170,2,0,L|224:206,1,70,8|0,1:2|0:0,0:0:0:0:
322,369,62332,1,0,1:0:0:0:
322,369,62413,1,0,1:0:0:0:
322,369,62494,1,8,1:2:0:0:
420,246,62656,1,0,1:0:0:0:
420,246,62737,1,0,1:0:0:0:
420,246,62818,1,8,1:1:0:0:
92,138,63143,6,0,L|92:105,4,18.6666666666667,6|0|0|0|0,0:0|0:0|0:0|0:0|0:0,0:0:0:0:
193,98,65656,6,0,L|193:33,2,37.3333333333333,2|0|0,0:0|0:0|0:0,0:0:0:0:
193,98,68332,5,2,0:0:0:0:
219,365,68818,2,0,L|219:337,1,28,2|0,0:0|0:0,0:0:0:0:
222,309,68981,2,0,L|289:305,1,56,2|0,0:0|0:0,0:0:0:0:
275,214,69305,2,0,L|219:217,1,56,2|0,0:0|0:0,0:0:0:0:
153,176,69629,5,2,0:0:0:0:
85,232,69791,1,0,0:0:0:0:
90,41,70116,1,2,0:0:0:0:
90,41,70440,2,0,L|94:104,2,56,0|2|0,0:0|0:0|0:0,0:0:0:0:
173,10,70927,5,2,0:0:0:0:
339,374,72224,1,2,0:0:0:0:
196,293,72872,1,2,0:0:0:0:
313,170,73521,6,0,L|313:135,4,18.6666666666667,2|0|0|0|0,0:0|0:0|0:0|0:0|0:0,0:0:0:0:
173,55,76035,6,0,L|173:120,2,37.3333333333333,2|0|0,0:0|0:0|0:0,0:0:0:0:
173,55,78710,5,2,0:0:0:0:
422,33,79197,2,0,L|390:35,1,28,2|0,0:0|0:0,0:0:0:0:
366,36,79359,2,0,L|362:103,1,56,2|0,0:0|0:0,0:0:0:0:
451,116,79683,2,0,L|447:171,1,56,2|0,0:0|0:0,0:0:0:0:
489,260,80008,5,2,0:0:0:0:
489,260,80170,1,2,0:0:0:0:
375,224,80332,1,0,0:0:0:0:
411,332,80494,1,2,0:0:0:0:
101,332,80818,1,0,0:0:0:0:
137,224,80980,1,2,0:0:0:0:
23,260,81142,1,0,0:0:0:0:
256,192,81305,5,2,0:0:0:0:
256,192,81386,12,2,82602,0:0:0:0:
256,192,83251,6,0,L|256:240,1,49,4|0,1:1|0:0,0:0:0:0:
257,174,83900,6,0,P|337:193|378:185,1,97.9999970092774,14|0,0:0|0:0,0:0:0:0:
512,76,84224,2,0,P|455:135|441:175,1,97.9999970092774,10|0,0:0|0:0,0:0:0:0:
469,345,84548,2,0,P|445:266|418:234,1,97.9999970092774,10|0,0:0|0:0,0:0:0:0:
352,191,84872,5,10,0:0:0:0:
269,229,85035,1,0,0:0:0:0:
203,166,85197,1,10,0:0:0:0:
120,204,85360,1,0,0:0:0:0:
50,147,85521,2,0,P|52:63|64:-30,1,146.999995513916,10|0,0:0|0:0,0:0:0:0:
58,0,85845,5,10,0:0:0:0:
156,65,86008,1,0,0:0:0:0:
156,65,86089,1,0,0:0:0:0:
156,65,86170,1,8,0:0:0:0:
267,16,86332,1,0,0:0:0:0:
401,85,86494,6,0,P|409:142|407:196,1,97.9999970092774,10|0,0:2|0:0,0:0:0:0:
241,305,86818,2,0,P|187:283|141:254,1,97.9999970092774,10|0,0:2|0:0,0:0:0:0:
130,56,87143,2,0,P|175:20|223:-4,1,97.9999970092774,10|0,0:2|0:0,0:0:0:0:
273,190,87467,5,10,0:0:0:0:
273,190,87629,1,0,0:0:0:0:
143,183,87791,1,10,0:0:0:0:
143,183,87954,1,0,0:0:0:0:
10,164,88116,2,0,L|1:269,1,97.9999970092774,10|0,0:0|0:0,0:0:0:0:
183,348,88440,1,10,0:0:0:0:
97,270,88602,1,0,0:0:0:0:
97,270,88683,1,0,0:0:0:0:
97,270,88764,2,0,L|88:367,1,97.9999970092774,10|0,0:0|0:0,0:0:0:0:
353,360,89089,6,0,L|362:263,1,97.9999970092774,10|0,0:0|0:0,0:0:0:0:
159,24,89413,2,0,L|150:121,1,97.9999970092774,10|0,0:0|0:0,0:0:0:0:
424,95,89737,2,0,L|327:86,1,97.9999970092774,10|0,1:2|0:0,0:0:0:0:
88,289,90061,2,0,L|185:298,1,97.9999970092774,10|0,1:2|0:0,0:0:0:0:
256,192,90386,5,10,1:2:0:0:
256,192,90548,1,0,0:0:0:0:
435,212,90710,2,0,P|442:275|434:328,1,97.9999970092774,10|0,1:2|0:0,0:0:0:0:
77,172,91035,2,0,P|70:109|78:56,1,97.9999970092774,10|0,1:2|0:0,0:0:0:0:
73,74,91278,1,0,0:0:0:0:
73,74,91359,1,10,1:2:0:0:
8,31,91521,1,0,0:0:0:0:
504,353,91845,6,0,L|395:347,2,97.9999970092774,2|0|0,0:0|0:0|0:0,0:0:0:0:
329,370,92332,1,2,0:0:0:0:
325,269,92494,1,0,0:0:0:0:
187,115,92818,5,0,0:0:0:0:
187,115,92900,1,0,0:0:0:0:
187,115,92981,1,2,0:0:0:0:
247,23,93143,1,0,0:0:0:0:
121,43,93305,2,0,P|75:13|1:9,1,97.9999970092774,2|0,0:0|0:0,0:0:0:0:
89,128,93629,1,2,0:0:0:0:
0,192,93791,1,0,0:0:0:0:
87,315,93954,2,0,P|40:305|0:277,1,97.9999970092774,2|0,0:0|0:0,0:0:0:0:
196,192,94278,5,6,1:2:0:0:
196,192,94440,2,0,L|198:122,1,62.9999980773926
247,53,94602,6,2,B|311:43|311:43|353:61|353:61|436:51,1,188.999994232178,2|0,1:2|0:0,0:1:0:0:
451,47,94927,2,2,L|447:251,1,188.999994232178,0|0,1:0|0:1,0:1:0:0:
462,270,95251,2,2,B|405:288|405:288|370:246|370:246|240:231,1,188.999994232178,0|0,1:0|0:0,0:1:0:0:
271,232,95575,6,2,B|255:293|255:293|275:356,1,125.999996154785,0|0,1:0|0:0,0:1:0:0:
200,380,95818,1,0,0:0:0:0:
200,380,95900,2,0,L|114:369,1,62.9999980773926,2|0,1:0|0:0,0:0:0:0:
166,286,96062,2,0,L|80:275,1,62.9999980773926,2|0,1:0|0:0,0:0:0:0:
132,192,96224,1,2,1:2:0:0:
85,186,96305,1,0,3:0:0:0:
47,158,96386,1,0,3:0:0:0:
27,116,96467,1,0,3:0:0:0:
30,69,96548,1,8,1:1:0:0:
481,69,96872,6,2,B|423:64|423:64|408:99|392:125|392:125|288:117,1,188.999994232178,2|0,1:2|0:0,0:1:0:0:
314,143,97197,2,2,B|361:189|361:189|350:361,1,188.999994232178,0|0,1:0|0:0,0:1:0:0:
337,337,97521,2,2,B|468:305|468:305|481:365,1,188.999994232178,0|0,1:0|0:0,0:1:0:0:
455,373,97845,2,2,L|467:171,1,188.999994232178,0|0,1:0|0:0,0:1:0:0:
462,163,98170,6,2,B|409:144|409:144|336:157|336:157|381:117,1,188.999994232178,0|0,1:0|0:0,0:1:0:0:
379,118,98494,1,0,1:0:0:0:
337,337,98656,1,0,0:0:0:0:
119,295,98818,6,0,P|61:300|25:376,1,125.999996154785,2|0,1:2|0:0,0:0:0:0:
9,213,99143,1,0,1:0:0:0:
54,201,99224,1,0,0:0:0:0:
89,170,99305,1,0,0:0:0:0:
108,127,99386,1,0,0:0:0:0:
106,80,99467,6,0,B|166:62|166:62|237:88,1,125.999996154785,2|0,1:2|0:0,0:0:0:0:
448,37,99791,5,0,1:0:0:0:
463,39,99872,1,0,0:0:0:0:
479,42,99953,1,0,0:0:0:0:
494,45,100034,1,0,0:0:0:0:
510,48,100116,5,0,1:0:0:0:
512,79,100197,1,0,0:0:0:0:
509,110,100278,1,0,0:0:0:0:
500,140,100359,1,0,0:0:0:0:
486,168,100440,5,0,1:0:0:0:
473,213,100521,1,0,0:0:0:0:
468,260,100602,1,0,0:0:0:0:
471,307,100683,1,0,0:0:0:0:
481,353,100764,5,0,1:0:0:0:
426,343,100845,1,0,0:0:0:0:
372,336,100926,1,0,0:0:0:0:
316,334,101007,1,0,0:0:0:0:
262,344,101088,5,0,1:0:0:0:
211,363,101169,1,0,0:0:0:0:
156,372,101250,1,0,0:0:0:0:
101,371,101331,1,0,0:0:0:0:
47,365,101413,6,0,L|62:248,1,94.499997116089,2|0,1:2|0:0,0:0:0:0:
29,249,101737,6,0,L|20:332,1,73.4999977569581,0|0,1:0|0:0,0:0:0:0:
114,183,102062,5,2,1:2:0:0:
20,129,102224,1,0,0:0:0:0:
20,129,102305,1,0,3:0:0:0:
20,129,102386,1,0,1:0:0:0:
162,90,102548,1,0,0:0:0:0:
201,232,102710,1,0,1:0:0:0:
59,271,102872,1,0,0:0:0:0:
280,280,103035,2,0,B|296:218|296:218|268:158,1,125.999996154785,0|0,1:0|0:0,0:0:0:0:
269,161,103521,5,2,0:0:0:0:
148,142,103683,2,0,P|150:84|167:47,1,83.9999974365235,2|0,0:0|0:0,0:0:0:0:
390,180,104008,2,0,P|388:238|371:275,1,83.9999974365235,2|0,0:0|0:0,0:0:0:0:
449,321,104332,2,0,P|396:367|279:374,1,146.999995513916,2|0,0:0|0:0,0:0:0:0:
301,372,104656,6,0,P|201:333|147:339,1,140,6|0,1:2|0:0,0:0:0:0:
179,172,104981,2,0,P|279:211|333:205,1,140,8|2,1:2|0:0,0:0:0:0:
309,209,105224,1,0,0:0:0:0:
309,209,105305,1,0,1:0:0:0:
348,61,105467,1,2,0:0:0:0:
460,194,105629,5,8,1:2:0:0:
418,0,105791,1,2,0:0:0:0:
380,142,105954,5,0,1:2:0:0:
269,0,106116,1,2,0:0:0:0:
269,0,106197,1,0,0:0:0:0:
269,0,106278,2,0,B|252:69|252:69|276:139,1,140,8|2,1:2|0:0,0:0:0:0:
209,212,106602,5,0,1:0:0:0:
380,142,106764,1,2,0:0:0:0:
52,124,106927,1,10,1:2:0:0:
52,124,107251,5,6,1:2:0:0:
88,260,107413,1,0,0:0:0:0:
186,127,107575,1,8,1:2:0:0:
301,232,107737,1,2,0:0:0:0:
301,232,107818,1,0,0:0:0:0:
301,232,107900,2,0,P|401:253|446:251,1,140,0|2,1:0|0:0,0:0:0:0:
512,301,108224,5,8,1:2:0:0:
412,168,108386,1,2,0:0:0:0:
512,60,108548,5,0,1:0:0:0:
415,340,108710,1,2,0:0:0:0:
237,112,108872,2,0,P|136:84|32:95,1,210,8|0,1:2|0:0,0:0:0:0:
32,95,109197,5,0,1:0:0:0:
295,263,109359,1,2,0:0:0:0:
102,384,109521,2,0,P|91:292|130:175,1,210,8|0,1:2|0:0,0:0:0:0:
116,155,109845,6,0,P|197:172|307:162,1,140,6|0,1:2|0:0,0:0:0:0:
433,280,110170,2,0,P|352:263|242:273,1,140,8|2,1:2|0:0,0:0:0:0:
295,263,110413,1,0,0:0:0:0:
295,263,110494,1,0,1:0:0:0:
308,112,110656,1,2,0:0:0:0:
196,255,110818,5,8,1:2:0:0:
420,187,110981,1,2,0:0:0:0:
240,337,111143,5,0,1:0:0:0:
209,111,111305,1,2,0:0:0:0:
209,111,111386,1,0,0:0:0:0:
209,111,111467,2,0,B|143:132|143:132|38:96,1,140,8|2,1:2|0:0,0:0:0:0:
17,43,111791,5,0,1:0:0:0:
39,214,111954,1,2,0:0:0:0:
339,191,112116,1,8,1:2:0:0:
339,191,112440,5,6,1:2:0:0:
213,137,112602,1,0,0:0:0:0:
176,318,112764,1,8,1:2:0:0:
315,368,112927,1,2,0:0:0:0:
315,368,113008,1,0,0:0:0:0:
315,368,113089,2,0,L|473:359,1,140,0|2,1:0|0:0,0:0:0:0:
448,92,113413,2,0,L|290:101,1,140,8|2,1:2|0:0,0:0:0:0:
138,31,113737,6,0,P|196:22|259:29,1,97.9999970092774,8|2,3:3|0:0,0:0:0:0:
246,187,114062,1,8,1:3:0:0:
222,193,114143,1,0,1:0:0:0:
197,196,114224,1,0,1:0:0:0:
173,196,114305,1,0,1:0:0:0:
148,194,114386,1,8,1:3:0:0:
5,231,114548,1,0,0:0:0:0:
5,231,114629,1,0,0:0:0:0:
5,231,114710,2,0,P|-12:278|3:379,1,146.999995513916,0|0,1:0|0:0,0:0:0:0:
96,364,115035,6,0,P|100:295|83:247,1,97.9999970092774,2|0,1:2|0:0,0:0:0:0:
162,22,115359,6,0,L|172:178,1,140,14|2,1:2|0:0,0:0:0:0:
269,294,115683,2,0,P|267:196|324:76,1,210,0|0,1:0|0:0,0:0:0:0:
302,65,116008,2,0,P|376:30|474:33,1,140,8|2,1:2|0:0,0:0:0:0:
504,218,116332,6,0,P|430:253|332:250,1,140,0|2,1:2|0:0,0:0:0:0:
71,279,116656,2,0,B|161:274|161:274|180:299|180:299|269:294,1,210,8|0,1:2|0:0,0:0:0:0:
268,294,116981,2,0,L|257:146,1,140,0|2,1:0|0:0,0:0:0:0:
153,21,117305,2,0,P|154:102|111:199,1,140,8|0,1:2|0:0,0:0:0:0:
359,363,117629,6,0,P|358:282|401:185,1,140,6|0,1:2|0:0,0:0:0:0:
512,90,117954,2,0,P|431:91|334:48,1,140,8|2,1:2|0:0,0:0:0:0:
59,125,118278,2,0,P|171:116|266:160,1,210,0|0,1:0|0:0,0:0:0:0:
258,154,118602,2,0,L|240:296,1,140,8|2,1:2|0:0,0:0:0:0:
471,373,118927,6,0,B|487:304|487:304|459:230,1,140,0|2,1:0|0:0,0:0:0:0:
512,90,119251,2,0,B|457:48|457:48|267:73,1,210,8|0,1:2|0:0,0:0:0:0:
249,20,119575,6,0,B|233:89|233:89|261:163,1,140,0|2,1:0|0:0,0:0:0:0:
191,307,119899,2,0,B|246:349|246:349|436:324,1,210,8|0,1:2|0:0,0:0:0:0:
373,302,120224,6,0,L|516:313,1,140,6|0,1:2|0:0,0:0:0:0:
512,62,120548,2,0,L|369:51,1,140,8|2,1:2|0:0,0:0:0:0:
76,82,120872,2,0,P|179:87|258:153,1,210,0|0,1:0|0:0,0:0:0:0:
233,173,121197,2,0,P|220:258|171:327,1,140,8|2,1:2|0:0,0:0:0:0:
472,315,121521,6,0,P|479:246|512:185,1,140,0|2,1:2|0:0,0:0:0:0:
319,30,121845,2,0,B|376:69|376:69|349:267,1,210,8|0,1:2|0:0,0:0:0:0:
356,208,122170,6,0,L|365:365,1,140,0|2,1:0|0:0,0:0:0:0:
108,172,122494,2,0,P|128:87|118:15,1,140,8|0,1:2|0:0,0:0:0:0:
237,8,122818,5,8,0:0:0:0:
247,139,122981,1,0,1:0:0:0:
247,139,123062,1,0,1:0:0:0:
247,139,123143,1,8,1:2:0:0:
222,260,123305,1,0,1:0:0:0:
222,260,123386,1,0,1:0:0:0:
222,260,123467,1,8,1:2:0:0:
250,384,123629,1,0,1:0:0:0:
250,384,123710,1,0,1:0:0:0:
250,384,123791,1,8,1:2:0:0:
345,271,123954,5,0,1:0:0:0:
345,271,124035,1,0,1:0:0:0:
345,271,124116,1,8,1:2:0:0:
136,182,124278,1,0,1:0:0:0:
136,182,124359,1,0,1:0:0:0:
136,182,124440,1,8,1:2:0:0:
401,142,124602,1,0,1:0:0:0:
401,142,124683,1,0,1:0:0:0:
401,142,124764,1,8,1:2:0:0:
85,49,124927,1,0,1:0:0:0:
85,49,125008,1,0,1:0:0:0:
85,49,125089,1,8,1:2:0:0:
85,49,125413,6,0,P|104:145|76:230,1,168,6|0,1:2|0:0,0:0:0:0:
72,233,125737,2,0,L|182:217,1,112,6|0,1:2|0:0,0:0:0:0:
251,271,126062,5,0,1:2:0:0:
275,274,126143,1,0,0:0:0:0:
300,278,126224,1,0,0:0:0:0:
325,281,126305,1,0,0:0:0:0:
349,285,126386,5,0,1:2:0:0:
353,260,126467,1,0,0:0:0:0:
357,235,126548,1,0,0:0:0:0:
360,209,126629,1,0,0:0:0:0:
364,185,126710,5,0,1:2:0:0:
360,160,126791,1,0,0:0:0:0:
357,135,126872,1,0,0:0:0:0:
353,110,126953,1,0,0:0:0:0:
349,85,127035,5,0,1:2:0:0:
324,81,127116,1,0,0:0:0:0:
299,77,127197,1,0,0:0:0:0:
274,74,127278,1,0,0:0:0:0:
251,71,127359,5,0,1:2:0:0:
225,75,127440,1,0,0:0:0:0:
200,79,127521,1,0,0:0:0:0:
175,83,127602,1,0,0:0:0:0:
155,89,127683,1,0,1:2:0:0:
155,89,128008,6,0,L|154:272,1,168,6|0,1:2|0:0,0:0:0:0:
135,277,128332,2,0,L|257:280,1,112,6|0,1:2|0:0,0:0:0:0:
460,248,128656,5,0,1:0:0:0:
423,257,128737,1,0,0:0:0:0:
385,260,128818,1,0,0:0:0:0:
348,255,128899,1,0,0:0:0:0:
313,241,128981,5,0,1:0:0:0:
286,214,129062,1,0,0:0:0:0:
265,184,129143,1,0,0:0:0:0:
251,149,129224,1,0,0:0:0:0:
246,111,129305,5,0,1:0:0:0:
219,138,129386,1,0,0:0:0:0:
188,158,129467,1,0,0:0:0:0:
153,173,129548,1,0,0:0:0:0:
115,178,129629,5,0,1:0:0:0:
88,151,129710,1,0,0:0:0:0:
68,121,129791,1,0,0:0:0:0:
53,86,129872,1,0,0:0:0:0:
48,48,129953,5,0,1:0:0:0:
80,29,130035,1,0,0:0:0:0:
116,19,130116,1,0,0:0:0:0:
154,19,130197,1,0,0:0:0:0:
194,32,130278,1,0,1:0:0:0:
194,32,130602,6,0,P|271:56|365:53,1,168,6|0,1:2|0:0,0:0:0:0:
357,54,130927,2,0,P|365:127|363:176,1,112,6|0,1:2|0:0,0:0:0:0:
228,239,131251,5,0,1:0:0:0:
253,242,131332,1,0,0:0:0:0:
278,246,131413,1,0,0:0:0:0:
302,250,131494,1,0,0:0:0:0:
327,254,131575,5,0,1:0:0:0:
352,257,131656,1,0,0:0:0:0:
378,261,131737,1,0,0:0:0:0:
402,265,131818,1,0,0:0:0:0:
427,269,131900,5,0,1:0:0:0:
431,244,131981,1,0,0:0:0:0:
434,219,132062,1,0,0:0:0:0:
439,194,132143,1,0,0:0:0:0:
442,169,132224,5,0,1:0:0:0:
446,144,132305,1,0,0:0:0:0:
450,119,132386,1,0,0:0:0:0:
454,95,132467,1,0,0:0:0:0:
458,69,132548,5,0,1:0:0:0:
432,66,132629,1,0,0:0:0:0:
407,62,132710,1,0,0:0:0:0:
383,58,132791,1,0,0:0:0:0:
361,58,132872,1,0,1:0:0:0:
361,58,133197,6,0,B|285:51|285:51|253:66|253:66|178:59,1,168,6|0,1:2|0:0,0:0:0:0:
173,68,133521,2,0,B|164:125|164:125|184:190,1,112,6|0,1:2|0:0,0:0:0:0:
138,252,133845,5,0,1:0:0:0:
164,277,133926,1,0,0:0:0:0:
199,292,134007,1,0,0:0:0:0:
236,296,134088,1,0,0:0:0:0:
273,287,134170,5,0,1:0:0:0:
308,276,134251,1,0,0:0:0:0:
339,254,134332,1,0,0:0:0:0:
360,223,134413,1,0,0:0:0:0:
371,188,134494,6,0,L|366:119,3,56,2|0|0|0,0:0|0:0|0:0|0:0,0:0:0:0:
458,118,134818,2,0,L|463:187,3,56,2|0|0|0,0:0|0:0|0:0|0:0,0:0:0:0:
425,269,135143,1,2,0:0:0:0:
404,48,135305,1,0,3:0:0:0:
370,51,135386,1,0,3:0:0:0:
336,54,135467,1,0,3:0:0:0:
303,58,135548,1,0,3:0:0:0:
269,61,135629,1,0,3:0:0:0:
198,11,135791,6,0,P|140:44|48:42,1,125.999996154785,6|0,1:2|0:0,0:0:0:0:
81,49,136116,2,0,P|82:121|70:147,1,83.9999974365235,6|0,1:2|0:0,0:0:0:0:
90,224,136440,5,0,1:0:0:0:
110,221,136521,1,0,0:0:0:0:
131,218,136602,1,0,0:0:0:0:
152,215,136683,1,0,0:0:0:0:
173,213,136764,2,0,L|179:266,3,41.9999987182618,0|0|0|0,1:0|0:0|0:0|0:0,0:0:0:0:
237,151,137089,5,0,1:0:0:0:
257,154,137170,1,0,0:0:0:0:
278,157,137251,1,0,0:0:0:0:
299,160,137332,1,0,0:0:0:0:
320,162,137413,2,0,L|326:109,3,41.9999987182618,0|0|0|0,1:0|0:0|0:0|0:0,0:0:0:0:
384,224,137737,5,0,1:0:0:0:
404,221,137818,1,0,0:0:0:0:
425,218,137899,1,0,0:0:0:0:
446,215,137980,1,0,0:0:0:0:
474,220,138062,1,0,1:0:0:0:
474,220,138386,6,0,P|482:282|460:357,1,125.999996154785,6|0,1:2|0:0,0:0:0:0:
467,342,138710,2,0,L|355:335,1,83.9999974365235,6|0,1:2|0:0,0:0:0:0:
294,367,139035,5,0,1:0:0:0:
274,360,139116,1,0,0:0:0:0:
256,349,139197,1,0,0:0:0:0:
241,335,139278,1,0,0:0:0:0:
230,317,139359,2,0,L|232:267,3,41.9999987182618,0|0|0|0,1:0|0:0|0:0|0:0,0:0:0:0:
149,212,139683,5,0,1:0:0:0:
169,205,139764,1,0,0:0:0:0:
187,194,139845,1,0,0:0:0:0:
201,180,139926,1,0,0:0:0:0:
213,162,140007,2,0,L|211:112,3,41.9999987182618,0|0|0|0,1:0|0:0|0:0|0:0,0:0:0:0:
327,94,140332,5,0,1:0:0:0:
307,87,140413,1,0,0:0:0:0:
289,76,140494,1,0,0:0:0:0:
274,62,140575,1,0,0:0:0:0:
270,51,140656,1,0,1:0:0:0:
270,51,140981,6,0,L|413:42,1,125.999996154785,2|0,3:2|0:0,0:0:0:0:
395,43,141305,2,0,L|403:129,1,83.9999974365235,2|0,3:2|0:0,0:0:0:0:
461,199,141629,6,0,L|456:246,3,41.9999987182618,0|0|0|0,3:0|0:0|0:0|0:0,0:0:0:0:
372,269,141954,2,0,L|376:227,3,41.9999987182618,0|0|0|0,3:0|0:0|0:0|0:0,0:0:0:0:
309,162,142278,6,0,L|304:209,3,41.9999987182618,0|0|0|0,3:0|0:0|0:0|0:0,0:0:0:0:
220,232,142603,2,0,L|224:190,3,41.9999987182618,0|0|0|0,3:0|0:0|0:0|0:0,0:0:0:0:
157,125,142927,6,0,L|152:172,3,41.9999987182618,0|0|0|0,3:0|0:0|0:0|0:0,0:0:0:0:
75,202,143251,1,0,3:0:0:0:
75,202,143575,6,0,P|84:280|76:339,1,125.999996154785,2|0,3:2|0:0,0:0:0:0:
78,326,143900,2,0,P|124:344|168:345,1,83.9999974365235,2|0,3:2|0:0,0:0:0:0:
222,288,144224,5,0,3:0:0:0:
252,280,144305,1,0,0:0:0:0:
283,275,144386,1,0,0:0:0:0:
315,272,144467,1,0,0:0:0:0:
346,273,144548,1,0,3:0:0:0:
377,276,144629,1,0,0:0:0:0:
408,281,144710,1,0,0:0:0:0:
439,289,144791,1,0,0:0:0:0:
468,300,144872,5,2,0:0:0:0:
497,112,145035,2,0,L|505:200,1,83.9999974365235,2|0,0:0|0:0,0:0:0:0:
411,135,145359,2,0,L|417:209,1,70,2|0,0:0|0:0,0:0:0:0:
319,155,145683,2,0,L|325:224,1,56,2|0,0:0|0:0,0:0:0:0:
227,175,146008,1,2,0:0:0:0:
