osu file format v14

[General]
AudioFilename: audio.mp3
AudioLeadIn: 0
PreviewTime: 83826
Countdown: 0
SampleSet: Soft
StackLeniency: 0.7
Mode: 1
LetterboxInBreaks: 0
WidescreenStoryboard: 1

[Editor]
Bookmarks: 135799
DistanceSpacing: 1.7
BeatDivisor: 4
GridSize: 32
TimelineZoom: 4.499997

[Metadata]
Title:Heart Function
TitleUnicode:Heart Function
Artist:O2i3
ArtistUnicode:O2i3
Creator:Capu
Version:Kantan
Source:osu!
Tags:fa featured artist mappers guild mpg mg instrumental electronic kirara anthems vol.3 krcd-003
BeatmapID:2366368
BeatmapSetID:1132966

[Difficulty]
HPDrainRate:8
CircleSize:2
OverallDifficulty:3
ApproachRate:10
SliderMultiplier:1.4
SliderTickRate:1

[Events]
//Background and Video events
0,0,"4768913.jpg",0,0
//Break Periods
//Storyboard Layer 0 (Background)
//Storyboard Layer 1 (Fail)
//Storyboard Layer 2 (Pass)
//Storyboard Layer 3 (Foreground)
//Storyboard Layer 4 (Overlay)
//Storyboard Sound Samples

[TimingPoints]
881,324.324324324324,4,2,0,100,1,0
41908,-100,4,2,0,25,0,0
42394,-100,4,2,0,100,0,1
62826,-100,4,2,0,100,0,0
63102,-100,4,2,0,55,0,0
83818,-100,4,2,0,100,0,0
104664,-100,4,2,0,100,0,1
125097,-100,4,2,0,100,0,0
135745,-100,4,2,0,90,0,0
136073,-100,4,2,0,80,0,0
140935,-100,4,2,0,70,0,0
141259,-100,4,2,0,60,0,0
144962,-100,4,2,0,80,0,0
145286,-100,4,2,0,60,0,0
145610,-100,4,2,0,40,0,0
145935,-100,4,2,0,20,0,0

[HitObjects]
256,192,881,5,12,0:0:0:0:
256,192,1205,5,12,0:0:0:0:
256,192,3475,5,12,0:0:0:0:
256,192,3799,5,12,0:0:0:0:
256,192,6070,5,12,0:0:0:0:
256,192,6394,5,12,0:0:0:0:
256,192,8664,5,12,0:0:0:0:
256,192,8989,5,12,0:0:0:0:
256,192,9962,12,0,11097,0:0:0:0:
256,192,11259,5,12,0:0:0:0:
256,192,11583,5,12,0:0:0:0:
256,192,12232,5,8,0:0:0:0:
256,192,12880,5,8,0:0:0:0:
256,192,13853,5,12,0:0:0:0:
256,192,14178,5,12,0:0:0:0:
256,192,14826,5,0,0:0:0:0:
256,192,15475,5,0,0:0:0:0:
256,192,16448,5,12,0:0:0:0:
256,192,16772,5,12,0:0:0:0:
256,192,17421,5,8,0:0:0:0:
256,192,18070,1,8,0:0:0:0:
256,192,19043,5,12,0:0:0:0:
256,192,19367,5,12,0:0:0:0:
256,192,20016,5,0,0:0:0:0:
256,192,20340,5,0,0:0:0:0:
256,192,21637,5,8,0:0:0:0:
256,192,22935,5,0,0:0:0:0:
256,192,23908,5,0,0:0:0:0:
256,192,24232,5,8,0:0:0:0:
256,192,25529,5,8,0:0:0:0:
256,192,26340,5,0,0:0:0:0:
256,192,26826,5,8,0:0:0:0:
256,192,28124,5,0,0:0:0:0:
256,192,29097,5,0,0:0:0:0:
256,192,29421,5,8,0:0:0:0:
256,192,30718,5,8,0:0:0:0:
256,192,31529,5,0,0:0:0:0:
256,192,32016,1,8,0:0:0:0:
256,192,33475,1,0,0:0:0:0:
256,192,34772,1,8,0:0:0:0:
256,192,36070,1,0,0:0:0:0:
256,192,37205,1,0,0:0:0:0:
256,192,38502,5,0,0:0:0:0:
256,192,39475,5,0,0:0:0:0:
256,192,39799,5,0,0:0:0:0:
256,192,40124,5,8,0:0:0:0:
256,192,40448,5,0,0:0:0:0:
256,192,41097,5,0,0:0:0:0:
256,192,42070,5,0,0:0:0:0:
256,192,42394,5,12,0:0:0:0:
256,192,43043,5,8,0:0:0:0:
256,192,43367,1,0,0:0:0:0:
256,192,43691,1,0,0:0:0:0:
256,192,44016,5,8,0:0:0:0:
256,192,44989,5,12,0:0:0:0:
256,192,45637,1,0,0:0:0:0:
256,192,45962,1,8,0:0:0:0:
256,192,46286,5,8,0:0:0:0:
256,192,46610,5,8,0:0:0:0:
256,192,47583,5,12,0:0:0:0:
256,192,48232,5,0,0:0:0:0:
256,192,48556,5,8,0:0:0:0:
256,192,48880,5,0,0:0:0:0:
256,192,49205,5,8,0:0:0:0:
256,192,50178,5,12,0:0:0:0:
256,192,50826,5,0,0:0:0:0:
256,192,51151,5,8,0:0:0:0:
256,192,51475,5,8,0:0:0:0:
256,192,51799,5,0,0:0:0:0:
256,192,52124,5,8,0:0:0:0:
256,192,53097,5,12,0:0:0:0:
256,192,53421,5,0,0:0:0:0:
256,192,53745,5,0,0:0:0:0:
256,192,54070,5,8,0:0:0:0:
256,192,54394,5,0,0:0:0:0:
256,192,55367,5,12,0:0:0:0:
256,192,55691,5,8,0:0:0:0:
256,192,56015,5,0,0:0:0:0:
256,192,56340,5,8,0:0:0:0:
256,192,56664,5,0,0:0:0:0:
256,192,56989,5,8,0:0:0:0:
256,192,57962,5,12,0:0:0:0:
256,192,58286,5,8,0:0:0:0:
256,192,58610,5,0,0:0:0:0:
256,192,58935,5,8,0:0:0:0:
256,192,59259,5,0,0:0:0:0:
256,192,59583,5,0,0:0:0:0:
256,192,60556,5,8,0:0:0:0:
256,192,61205,5,8,0:0:0:0:
256,192,61853,5,8,0:0:0:0:
256,192,62502,1,8,0:0:0:0:
256,192,62826,1,0,0:0:0:0:
256,192,63151,6,0,L|224:192,5,17.5
256,192,65664,6,0,L|224:192,5,17.5
256,192,68340,5,0,0:0:0:0:
256,192,68826,12,0,70610,0:0:0:0:
256,192,70935,5,0,0:0:0:0:
256,192,72232,5,0,0:0:0:0:
256,192,72880,5,8,0:0:0:0:
256,192,73529,6,0,L|224:192,5,17.5
256,192,76043,6,0,L|224:192,5,17.5
256,192,78718,1,0,0:0:0:0:
256,192,79205,12,0,80989,0:0:0:0:
256,192,81314,5,0,0:0:0:0:
256,192,82611,5,0,0:0:0:0:
256,192,83259,5,0,0:0:0:0:
256,192,83908,5,12,0:0:0:0:
256,192,84556,5,8,0:0:0:0:
256,192,85205,5,8,0:0:0:0:
256,192,86502,5,0,0:0:0:0:
256,192,87151,5,0,0:0:0:0:
256,192,87799,5,0,0:0:0:0:
256,192,89097,5,8,0:0:0:0:
256,192,89421,5,8,0:0:0:0:
256,192,89745,5,8,0:0:0:0:
256,192,90394,5,8,0:0:0:0:
256,192,90718,5,8,0:0:0:0:
256,192,91043,5,8,0:0:0:0:
256,192,91367,5,0,0:0:0:0:
256,192,91691,12,0,93313,0:0:0:0:
256,192,94286,5,0,0:0:0:0:
256,192,94610,5,8,0:0:0:0:
256,192,95259,5,8,0:0:0:0:
256,192,95908,5,8,0:0:0:0:
256,192,96880,5,8,0:0:0:0:
256,192,97205,5,0,0:0:0:0:
256,192,97853,5,0,0:0:0:0:
256,192,98502,5,0,0:0:0:0:
256,192,98826,5,0,0:0:0:0:
256,192,99799,5,0,0:0:0:0:
256,192,100124,5,8,0:0:0:0:
256,192,100448,5,8,0:0:0:0:
256,192,100772,1,0,0:0:0:0:
256,192,101097,5,8,0:0:0:0:
256,192,102070,5,0,0:0:0:0:
256,192,102394,5,8,0:0:0:0:
256,192,103043,5,8,0:0:0:0:
256,192,104664,5,12,0:0:0:0:
256,192,105313,5,8,0:0:0:0:
256,192,105637,1,0,0:0:0:0:
256,192,105961,1,0,0:0:0:0:
256,192,106286,5,8,0:0:0:0:
256,192,107259,5,12,0:0:0:0:
256,192,107907,1,0,0:0:0:0:
256,192,108232,1,8,0:0:0:0:
256,192,108556,5,8,0:0:0:0:
256,192,108880,5,8,0:0:0:0:
256,192,109853,5,12,0:0:0:0:
256,192,110502,5,0,0:0:0:0:
256,192,110826,5,8,0:0:0:0:
256,192,111150,5,0,0:0:0:0:
256,192,111475,5,8,0:0:0:0:
256,192,112448,5,12,0:0:0:0:
256,192,113096,5,0,0:0:0:0:
256,192,113421,5,8,0:0:0:0:
256,192,113745,5,8,0:0:0:0:
256,192,114069,5,0,0:0:0:0:
256,192,114394,5,8,0:0:0:0:
256,192,115367,5,12,0:0:0:0:
256,192,115691,5,0,0:0:0:0:
256,192,116015,5,0,0:0:0:0:
256,192,116340,5,8,0:0:0:0:
256,192,116664,5,0,0:0:0:0:
256,192,117637,5,12,0:0:0:0:
256,192,117961,5,8,0:0:0:0:
256,192,118285,5,0,0:0:0:0:
256,192,118610,5,8,0:0:0:0:
256,192,118934,5,0,0:0:0:0:
256,192,119259,5,8,0:0:0:0:
256,192,120232,5,12,0:0:0:0:
256,192,120556,5,8,0:0:0:0:
256,192,120880,5,0,0:0:0:0:
256,192,121205,5,8,0:0:0:0:
256,192,121529,5,0,0:0:0:0:
256,192,121853,5,0,0:0:0:0:
256,192,122826,5,8,0:0:0:0:
256,192,123475,5,8,0:0:0:0:
256,192,124123,5,8,0:0:0:0:
256,192,125096,5,4,0:0:0:0:
256,192,125421,5,12,0:0:0:0:
256,192,125745,5,12,0:0:0:0:
256,192,126394,5,8,0:0:0:0:
256,192,127042,5,8,0:0:0:0:
256,192,128015,5,12,0:0:0:0:
256,192,128340,5,12,0:0:0:0:
256,192,128988,5,0,0:0:0:0:
256,192,129637,5,0,0:0:0:0:
256,192,130610,5,12,0:0:0:0:
256,192,130934,5,12,0:0:0:0:
256,192,131583,5,8,0:0:0:0:
256,192,132232,1,8,0:0:0:0:
256,192,133205,5,12,0:0:0:0:
256,192,133529,5,12,0:0:0:0:
256,192,134178,5,0,0:0:0:0:
256,192,134826,5,0,0:0:0:0:
256,192,135799,1,12,0:0:0:0:
256,192,136124,1,12,0:0:0:0:
256,192,136772,1,0,0:0:0:0:
256,192,137421,1,0,0:0:0:0:
256,192,138394,1,12,0:0:0:0:
256,192,138718,1,12,0:0:0:0:
256,192,139367,1,8,0:0:0:0:
256,192,140016,1,8,0:0:0:0:
256,192,140989,1,12,0:0:0:0:
256,192,141962,1,0,0:0:0:0:
256,192,142610,1,0,0:0:0:0:
256,192,143583,1,12,0:0:0:0:
256,192,144394,1,0,0:0:0:0:
256,192,145043,1,0,0:0:0:0:
256,192,145691,1,0,0:0:0:0:
