osu file format v14

[General]
AudioFilename: audio.mp3
AudioLeadIn: 0
PreviewTime: 83826
Countdown: 0
SampleSet: Soft
StackLeniency: 0.7
Mode: 1
LetterboxInBreaks: 0
WidescreenStoryboard: 0

[Editor]
Bookmarks: 135799
DistanceSpacing: 1.7
BeatDivisor: 6
GridSize: 32
TimelineZoom: 4.699997

[Metadata]
Title:Heart Function
TitleUnicode:Heart Function
Artist:O2i3
ArtistUnicode:O2i3
Creator:Capu
Version:Inner Function
Source:osu!
Tags:fa featured artist mappers guild mpg mg instrumental electronic kirara anthems vol.3 krcd-003
BeatmapID:2366367
BeatmapSetID:1132966

[Difficulty]
HPDrainRate:5
CircleSize:2
OverallDifficulty:7.2
ApproachRate:10
SliderMultiplier:1.4
SliderTickRate:1

[Events]
//Background and Video events
0,0,"4768913.jpg",0,0
//Break Periods
//Storyboard Layer 0 (Background)
//Storyboard Layer 1 (Fail)
//Storyboard Layer 2 (Pass)
//Storyboard Layer 3 (Foreground)
//Storyboard Layer 4 (Overlay)
//Storyboard Sound Samples

[TimingPoints]
881,324.324324324324,4,2,0,100,1,0
41900,-166.666666666667,4,2,0,25,0,0
42305,-100,4,2,0,100,0,0
42394,-90.9090909090909,4,2,0,100,0,1
42475,-100,4,2,0,100,0,1
44664,-100,4,2,0,100,0,0
44908,-90.9090909090909,4,2,0,100,0,0
44989,-90.9090909090909,4,2,0,100,0,1
45070,-100,4,2,0,100,0,1
47259,-100,4,2,0,100,0,0
47502,-90.9090909090909,4,2,0,100,0,0
47583,-90.9090909090909,4,2,0,100,0,1
47664,-100,4,2,0,100,0,1
49853,-100,4,2,0,100,0,0
50097,-90.9090909090909,4,2,0,100,0,0
50178,-90.9090909090909,4,2,0,100,0,1
50259,-100,4,2,0,100,0,1
52772,-100,4,2,0,100,0,0
53043,-90.9090909090909,4,2,0,100,0,0
53097,-90.9090909090909,4,2,0,100,0,1
53178,-100,4,2,0,100,0,1
55043,-100,4,2,0,100,0,0
55286,-90.9090909090909,4,2,0,100,0,0
55367,-90.9090909090909,4,2,0,100,0,1
55448,-100,4,2,0,100,0,1
57637,-100,4,2,0,100,0,0
57880,-90.9090909090909,4,2,0,100,0,0
57962,-90.9090909090909,4,2,0,100,0,1
58043,-100,4,2,0,100,0,1
60232,-100,4,2,0,100,0,0
60556,-100,4,2,0,100,0,1
62826,-100,4,2,0,100,0,0
63102,-125,4,2,0,55,0,0
83818,-100,4,2,0,100,0,0
104583,-90.9090909090909,4,2,0,100,0,0
104664,-90.9090909090909,4,2,0,100,0,1
104745,-100,4,2,0,100,0,1
106935,-100,4,2,0,100,0,0
107178,-90.9090909090909,4,2,0,100,0,0
107259,-90.9090909090909,4,2,0,100,0,1
107340,-100,4,2,0,100,0,1
109529,-100,4,2,0,100,0,0
109772,-90.9090909090909,4,2,0,100,0,0
109853,-90.9090909090909,4,2,0,100,0,1
109935,-100,4,2,0,100,0,1
112124,-100,4,2,0,100,0,0
112367,-90.9090909090909,4,2,0,100,0,0
112448,-90.9090909090909,4,2,0,100,0,1
112529,-100,4,2,0,100,0,1
115043,-100,4,2,0,100,0,0
115313,-90.9090909090909,4,2,0,100,0,0
115367,-90.9090909090909,4,2,0,100,0,1
115448,-100,4,2,0,100,0,1
117313,-100,4,2,0,100,0,0
117556,-90.9090909090909,4,2,0,100,0,0
117637,-90.9090909090909,4,2,0,100,0,1
117718,-100,4,2,0,100,0,1
119908,-100,4,2,0,100,0,0
120151,-90.9090909090909,4,2,0,100,0,0
120232,-90.9090909090909,4,2,0,100,0,1
120313,-100,4,2,0,100,0,1
122502,-100,4,2,0,100,0,0
122826,-100,4,2,0,100,0,1
125097,-100,4,2,0,100,0,0
135745,-100,4,2,0,90,0,0
136073,-100,4,2,0,80,0,0
140935,-100,4,2,0,70,0,0
141259,-100,4,2,0,60,0,0
144962,-100,4,2,0,80,0,0
145286,-100,4,2,0,60,0,0
145610,-100,4,2,0,40,0,0
145935,-100,4,2,0,20,0,0

[HitObjects]
256,192,881,5,12,0:0:0:0:
256,192,1205,5,12,0:0:0:0:
256,192,1529,5,0,0:0:0:0:
256,192,1853,5,0,0:0:0:0:
256,192,2178,5,0,0:0:0:0:
256,192,2502,5,0,0:0:0:0:
256,192,2826,5,0,0:0:0:0:
256,192,3151,5,0,0:0:0:0:
256,192,3475,5,12,0:0:0:0:
256,192,3799,5,12,0:0:0:0:
256,192,4124,5,0,0:0:0:0:
256,192,4448,5,0,0:0:0:0:
256,192,4772,5,0,0:0:0:0:
256,192,5097,5,0,0:0:0:0:
256,192,5421,5,0,0:0:0:0:
256,192,5745,5,0,0:0:0:0:
256,192,6070,5,12,0:0:0:0:
256,192,6394,5,12,0:0:0:0:
256,192,6718,5,0,0:0:0:0:
256,192,7043,5,0,0:0:0:0:
256,192,7367,5,0,0:0:0:0:
256,192,7691,5,0,0:0:0:0:
256,192,8016,5,0,0:0:0:0:
256,192,8340,5,0,0:0:0:0:
256,192,8664,5,12,0:0:0:0:
256,192,8989,5,12,0:0:0:0:
256,192,9313,5,0,0:0:0:0:
256,192,9637,5,0,0:0:0:0:
256,192,9962,12,0,11097,0:0:0:0:
256,192,11259,5,12,0:0:0:0:
256,192,11421,5,0,0:0:0:0:
256,192,11583,5,12,0:0:0:0:
256,192,11745,5,0,0:0:0:0:
256,192,11908,5,0,0:0:0:0:
256,192,11989,5,0,0:0:0:0:
256,192,12070,5,8,0:0:0:0:
256,192,12151,5,0,0:0:0:0:
256,192,12313,5,0,0:0:0:0:
256,192,12394,5,8,0:0:0:0:
256,192,12475,5,0,0:0:0:0:
256,192,12637,5,0,0:0:0:0:
256,192,12718,5,8,0:0:0:0:
256,192,12799,5,0,0:0:0:0:
256,192,12962,5,0,0:0:0:0:
256,192,13043,5,8,0:0:0:0:
256,192,13124,5,0,0:0:0:0:
256,192,13286,5,0,0:0:0:0:
256,192,13367,5,8,0:0:0:0:
256,192,13448,5,0,0:0:0:0:
256,192,13853,5,12,0:0:0:0:
256,192,14016,5,0,0:0:0:0:
256,192,14178,5,12,0:0:0:0:
256,192,14340,5,0,0:0:0:0:
256,192,14502,5,0,0:0:0:0:
256,192,14583,5,0,0:0:0:0:
256,192,14664,5,0,0:0:0:0:
256,192,14745,5,8,0:0:0:0:
256,192,14908,5,0,0:0:0:0:
256,192,14989,5,0,0:0:0:0:
256,192,15070,5,8,0:0:0:0:
256,192,15232,5,0,0:0:0:0:
256,192,15313,5,0,0:0:0:0:
256,192,15394,5,8,0:0:0:0:
256,192,15556,5,0,0:0:0:0:
256,192,15637,5,0,0:0:0:0:
256,192,15718,5,8,0:0:0:0:
256,192,15880,5,0,0:0:0:0:
256,192,15961,5,0,0:0:0:0:
256,192,16042,5,8,0:0:0:0:
256,192,16448,5,12,0:0:0:0:
256,192,16610,5,0,0:0:0:0:
256,192,16772,5,12,0:0:0:0:
256,192,16935,5,0,0:0:0:0:
256,192,17097,5,0,0:0:0:0:
256,192,17178,5,8,0:0:0:0:
256,192,17259,5,8,0:0:0:0:
256,192,17340,5,0,0:0:0:0:
256,192,17502,5,8,0:0:0:0:
256,192,17583,5,8,0:0:0:0:
256,192,17664,5,0,0:0:0:0:
256,192,17826,5,8,0:0:0:0:
256,192,17908,5,8,0:0:0:0:
256,192,17989,5,0,0:0:0:0:
256,192,18151,5,8,0:0:0:0:
256,192,18232,5,8,0:0:0:0:
256,192,18313,5,0,0:0:0:0:
256,192,18475,5,8,0:0:0:0:
256,192,18556,5,8,0:0:0:0:
256,192,18637,5,0,0:0:0:0:
256,192,19043,5,12,0:0:0:0:
256,192,19205,5,0,0:0:0:0:
256,192,19367,5,12,0:0:0:0:
256,192,19529,5,0,0:0:0:0:
256,192,19691,5,0,0:0:0:0:
256,192,19772,5,8,0:0:0:0:
256,192,19853,5,0,0:0:0:0:
256,192,19935,5,0,0:0:0:0:
256,192,20097,5,0,0:0:0:0:
256,192,20178,5,8,0:0:0:0:
256,192,20259,5,0,0:0:0:0:
256,192,20340,5,0,0:0:0:0:
256,192,21637,5,8,0:0:0:0:
256,192,21678,5,8,0:0:0:0:
256,192,22124,5,0,0:0:0:0:
256,192,22935,5,0,0:0:0:0:
256,192,23421,5,8,0:0:0:0:
256,192,23908,5,0,0:0:0:0:
256,192,24232,5,8,0:0:0:0:
256,192,24718,5,8,0:0:0:0:
256,192,25529,5,8,0:0:0:0:
256,192,26016,5,8,0:0:0:0:
256,192,26056,5,0,0:0:0:0:
256,192,26340,5,0,0:0:0:0:
256,192,26826,5,8,0:0:0:0:
256,192,26867,5,8,0:0:0:0:
256,192,27313,5,8,0:0:0:0:
256,192,28124,5,0,0:0:0:0:
256,192,28610,5,8,0:0:0:0:
256,192,29097,5,0,0:0:0:0:
256,192,29421,5,8,0:0:0:0:
256,192,29908,5,8,0:0:0:0:
256,192,30718,5,8,0:0:0:0:
256,192,30759,5,0,0:0:0:0:
256,192,31205,5,8,0:0:0:0:
256,192,31245,5,8,0:0:0:0:
256,192,31529,5,0,0:0:0:0:
256,192,32016,5,0,0:0:0:0:
256,192,32178,5,8,0:0:0:0:
256,192,32421,5,8,0:0:0:0:
256,192,32664,5,8,0:0:0:0:
256,192,32908,5,8,0:0:0:0:
256,192,33151,5,8,0:0:0:0:
256,192,33475,5,8,0:0:0:0:
256,192,33718,5,8,0:0:0:0:
256,192,33962,5,8,0:0:0:0:
256,192,34205,5,8,0:0:0:0:
256,192,34448,5,8,0:0:0:0:
256,192,34772,5,8,0:0:0:0:
256,192,35016,5,8,0:0:0:0:
256,192,35259,5,8,0:0:0:0:
256,192,35502,5,8,0:0:0:0:
256,192,35745,5,8,0:0:0:0:
256,192,36070,5,8,0:0:0:0:
256,192,36313,5,8,0:0:0:0:
256,192,36556,5,8,0:0:0:0:
256,192,36799,5,8,0:0:0:0:
256,192,37043,5,8,0:0:0:0:
256,192,37205,5,0,0:0:0:0:
256,192,37367,5,8,0:0:0:0:
256,192,37529,5,0,0:0:0:0:
256,192,37610,5,8,0:0:0:0:
256,192,37853,5,0,0:0:0:0:
256,192,38097,5,8,0:0:0:0:
256,192,38178,5,0,0:0:0:0:
256,192,38340,5,8,0:0:0:0:
256,192,38502,5,0,0:0:0:0:
256,192,38664,5,8,0:0:0:0:
256,192,38826,5,0,0:0:0:0:
256,192,38908,5,8,0:0:0:0:
256,192,39151,5,0,0:0:0:0:
256,192,39394,5,8,0:0:0:0:
256,192,39475,5,0,0:0:0:0:
256,192,39637,5,8,0:0:0:0:
256,192,39799,5,0,0:0:0:0:
256,192,39962,5,8,0:0:0:0:
256,192,40124,5,0,0:0:0:0:
256,192,40205,5,8,0:0:0:0:
256,192,40448,5,0,0:0:0:0:
256,192,40691,5,8,0:0:0:0:
256,192,40772,5,0,0:0:0:0:
256,192,40935,5,8,0:0:0:0:
256,192,41097,5,0,0:0:0:0:
256,192,42070,5,0,0:0:0:0:
256,192,42394,5,12,0:0:0:0:
256,192,42556,5,0,0:0:0:0:
256,192,42637,5,0,0:0:0:0:
256,192,42718,5,8,0:0:0:0:
256,192,42880,5,0,0:0:0:0:
256,192,43043,5,8,0:0:0:0:
256,192,43124,5,0,0:0:0:0:
256,192,43205,5,0,0:0:0:0:
256,192,43367,5,8,0:0:0:0:
256,192,43448,5,0,0:0:0:0:
256,192,43529,5,8,0:0:0:0:
256,192,43610,5,8,0:0:0:0:
256,192,43691,5,0,0:0:0:0:
256,192,43853,5,8,0:0:0:0:
256,192,44016,5,8,0:0:0:0:
256,192,44097,5,0,0:0:0:0:
256,192,44178,5,0,0:0:0:0:
256,192,44340,5,8,0:0:0:0:
256,192,44502,5,0,0:0:0:0:
256,192,44583,5,0,0:0:0:0:
256,192,44664,5,8,0:0:0:0:
256,192,44989,5,12,0:0:0:0:
256,192,45151,5,0,0:0:0:0:
256,192,45232,5,0,0:0:0:0:
256,192,45313,5,8,0:0:0:0:
256,192,45475,5,0,0:0:0:0:
256,192,45637,5,8,0:0:0:0:
256,192,45718,5,0,0:0:0:0:
256,192,45799,5,0,0:0:0:0:
256,192,45962,5,8,0:0:0:0:
256,192,46043,5,0,0:0:0:0:
256,192,46124,5,8,0:0:0:0:
256,192,46205,5,8,0:0:0:0:
256,192,46286,5,0,0:0:0:0:
256,192,46448,5,0,0:0:0:0:
256,192,46610,5,8,0:0:0:0:
256,192,46691,5,8,0:0:0:0:
256,192,46772,5,0,0:0:0:0:
256,192,46935,5,8,0:0:0:0:
256,192,47097,5,8,0:0:0:0:
256,192,47178,5,0,0:0:0:0:
256,192,47259,5,8,0:0:0:0:
256,192,47583,5,12,0:0:0:0:
256,192,47745,5,0,0:0:0:0:
256,192,47826,5,0,0:0:0:0:
256,192,47907,5,8,0:0:0:0:
256,192,48069,5,0,0:0:0:0:
256,192,48232,5,8,0:0:0:0:
256,192,48313,5,0,0:0:0:0:
256,192,48394,5,0,0:0:0:0:
256,192,48556,5,8,0:0:0:0:
256,192,48637,5,0,0:0:0:0:
256,192,48718,5,8,0:0:0:0:
256,192,48799,5,8,0:0:0:0:
256,192,48880,5,0,0:0:0:0:
256,192,49042,5,8,0:0:0:0:
256,192,49205,5,0,0:0:0:0:
256,192,49286,5,0,0:0:0:0:
256,192,49367,5,0,0:0:0:0:
256,192,49529,5,8,0:0:0:0:
256,192,49691,5,0,0:0:0:0:
256,192,49772,5,0,0:0:0:0:
256,192,49853,5,8,0:0:0:0:
256,192,50178,5,12,0:0:0:0:
256,192,50340,5,0,0:0:0:0:
256,192,50421,5,0,0:0:0:0:
256,192,50502,5,8,0:0:0:0:
256,192,50664,5,0,0:0:0:0:
256,192,50826,5,8,0:0:0:0:
256,192,50908,5,0,0:0:0:0:
256,192,50989,5,0,0:0:0:0:
256,192,51151,5,8,0:0:0:0:
256,192,51232,5,8,0:0:0:0:
256,192,51313,5,0,0:0:0:0:
256,192,51394,5,0,0:0:0:0:
256,192,51475,5,8,0:0:0:0:
256,192,51637,5,0,0:0:0:0:
256,192,51718,5,0,0:0:0:0:
256,192,51799,5,8,0:0:0:0:
256,192,51880,5,0,0:0:0:0:
256,192,51962,5,8,0:0:0:0:
256,192,52043,5,8,0:0:0:0:
256,192,52124,5,0,0:0:0:0:
256,192,52286,5,8,0:0:0:0:
256,192,52367,5,0,0:0:0:0:
256,192,52448,5,8,0:0:0:0:
256,192,52610,5,0,0:0:0:0:
256,192,52772,5,0,0:0:0:0:
256,192,52813,5,0,0:0:0:0:
256,192,52935,5,8,0:0:0:0:
256,192,52975,5,8,0:0:0:0:
256,192,53097,5,12,0:0:0:0:
256,192,53259,5,0,0:0:0:0:
256,192,53340,5,8,0:0:0:0:
256,192,53421,5,0,0:0:0:0:
256,192,53583,5,8,0:0:0:0:
256,192,53745,5,0,0:0:0:0:
256,192,53826,5,0,0:0:0:0:
256,192,53908,5,8,0:0:0:0:
256,192,54070,5,8,0:0:0:0:
256,192,54151,5,0,0:0:0:0:
256,192,54232,5,0,0:0:0:0:
256,192,54313,5,8,0:0:0:0:
256,192,54394,5,0,0:0:0:0:
256,192,54556,5,8,0:0:0:0:
256,192,54718,5,0,0:0:0:0:
256,192,54799,5,0,0:0:0:0:
256,192,54880,5,8,0:0:0:0:
256,192,55043,5,8,0:0:0:0:
256,192,55367,5,12,0:0:0:0:
256,192,55529,5,0,0:0:0:0:
256,192,55610,5,8,0:0:0:0:
256,192,55691,5,8,0:0:0:0:
256,192,55853,5,8,0:0:0:0:
256,192,56015,5,0,0:0:0:0:
256,192,56096,5,0,0:0:0:0:
256,192,56178,5,8,0:0:0:0:
256,192,56340,5,8,0:0:0:0:
256,192,56421,5,0,0:0:0:0:
256,192,56502,5,0,0:0:0:0:
256,192,56583,5,8,0:0:0:0:
256,192,56664,5,0,0:0:0:0:
256,192,56826,5,8,0:0:0:0:
256,192,56989,5,8,0:0:0:0:
256,192,57070,5,8,0:0:0:0:
256,192,57150,5,0,0:0:0:0:
256,192,57313,5,8,0:0:0:0:
256,192,57475,5,0,0:0:0:0:
256,192,57556,5,0,0:0:0:0:
256,192,57637,5,8,0:0:0:0:
256,192,57962,5,12,0:0:0:0:
256,192,58124,5,0,0:0:0:0:
256,192,58205,5,8,0:0:0:0:
256,192,58286,5,8,0:0:0:0:
256,192,58448,5,8,0:0:0:0:
256,192,58610,5,0,0:0:0:0:
256,192,58691,5,0,0:0:0:0:
256,192,58773,5,8,0:0:0:0:
256,192,58935,5,8,0:0:0:0:
256,192,59016,5,0,0:0:0:0:
256,192,59097,5,8,0:0:0:0:
256,192,59178,5,8,0:0:0:0:
256,192,59259,5,0,0:0:0:0:
256,192,59421,5,8,0:0:0:0:
256,192,59502,5,0,0:0:0:0:
256,192,59583,5,0,0:0:0:0:
256,192,59745,5,8,0:0:0:0:
256,192,59908,5,8,0:0:0:0:
256,192,60070,5,0,0:0:0:0:
256,192,60151,5,0,0:0:0:0:
256,192,60232,5,8,0:0:0:0:
256,192,60556,5,8,0:0:0:0:
256,192,60718,5,0,0:0:0:0:
256,192,60799,5,0,0:0:0:0:
256,192,60880,5,8,0:0:0:0:
256,192,61043,5,0,0:0:0:0:
256,192,61124,5,0,0:0:0:0:
256,192,61205,5,8,0:0:0:0:
256,192,61367,5,0,0:0:0:0:
256,192,61448,5,0,0:0:0:0:
256,192,61529,5,8,0:0:0:0:
256,192,61691,5,0,0:0:0:0:
256,192,61772,5,0,0:0:0:0:
256,192,61853,5,8,0:0:0:0:
256,192,62016,5,0,0:0:0:0:
256,192,62097,5,0,0:0:0:0:
256,192,62178,5,8,0:0:0:0:
256,192,62340,5,0,0:0:0:0:
256,192,62421,5,0,0:0:0:0:
256,192,62502,5,8,0:0:0:0:
256,192,62664,5,0,0:0:0:0:
256,192,62745,5,0,0:0:0:0:
256,192,62826,5,8,0:0:0:0:
256,192,63151,6,0,L|241:191,5,14
256,192,65664,6,0,L|241:191,5,14
256,192,68340,5,0,0:0:0:0:
256,192,68826,5,0,0:0:0:0:
256,192,68908,5,0,0:0:0:0:
256,192,68989,5,0,0:0:0:0:
256,192,69151,5,8,0:0:0:0:
256,192,69313,5,8,0:0:0:0:
256,192,69475,5,0,0:0:0:0:
256,192,69637,5,8,0:0:0:0:
256,192,69799,5,0,0:0:0:0:
256,192,70124,5,8,0:0:0:0:
256,192,70610,5,0,0:0:0:0:
256,192,70772,5,8,0:0:0:0:
256,192,70935,5,0,0:0:0:0:
256,192,70975,5,0,0:0:0:0:
256,192,72232,5,0,0:0:0:0:
256,192,72272,5,0,0:0:0:0:
256,192,72880,5,8,0:0:0:0:
256,192,73529,6,0,L|241:191,5,14
256,192,76043,6,0,L|241:191,5,14
256,192,78719,5,0,0:0:0:0:
256,192,79205,5,0,0:0:0:0:
256,192,79287,5,0,0:0:0:0:
256,192,79368,5,0,0:0:0:0:
256,192,79530,5,8,0:0:0:0:
256,192,79692,5,8,0:0:0:0:
256,192,79854,5,0,0:0:0:0:
256,192,80016,5,8,0:0:0:0:
256,192,80178,5,0,0:0:0:0:
256,192,80340,5,0,0:0:0:0:
256,192,80503,5,8,0:0:0:0:
256,192,80826,5,0,0:0:0:0:
256,192,80989,5,0,0:0:0:0:
256,192,81151,5,8,0:0:0:0:
256,192,81314,5,0,0:0:0:0:
256,192,81354,5,0,0:0:0:0:
256,192,82610,5,0,0:0:0:0:
256,192,82651,5,0,0:0:0:0:
256,192,83259,5,4,0:0:0:0:
256,192,83908,5,12,0:0:0:0:
256,192,84070,5,0,0:0:0:0:
256,192,84232,5,8,0:0:0:0:
256,192,84313,5,8,0:0:0:0:
256,192,84394,5,0,0:0:0:0:
256,192,84556,5,8,0:0:0:0:
256,192,84880,5,8,0:0:0:0:
256,192,85043,5,0,0:0:0:0:
256,192,85205,5,8,0:0:0:0:
256,192,85286,5,8,0:0:0:0:
256,192,85367,5,0,0:0:0:0:
256,192,85529,5,8,0:0:0:0:
256,192,85853,5,8,0:0:0:0:
256,192,86016,5,0,0:0:0:0:
256,192,86178,5,8,0:0:0:0:
256,192,86502,5,8,0:0:0:0:
256,192,86664,5,0,0:0:0:0:
256,192,86826,5,8,0:0:0:0:
256,192,86908,5,8,0:0:0:0:
256,192,86989,5,0,0:0:0:0:
256,192,87151,5,8,0:0:0:0:
256,192,87475,5,8,0:0:0:0:
256,192,87637,5,0,0:0:0:0:
256,192,87799,5,8,0:0:0:0:
256,192,87880,5,8,0:0:0:0:
256,192,87962,5,0,0:0:0:0:
256,192,88124,5,8,0:0:0:0:
256,192,88448,5,8,0:0:0:0:
256,192,88610,5,8,0:0:0:0:
256,192,88772,5,0,0:0:0:0:
256,192,89097,5,8,0:0:0:0:
256,192,89259,5,0,0:0:0:0:
256,192,89421,5,8,0:0:0:0:
256,192,89502,5,8,0:0:0:0:
256,192,89583,5,0,0:0:0:0:
256,192,89745,5,8,0:0:0:0:
256,192,90070,5,8,0:0:0:0:
256,192,90232,5,0,0:0:0:0:
256,192,90394,5,8,0:0:0:0:
256,192,90475,5,8,0:0:0:0:
256,192,90556,5,0,0:0:0:0:
256,192,90718,5,8,0:0:0:0:
256,192,90880,5,0,0:0:0:0:
256,192,91043,5,8,0:0:0:0:
256,192,91205,5,8,0:0:0:0:
256,192,91286,5,0,0:0:0:0:
256,192,91367,5,8,0:0:0:0:
256,192,91529,5,0,0:0:0:0:
256,192,91853,5,8,0:0:0:0:
256,192,92016,5,8,0:0:0:0:
256,192,92178,5,0,0:0:0:0:
256,192,92340,5,0,0:0:0:0:
256,192,92502,5,8,0:0:0:0:
256,192,92826,5,8,0:0:0:0:
256,192,92908,5,8,0:0:0:0:
256,192,92989,5,0,0:0:0:0:
256,192,93151,5,8,0:0:0:0:
256,192,93313,5,0,0:0:0:0:
256,192,93637,5,0,0:0:0:0:
256,192,93799,5,8,0:0:0:0:
256,192,93962,5,8,0:0:0:0:
256,192,94286,5,0,0:0:0:0:
256,192,94448,5,8,0:0:0:0:
256,192,94529,5,8,0:0:0:0:
256,192,94610,5,0,0:0:0:0:
256,192,94651,5,0,0:0:0:0:
256,192,94772,5,8,0:0:0:0:
256,192,94935,5,0,0:0:0:0:
256,192,94975,5,0,0:0:0:0:
256,192,95178,5,8,0:0:0:0:
256,192,95259,5,0,0:0:0:0:
256,192,95299,5,0,0:0:0:0:
256,192,95421,5,8,0:0:0:0:
256,192,95583,5,0,0:0:0:0:
256,192,95624,5,0,0:0:0:0:
256,192,95826,5,8,0:0:0:0:
256,192,95908,5,0,0:0:0:0:
256,192,95948,5,0,0:0:0:0:
256,192,96070,5,8,0:0:0:0:
256,192,96232,5,0,0:0:0:0:
256,192,96313,5,0,0:0:0:0:
256,192,96394,5,8,0:0:0:0:
256,192,96475,5,8,0:0:0:0:
256,192,96556,5,0,0:0:0:0:
256,192,96637,5,8,0:0:0:0:
256,192,96880,5,0,0:0:0:0:
256,192,96921,5,0,0:0:0:0:
256,192,97124,5,8,0:0:0:0:
256,192,97205,5,0,0:0:0:0:
256,192,97245,5,0,0:0:0:0:
256,192,97367,5,8,0:0:0:0:
256,192,97529,5,0,0:0:0:0:
256,192,97570,5,0,0:0:0:0:
256,192,97772,5,8,0:0:0:0:
256,192,97853,5,0,0:0:0:0:
256,192,97894,5,0,0:0:0:0:
256,192,98016,5,8,0:0:0:0:
256,192,98178,5,0,0:0:0:0:
256,192,98218,5,0,0:0:0:0:
256,192,98421,5,8,0:0:0:0:
256,192,98502,5,0,0:0:0:0:
256,192,98664,5,0,0:0:0:0:
256,192,98826,5,0,0:0:0:0:
256,192,98880,5,8,0:0:0:0:
256,192,98935,5,8,0:0:0:0:
256,192,98989,5,0,0:0:0:0:
256,192,99151,5,0,0:0:0:0:
256,192,99232,5,8,0:0:0:0:
256,192,99313,5,8,0:0:0:0:
256,192,99394,5,8,0:0:0:0:
256,192,99475,5,0,0:0:0:0:
256,192,99529,5,0,0:0:0:0:
256,192,99583,5,0,0:0:0:0:
256,192,99637,5,8,0:0:0:0:
256,192,99718,5,0,0:0:0:0:
256,192,99799,5,8,0:0:0:0:
256,192,99880,5,8,0:0:0:0:
256,192,99962,5,0,0:0:0:0:
256,192,100043,5,8,0:0:0:0:
256,192,100124,5,0,0:0:0:0:
256,192,100205,5,0,0:0:0:0:
256,192,100286,5,8,0:0:0:0:
256,192,100367,5,8,0:0:0:0:
256,192,100448,5,0,0:0:0:0:
256,192,100529,5,8,0:0:0:0:
256,192,100610,5,0,0:0:0:0:
256,192,100691,5,0,0:0:0:0:
256,192,100772,5,8,0:0:0:0:
256,192,100853,5,8,0:0:0:0:
256,192,100935,5,0,0:0:0:0:
256,192,101016,5,8,0:0:0:0:
256,192,101097,5,0,0:0:0:0:
256,192,101178,5,0,0:0:0:0:
256,192,101259,5,8,0:0:0:0:
256,192,101340,5,8,0:0:0:0:
256,192,101421,5,0,0:0:0:0:
256,192,101745,5,0,0:0:0:0:
256,192,102070,5,0,0:0:0:0:
256,192,102313,5,8,0:0:0:0:
256,192,102394,5,0,0:0:0:0:
256,192,102435,5,0,0:0:0:0:
256,192,102556,5,8,0:0:0:0:
256,192,102718,5,0,0:0:0:0:
256,192,102759,5,0,0:0:0:0:
256,192,102962,5,8,0:0:0:0:
256,192,103043,5,0,0:0:0:0:
256,192,103083,5,0,0:0:0:0:
256,192,103205,5,8,0:0:0:0:
256,192,103529,5,0,0:0:0:0:
256,192,103691,5,8,0:0:0:0:
256,192,103853,5,8,0:0:0:0:
256,192,104016,5,0,0:0:0:0:
256,192,104178,5,8,0:0:0:0:
256,192,104340,5,0,0:0:0:0:
256,192,104664,5,12,0:0:0:0:
256,192,104826,5,0,0:0:0:0:
256,192,104907,5,0,0:0:0:0:
256,192,104988,5,8,0:0:0:0:
256,192,105150,5,0,0:0:0:0:
256,192,105313,5,8,0:0:0:0:
256,192,105394,5,0,0:0:0:0:
256,192,105475,5,0,0:0:0:0:
256,192,105637,5,8,0:0:0:0:
256,192,105718,5,0,0:0:0:0:
256,192,105799,5,8,0:0:0:0:
256,192,105880,5,8,0:0:0:0:
256,192,105961,5,0,0:0:0:0:
256,192,106123,5,8,0:0:0:0:
256,192,106286,5,8,0:0:0:0:
256,192,106367,5,0,0:0:0:0:
256,192,106448,5,0,0:0:0:0:
256,192,106610,5,8,0:0:0:0:
256,192,106772,5,0,0:0:0:0:
256,192,106853,5,0,0:0:0:0:
256,192,106935,5,8,0:0:0:0:
256,192,107259,5,12,0:0:0:0:
256,192,107421,5,0,0:0:0:0:
256,192,107502,5,0,0:0:0:0:
256,192,107583,5,8,0:0:0:0:
256,192,107745,5,0,0:0:0:0:
256,192,107907,5,8,0:0:0:0:
256,192,107988,5,0,0:0:0:0:
256,192,108069,5,0,0:0:0:0:
256,192,108232,5,8,0:0:0:0:
256,192,108313,5,0,0:0:0:0:
256,192,108394,5,8,0:0:0:0:
256,192,108475,5,8,0:0:0:0:
256,192,108556,5,0,0:0:0:0:
256,192,108718,5,0,0:0:0:0:
256,192,108880,5,8,0:0:0:0:
256,192,108961,5,8,0:0:0:0:
256,192,109042,5,0,0:0:0:0:
256,192,109205,5,8,0:0:0:0:
256,192,109367,5,8,0:0:0:0:
256,192,109448,5,0,0:0:0:0:
256,192,109529,5,8,0:0:0:0:
256,192,109853,5,12,0:0:0:0:
256,192,110015,5,0,0:0:0:0:
256,192,110096,5,0,0:0:0:0:
256,192,110177,5,8,0:0:0:0:
256,192,110339,5,0,0:0:0:0:
256,192,110502,5,8,0:0:0:0:
256,192,110583,5,0,0:0:0:0:
256,192,110664,5,0,0:0:0:0:
256,192,110826,5,8,0:0:0:0:
256,192,110907,5,0,0:0:0:0:
256,192,110988,5,8,0:0:0:0:
256,192,111069,5,8,0:0:0:0:
256,192,111150,5,0,0:0:0:0:
256,192,111312,5,8,0:0:0:0:
256,192,111475,5,0,0:0:0:0:
256,192,111556,5,0,0:0:0:0:
256,192,111637,5,0,0:0:0:0:
256,192,111799,5,8,0:0:0:0:
256,192,111961,5,0,0:0:0:0:
256,192,112042,5,0,0:0:0:0:
256,192,112123,5,8,0:0:0:0:
256,192,112448,5,12,0:0:0:0:
256,192,112610,5,0,0:0:0:0:
256,192,112691,5,0,0:0:0:0:
256,192,112772,5,8,0:0:0:0:
256,192,112934,5,0,0:0:0:0:
256,192,113096,5,8,0:0:0:0:
256,192,113178,5,0,0:0:0:0:
256,192,113259,5,0,0:0:0:0:
256,192,113421,5,8,0:0:0:0:
256,192,113502,5,8,0:0:0:0:
256,192,113583,5,0,0:0:0:0:
256,192,113664,5,0,0:0:0:0:
256,192,113745,5,8,0:0:0:0:
256,192,113907,5,0,0:0:0:0:
256,192,113988,5,0,0:0:0:0:
256,192,114069,5,8,0:0:0:0:
256,192,114150,5,0,0:0:0:0:
256,192,114232,5,8,0:0:0:0:
256,192,114313,5,8,0:0:0:0:
256,192,114394,5,0,0:0:0:0:
256,192,114556,5,8,0:0:0:0:
256,192,114637,5,0,0:0:0:0:
256,192,114718,5,8,0:0:0:0:
256,192,114880,5,0,0:0:0:0:
256,192,115042,5,0,0:0:0:0:
256,192,115083,5,0,0:0:0:0:
256,192,115205,5,8,0:0:0:0:
256,192,115245,5,8,0:0:0:0:
256,192,115367,5,12,0:0:0:0:
256,192,115529,5,0,0:0:0:0:
256,192,115610,5,8,0:0:0:0:
256,192,115691,5,0,0:0:0:0:
256,192,115853,5,8,0:0:0:0:
256,192,116015,5,0,0:0:0:0:
256,192,116096,5,0,0:0:0:0:
256,192,116178,5,8,0:0:0:0:
256,192,116340,5,8,0:0:0:0:
256,192,116421,5,0,0:0:0:0:
256,192,116502,5,0,0:0:0:0:
256,192,116583,5,8,0:0:0:0:
256,192,116664,5,0,0:0:0:0:
256,192,116826,5,8,0:0:0:0:
256,192,116988,5,0,0:0:0:0:
256,192,117069,5,0,0:0:0:0:
256,192,117150,5,8,0:0:0:0:
256,192,117313,5,8,0:0:0:0:
256,192,117637,5,12,0:0:0:0:
256,192,117799,5,0,0:0:0:0:
256,192,117880,5,8,0:0:0:0:
256,192,117961,5,8,0:0:0:0:
256,192,118123,5,8,0:0:0:0:
256,192,118285,5,0,0:0:0:0:
256,192,118366,5,0,0:0:0:0:
256,192,118448,5,8,0:0:0:0:
256,192,118610,5,8,0:0:0:0:
256,192,118691,5,0,0:0:0:0:
256,192,118772,5,0,0:0:0:0:
256,192,118853,5,8,0:0:0:0:
256,192,118934,5,0,0:0:0:0:
256,192,119096,5,8,0:0:0:0:
256,192,119259,5,8,0:0:0:0:
256,192,119340,5,8,0:0:0:0:
256,192,119420,5,0,0:0:0:0:
256,192,119583,5,8,0:0:0:0:
256,192,119745,5,0,0:0:0:0:
256,192,119826,5,0,0:0:0:0:
256,192,119907,5,8,0:0:0:0:
256,192,120232,5,12,0:0:0:0:
256,192,120394,5,0,0:0:0:0:
256,192,120475,5,8,0:0:0:0:
256,192,120556,5,8,0:0:0:0:
256,192,120718,5,8,0:0:0:0:
256,192,120880,5,0,0:0:0:0:
256,192,120961,5,0,0:0:0:0:
256,192,121043,5,8,0:0:0:0:
256,192,121205,5,8,0:0:0:0:
256,192,121286,5,0,0:0:0:0:
256,192,121367,5,8,0:0:0:0:
256,192,121448,5,8,0:0:0:0:
256,192,121529,5,0,0:0:0:0:
256,192,121691,5,8,0:0:0:0:
256,192,121772,5,0,0:0:0:0:
256,192,121853,5,0,0:0:0:0:
256,192,122015,5,8,0:0:0:0:
256,192,122178,5,8,0:0:0:0:
256,192,122340,5,0,0:0:0:0:
256,192,122421,5,0,0:0:0:0:
256,192,122502,5,8,0:0:0:0:
256,192,122826,5,8,0:0:0:0:
256,192,122988,5,0,0:0:0:0:
256,192,123069,5,0,0:0:0:0:
256,192,123150,5,8,0:0:0:0:
256,192,123313,5,0,0:0:0:0:
256,192,123394,5,0,0:0:0:0:
256,192,123475,5,8,0:0:0:0:
256,192,123637,5,0,0:0:0:0:
256,192,123718,5,0,0:0:0:0:
256,192,123799,5,8,0:0:0:0:
256,192,123961,5,0,0:0:0:0:
256,192,124042,5,0,0:0:0:0:
256,192,124123,5,8,0:0:0:0:
256,192,124286,5,0,0:0:0:0:
256,192,124367,5,0,0:0:0:0:
256,192,124448,5,8,0:0:0:0:
256,192,124610,5,0,0:0:0:0:
256,192,124691,5,0,0:0:0:0:
256,192,124772,5,8,0:0:0:0:
256,192,124934,5,0,0:0:0:0:
256,192,125015,5,0,0:0:0:0:
256,192,125096,5,12,0:0:0:0:
256,192,125421,5,12,0:0:0:0:
256,192,125583,5,0,0:0:0:0:
256,192,125745,5,12,0:0:0:0:
256,192,125907,5,0,0:0:0:0:
256,192,126070,5,0,0:0:0:0:
256,192,126151,5,0,0:0:0:0:
256,192,126232,5,8,0:0:0:0:
256,192,126313,5,0,0:0:0:0:
256,192,126475,5,0,0:0:0:0:
256,192,126556,5,8,0:0:0:0:
256,192,126637,5,0,0:0:0:0:
256,192,126799,5,0,0:0:0:0:
256,192,126880,5,8,0:0:0:0:
256,192,126961,5,0,0:0:0:0:
256,192,127124,5,0,0:0:0:0:
256,192,127205,5,8,0:0:0:0:
256,192,127286,5,0,0:0:0:0:
256,192,127448,5,0,0:0:0:0:
256,192,127529,5,8,0:0:0:0:
256,192,127610,5,0,0:0:0:0:
256,192,128015,5,12,0:0:0:0:
256,192,128178,5,0,0:0:0:0:
256,192,128340,5,12,0:0:0:0:
256,192,128502,5,0,0:0:0:0:
256,192,128664,5,0,0:0:0:0:
256,192,128745,5,0,0:0:0:0:
256,192,128826,5,0,0:0:0:0:
256,192,128907,5,8,0:0:0:0:
256,192,129070,5,0,0:0:0:0:
256,192,129151,5,0,0:0:0:0:
256,192,129232,5,8,0:0:0:0:
256,192,129394,5,0,0:0:0:0:
256,192,129475,5,0,0:0:0:0:
256,192,129556,5,8,0:0:0:0:
256,192,129718,5,0,0:0:0:0:
256,192,129799,5,0,0:0:0:0:
256,192,129880,5,8,0:0:0:0:
256,192,130042,5,0,0:0:0:0:
256,192,130123,5,0,0:0:0:0:
256,192,130204,5,8,0:0:0:0:
256,192,130610,5,12,0:0:0:0:
256,192,130772,5,0,0:0:0:0:
256,192,130934,5,12,0:0:0:0:
256,192,131097,5,0,0:0:0:0:
256,192,131259,5,0,0:0:0:0:
256,192,131340,5,8,0:0:0:0:
256,192,131421,5,8,0:0:0:0:
256,192,131502,5,0,0:0:0:0:
256,192,131664,5,8,0:0:0:0:
256,192,131745,5,8,0:0:0:0:
256,192,131826,5,0,0:0:0:0:
256,192,131988,5,8,0:0:0:0:
256,192,132070,5,8,0:0:0:0:
256,192,132151,5,0,0:0:0:0:
256,192,132313,5,8,0:0:0:0:
256,192,132394,5,8,0:0:0:0:
256,192,132475,5,0,0:0:0:0:
256,192,132637,5,8,0:0:0:0:
256,192,132718,5,8,0:0:0:0:
256,192,132799,5,0,0:0:0:0:
256,192,133205,5,12,0:0:0:0:
256,192,133367,5,0,0:0:0:0:
256,192,133529,5,12,0:0:0:0:
256,192,133691,5,0,0:0:0:0:
256,192,133853,5,0,0:0:0:0:
256,192,133934,5,8,0:0:0:0:
256,192,134015,5,0,0:0:0:0:
256,192,134097,5,0,0:0:0:0:
256,192,134259,5,8,0:0:0:0:
256,192,134340,5,0,0:0:0:0:
256,192,134421,5,0,0:0:0:0:
256,192,134583,5,8,0:0:0:0:
256,192,134664,5,0,0:0:0:0:
256,192,134745,5,0,0:0:0:0:
256,192,134908,5,8,0:0:0:0:
256,192,134989,5,0,0:0:0:0:
256,192,135070,5,0,0:0:0:0:
256,192,135232,5,8,0:0:0:0:
256,192,135313,5,0,0:0:0:0:
256,192,135394,5,8,0:0:0:0:
256,192,135475,5,8,0:0:0:0:
256,192,135556,5,8,0:0:0:0:
256,192,135637,5,0,0:0:0:0:
256,192,135799,5,12,0:0:0:0:
256,192,135961,5,0,0:0:0:0:
256,192,136123,5,12,0:0:0:0:
256,192,136285,5,0,0:0:0:0:
256,192,136448,5,0,0:0:0:0:
256,192,136529,5,0,0:0:0:0:
256,192,136610,5,8,0:0:0:0:
256,192,136691,5,0,0:0:0:0:
256,192,136853,5,0,0:0:0:0:
256,192,136934,5,8,0:0:0:0:
256,192,137015,5,0,0:0:0:0:
256,192,137177,5,0,0:0:0:0:
256,192,137258,5,8,0:0:0:0:
256,192,137339,5,0,0:0:0:0:
256,192,137502,5,0,0:0:0:0:
256,192,137583,5,8,0:0:0:0:
256,192,137664,5,0,0:0:0:0:
256,192,137826,5,0,0:0:0:0:
256,192,137907,5,8,0:0:0:0:
256,192,137988,5,0,0:0:0:0:
256,192,138393,5,12,0:0:0:0:
256,192,138556,5,0,0:0:0:0:
256,192,138718,5,12,0:0:0:0:
256,192,138880,5,0,0:0:0:0:
256,192,139042,5,0,0:0:0:0:
256,192,139123,5,0,0:0:0:0:
256,192,139204,5,0,0:0:0:0:
256,192,139285,5,8,0:0:0:0:
256,192,139448,5,0,0:0:0:0:
256,192,139529,5,0,0:0:0:0:
256,192,139610,5,8,0:0:0:0:
256,192,139772,5,0,0:0:0:0:
256,192,139853,5,0,0:0:0:0:
256,192,139934,5,8,0:0:0:0:
256,192,140096,5,0,0:0:0:0:
256,192,140177,5,0,0:0:0:0:
256,192,140258,5,8,0:0:0:0:
256,192,140420,5,0,0:0:0:0:
256,192,140501,5,0,0:0:0:0:
256,192,140582,5,8,0:0:0:0:
256,192,140988,5,12,0:0:0:0:
256,192,141312,5,12,0:0:0:0:
256,192,141637,5,0,0:0:0:0:
256,192,141718,5,8,0:0:0:0:
256,192,141799,5,8,0:0:0:0:
256,192,141880,5,0,0:0:0:0:
256,192,142042,5,8,0:0:0:0:
256,192,142123,5,8,0:0:0:0:
256,192,142204,5,0,0:0:0:0:
256,192,142366,5,8,0:0:0:0:
256,192,142448,5,8,0:0:0:0:
256,192,142529,5,0,0:0:0:0:
256,192,142691,5,8,0:0:0:0:
256,192,142772,5,8,0:0:0:0:
256,192,142853,5,0,0:0:0:0:
256,192,143015,5,8,0:0:0:0:
256,192,143096,5,8,0:0:0:0:
256,192,143177,5,0,0:0:0:0:
256,192,143583,5,12,0:0:0:0:
256,192,143908,5,12,0:0:0:0:
256,192,144232,5,0,0:0:0:0:
256,192,144313,5,8,0:0:0:0:
256,192,144394,5,0,0:0:0:0:
256,192,144475,5,0,0:0:0:0:
256,192,144637,5,8,0:0:0:0:
256,192,144718,5,0,0:0:0:0:
256,192,144799,5,0,0:0:0:0:
256,192,145043,5,0,0:0:0:0:
256,192,145367,5,0,0:0:0:0:
256,192,145691,5,0,0:0:0:0:
256,192,146016,5,0,0:0:0:0:
