osu file format v14

[General]
AudioFilename: audio.mp3
AudioLeadIn: 0
PreviewTime: 83826
Countdown: 0
SampleSet: Soft
StackLeniency: 0.7
Mode: 1
LetterboxInBreaks: 0
WidescreenStoryboard: 1

[Editor]
Bookmarks: 135799
DistanceSpacing: 1.7
BeatDivisor: 4
GridSize: 32
TimelineZoom: 4.699997

[Metadata]
Title:Heart Function
TitleUnicode:Heart Function
Artist:O2i3
ArtistUnicode:O2i3
Creator:Capu
Version:Futsuu
Source:osu!
Tags:fa featured artist mappers guild mpg mg instrumental electronic kirara anthems vol.3 krcd-003
BeatmapID:2366366
BeatmapSetID:1132966

[Difficulty]
HPDrainRate:7
CircleSize:2
OverallDifficulty:4
ApproachRate:10
SliderMultiplier:1.4
SliderTickRate:1

[Events]
//Background and Video events
0,0,"4768913.jpg",0,0
//Break Periods
//Storyboard Layer 0 (Background)
//Storyboard Layer 1 (Fail)
//Storyboard Layer 2 (Pass)
//Storyboard Layer 3 (Foreground)
//Storyboard Layer 4 (Overlay)
//Storyboard Sound Samples

[TimingPoints]
881,324.324324324324,4,2,0,100,1,0
41989,-100,4,2,0,25,0,0
42394,-100,4,2,0,100,0,1
62826,-100,4,2,0,100,0,0
63102,-111.111111111111,4,2,0,55,0,0
83818,-100,4,2,0,100,0,0
104664,-100,4,2,0,100,0,1
125097,-100,4,2,0,100,0,0
135745,-100,4,2,0,90,0,0
136073,-100,4,2,0,80,0,0
140935,-100,4,2,0,70,0,0
141259,-100,4,2,0,60,0,0
144962,-100,4,2,0,80,0,0
145286,-100,4,2,0,60,0,0
145610,-100,4,2,0,40,0,0
145935,-100,4,2,0,20,0,0

[HitObjects]
256,192,881,5,12,0:0:0:0:
256,192,1205,5,12,0:0:0:0:
256,192,1853,5,0,0:0:0:0:
256,192,2502,5,0,0:0:0:0:
256,192,3475,5,12,0:0:0:0:
256,192,3799,5,12,0:0:0:0:
256,192,4448,5,0,0:0:0:0:
256,192,5097,5,0,0:0:0:0:
256,192,6070,5,12,0:0:0:0:
256,192,6394,5,12,0:0:0:0:
256,192,7043,5,0,0:0:0:0:
256,192,7691,5,0,0:0:0:0:
256,192,8664,5,12,0:0:0:0:
256,192,8989,5,12,0:0:0:0:
256,192,9637,5,0,0:0:0:0:
256,192,9962,12,0,11097,0:0:0:0:
256,192,11259,5,12,0:0:0:0:
256,192,11421,5,0,0:0:0:0:
256,192,11583,5,12,0:0:0:0:
256,192,12070,5,8,0:0:0:0:
256,192,12394,5,8,0:0:0:0:
256,192,12718,5,8,0:0:0:0:
256,192,13043,5,8,0:0:0:0:
256,192,13367,5,8,0:0:0:0:
256,192,13853,5,12,0:0:0:0:
256,192,14016,5,0,0:0:0:0:
256,192,14178,5,12,0:0:0:0:
256,192,14665,5,0,0:0:0:0:
256,192,14990,5,0,0:0:0:0:
256,192,15314,5,0,0:0:0:0:
256,192,15638,5,0,0:0:0:0:
256,192,15962,5,0,0:0:0:0:
256,192,16448,5,12,0:0:0:0:
256,192,16610,5,0,0:0:0:0:
256,192,16772,5,12,0:0:0:0:
256,192,17259,5,8,0:0:0:0:
256,192,17583,5,8,0:0:0:0:
256,192,17908,5,8,0:0:0:0:
256,192,18232,5,8,0:0:0:0:
256,192,18556,5,8,0:0:0:0:
256,192,19043,5,12,0:0:0:0:
256,192,19205,5,0,0:0:0:0:
256,192,19367,5,12,0:0:0:0:
256,192,19853,5,0,0:0:0:0:
256,192,20178,5,0,0:0:0:0:
256,192,21637,5,8,0:0:0:0:
256,192,22124,5,0,0:0:0:0:
256,192,22935,5,0,0:0:0:0:
256,192,23421,5,8,0:0:0:0:
256,192,23908,5,0,0:0:0:0:
256,192,24232,5,8,0:0:0:0:
256,192,24718,5,8,0:0:0:0:
256,192,25529,5,8,0:0:0:0:
256,192,26016,5,8,0:0:0:0:
256,192,26340,5,0,0:0:0:0:
256,192,26826,5,8,0:0:0:0:
256,192,27313,5,8,0:0:0:0:
256,192,28124,5,0,0:0:0:0:
256,192,28610,5,8,0:0:0:0:
256,192,29097,5,0,0:0:0:0:
256,192,29421,5,8,0:0:0:0:
256,192,29908,5,8,0:0:0:0:
256,192,30718,5,8,0:0:0:0:
256,192,31205,5,8,0:0:0:0:
256,192,31529,5,0,0:0:0:0:
256,192,32016,5,0,0:0:0:0:
251,184,32664,5,0,0:0:0:0:
251,184,33313,5,0,0:0:0:0:
251,184,33962,5,0,0:0:0:0:
256,192,34610,5,0,0:0:0:0:
256,192,35259,5,0,0:0:0:0:
256,192,35908,5,0,0:0:0:0:
256,192,36556,5,0,0:0:0:0:
256,192,37205,5,0,0:0:0:0:
256,192,37529,5,8,0:0:0:0:
256,192,37853,5,0,0:0:0:0:
256,192,38502,5,0,0:0:0:0:
256,192,38826,5,8,0:0:0:0:
256,192,39151,5,0,0:0:0:0:
256,192,39475,5,0,0:0:0:0:
256,192,39637,5,0,0:0:0:0:
256,192,39799,5,0,0:0:0:0:
256,192,40124,5,8,0:0:0:0:
256,192,40448,5,0,0:0:0:0:
256,192,41097,5,0,0:0:0:0:
256,192,42070,5,0,0:0:0:0:
256,192,42394,5,12,0:0:0:0:
256,192,42718,5,8,0:0:0:0:
256,192,42880,5,0,0:0:0:0:
256,192,43043,5,8,0:0:0:0:
256,192,43367,5,8,0:0:0:0:
256,192,43529,5,0,0:0:0:0:
256,192,43691,5,0,0:0:0:0:
256,192,44016,5,8,0:0:0:0:
256,192,44340,5,8,0:0:0:0:
256,192,44989,5,12,0:0:0:0:
256,192,45313,5,8,0:0:0:0:
256,192,45475,5,0,0:0:0:0:
256,192,45637,5,8,0:0:0:0:
256,192,45962,5,8,0:0:0:0:
256,192,46124,5,8,0:0:0:0:
256,192,46286,5,8,0:0:0:0:
256,192,46448,5,0,0:0:0:0:
256,192,46610,5,8,0:0:0:0:
256,192,46935,5,0,0:0:0:0:
256,192,47583,5,12,0:0:0:0:
256,192,47907,5,8,0:0:0:0:
256,192,48070,5,8,0:0:0:0:
256,192,48232,5,0,0:0:0:0:
256,192,48556,5,8,0:0:0:0:
256,192,48718,5,0,0:0:0:0:
256,192,48880,5,0,0:0:0:0:
256,192,49205,5,8,0:0:0:0:
256,192,49529,5,8,0:0:0:0:
256,192,50178,5,12,0:0:0:0:
256,192,50502,5,8,0:0:0:0:
256,192,50664,5,0,0:0:0:0:
256,192,50826,5,8,0:0:0:0:
256,192,51151,5,8,0:0:0:0:
256,192,51313,5,0,0:0:0:0:
256,192,51475,5,0,0:0:0:0:
256,192,51637,5,8,0:0:0:0:
256,192,51799,5,0,0:0:0:0:
256,192,52124,5,8,0:0:0:0:
256,192,52286,5,8,0:0:0:0:
256,192,52448,5,8,0:0:0:0:
256,192,53097,5,12,0:0:0:0:
256,192,53421,5,0,0:0:0:0:
256,192,53745,5,0,0:0:0:0:
256,192,53908,5,8,0:0:0:0:
256,192,54070,5,8,0:0:0:0:
256,192,54394,5,0,0:0:0:0:
256,192,54718,5,8,0:0:0:0:
256,192,55367,5,12,0:0:0:0:
256,192,55691,5,8,0:0:0:0:
256,192,55853,5,8,0:0:0:0:
256,192,56015,5,0,0:0:0:0:
256,192,56340,5,8,0:0:0:0:
256,192,56502,5,0,0:0:0:0:
256,192,56664,5,0,0:0:0:0:
256,192,56826,5,8,0:0:0:0:
256,192,56989,5,8,0:0:0:0:
256,192,57313,5,8,0:0:0:0:
256,192,57962,5,12,0:0:0:0:
256,192,58286,5,8,0:0:0:0:
256,192,58448,5,8,0:0:0:0:
256,192,58610,5,0,0:0:0:0:
256,192,58935,5,8,0:0:0:0:
256,192,59259,5,0,0:0:0:0:
256,192,59421,5,8,0:0:0:0:
256,192,59583,5,0,0:0:0:0:
256,192,59908,5,8,0:0:0:0:
256,192,60556,5,8,0:0:0:0:
256,192,60880,5,8,0:0:0:0:
256,192,61205,5,8,0:0:0:0:
256,192,61529,5,8,0:0:0:0:
256,192,61853,5,8,0:0:0:0:
256,192,62178,5,8,0:0:0:0:
256,192,62502,5,8,0:0:0:0:
256,192,62826,5,0,0:0:0:0:
256,192,63151,6,0,L|234:192,5,15.7499995193482
256,192,65664,6,0,L|234:192,5,15.7499995193482
256,192,68340,5,0,0:0:0:0:
256,192,69313,5,8,0:0:0:0:
256,192,69637,5,8,0:0:0:0:
256,192,69799,5,0,0:0:0:0:
256,192,70124,5,8,0:0:0:0:
256,192,70610,5,0,0:0:0:0:
256,192,70772,5,8,0:0:0:0:
256,192,70935,5,0,0:0:0:0:
256,192,72232,5,0,0:0:0:0:
256,192,72880,5,8,0:0:0:0:
256,192,73529,6,0,L|234:192,5,15.7499995193482
256,192,76043,6,0,L|234:192,5,15.7499995193482
256,192,78718,5,0,0:0:0:0:
256,192,79691,5,8,0:0:0:0:
256,192,80015,5,8,0:0:0:0:
256,192,80177,5,0,0:0:0:0:
256,192,80502,5,8,0:0:0:0:
256,192,80988,5,0,0:0:0:0:
256,192,81150,5,8,0:0:0:0:
256,192,81313,5,0,0:0:0:0:
256,192,82610,5,0,0:0:0:0:
256,192,83259,5,4,0:0:0:0:
256,192,83908,5,12,0:0:0:0:
256,192,84232,5,8,0:0:0:0:
256,192,84556,5,8,0:0:0:0:
256,192,85043,5,0,0:0:0:0:
256,192,85205,5,8,0:0:0:0:
256,192,85367,5,0,0:0:0:0:
256,192,85529,5,8,0:0:0:0:
256,192,85853,5,8,0:0:0:0:
256,192,86502,5,8,0:0:0:0:
256,192,86826,5,8,0:0:0:0:
256,192,87151,5,8,0:0:0:0:
256,192,87637,5,8,0:0:0:0:
256,192,87799,5,0,0:0:0:0:
256,192,87962,5,0,0:0:0:0:
256,192,88124,5,8,0:0:0:0:
256,192,88448,5,8,0:0:0:0:
256,192,89097,5,8,0:0:0:0:
256,192,89421,5,8,0:0:0:0:
256,192,89745,5,8,0:0:0:0:
256,192,90232,5,0,0:0:0:0:
256,192,90394,5,8,0:0:0:0:
256,192,90556,5,0,0:0:0:0:
256,192,90718,5,8,0:0:0:0:
256,192,91043,5,8,0:0:0:0:
256,192,91367,5,0,0:0:0:0:
256,192,91853,5,8,0:0:0:0:
256,192,92340,5,0,0:0:0:0:
256,192,92826,5,8,0:0:0:0:
256,192,92989,5,8,0:0:0:0:
256,192,93151,5,8,0:0:0:0:
256,192,93313,5,0,0:0:0:0:
256,192,93637,5,0,0:0:0:0:
256,192,93962,5,8,0:0:0:0:
256,192,94286,5,0,0:0:0:0:
256,192,94610,5,0,0:0:0:0:
256,192,94935,5,0,0:0:0:0:
256,192,95259,5,0,0:0:0:0:
256,192,95583,5,0,0:0:0:0:
256,192,95908,5,0,0:0:0:0:
256,192,96070,5,0,0:0:0:0:
256,192,96232,5,8,0:0:0:0:
256,192,96880,5,8,0:0:0:0:
256,192,97205,5,8,0:0:0:0:
256,192,97529,5,8,0:0:0:0:
256,192,97853,5,8,0:0:0:0:
256,192,98178,5,8,0:0:0:0:
256,192,98502,5,8,0:0:0:0:
256,192,98664,5,8,0:0:0:0:
256,192,98826,5,0,0:0:0:0:
256,192,98989,5,0,0:0:0:0:
256,192,99151,5,8,0:0:0:0:
256,192,99799,5,0,0:0:0:0:
256,192,99962,5,0,0:0:0:0:
256,192,100124,5,0,0:0:0:0:
256,192,100448,5,0,0:0:0:0:
256,192,100772,5,8,0:0:0:0:
256,192,101097,5,8,0:0:0:0:
256,192,101259,5,8,0:0:0:0:
256,192,101421,5,0,0:0:0:0:
256,192,102070,5,0,0:0:0:0:
256,192,102394,5,0,0:0:0:0:
256,192,102718,5,0,0:0:0:0:
256,192,103043,5,0,0:0:0:0:
256,192,103529,5,8,0:0:0:0:
256,192,103691,5,8,0:0:0:0:
256,192,103853,5,8,0:0:0:0:
256,192,104178,5,8,0:0:0:0:
256,192,104664,5,12,0:0:0:0:
256,192,104988,5,8,0:0:0:0:
256,192,105150,5,0,0:0:0:0:
256,192,105313,5,8,0:0:0:0:
256,192,105637,5,8,0:0:0:0:
256,192,105799,5,0,0:0:0:0:
256,192,105961,5,0,0:0:0:0:
256,192,106286,5,8,0:0:0:0:
256,192,106610,5,8,0:0:0:0:
256,192,107259,5,12,0:0:0:0:
256,192,107583,5,8,0:0:0:0:
256,192,107745,5,0,0:0:0:0:
256,192,107907,5,8,0:0:0:0:
256,192,108232,5,8,0:0:0:0:
256,192,108394,5,8,0:0:0:0:
256,192,108556,5,8,0:0:0:0:
256,192,108718,5,0,0:0:0:0:
256,192,108880,5,8,0:0:0:0:
256,192,109205,5,0,0:0:0:0:
256,192,109853,5,12,0:0:0:0:
256,192,110177,5,8,0:0:0:0:
256,192,110340,5,8,0:0:0:0:
256,192,110502,5,0,0:0:0:0:
256,192,110826,5,8,0:0:0:0:
256,192,110988,5,0,0:0:0:0:
256,192,111150,5,0,0:0:0:0:
256,192,111475,5,8,0:0:0:0:
256,192,111799,5,8,0:0:0:0:
256,192,112448,5,12,0:0:0:0:
256,192,112772,5,8,0:0:0:0:
256,192,112934,5,0,0:0:0:0:
256,192,113096,5,8,0:0:0:0:
256,192,113421,5,8,0:0:0:0:
256,192,113583,5,0,0:0:0:0:
256,192,113745,5,0,0:0:0:0:
256,192,113907,5,8,0:0:0:0:
256,192,114069,5,0,0:0:0:0:
256,192,114394,5,8,0:0:0:0:
256,192,114556,5,8,0:0:0:0:
256,192,114718,5,8,0:0:0:0:
256,192,115367,5,12,0:0:0:0:
256,192,115691,5,0,0:0:0:0:
256,192,116015,5,0,0:0:0:0:
256,192,116178,5,8,0:0:0:0:
256,192,116340,5,8,0:0:0:0:
256,192,116664,5,0,0:0:0:0:
256,192,116988,5,8,0:0:0:0:
256,192,117637,5,12,0:0:0:0:
256,192,117961,5,8,0:0:0:0:
256,192,118123,5,8,0:0:0:0:
256,192,118285,5,0,0:0:0:0:
256,192,118610,5,8,0:0:0:0:
256,192,118772,5,0,0:0:0:0:
256,192,118934,5,0,0:0:0:0:
256,192,119096,5,8,0:0:0:0:
256,192,119259,5,8,0:0:0:0:
256,192,119583,5,8,0:0:0:0:
256,192,120232,5,12,0:0:0:0:
256,192,120556,5,8,0:0:0:0:
256,192,120718,5,8,0:0:0:0:
256,192,120880,5,0,0:0:0:0:
256,192,121205,5,8,0:0:0:0:
256,192,121529,5,0,0:0:0:0:
256,192,121691,5,8,0:0:0:0:
256,192,121853,5,0,0:0:0:0:
256,192,122178,5,8,0:0:0:0:
256,192,122826,5,8,0:0:0:0:
256,192,123150,5,8,0:0:0:0:
256,192,123475,5,8,0:0:0:0:
256,192,123799,5,8,0:0:0:0:
256,192,124123,5,8,0:0:0:0:
256,192,124448,5,8,0:0:0:0:
256,192,124772,5,8,0:0:0:0:
256,192,125096,5,4,0:0:0:0:
256,192,125421,5,12,0:0:0:0:
256,192,125583,5,0,0:0:0:0:
256,192,125745,5,12,0:0:0:0:
256,192,126232,5,8,0:0:0:0:
256,192,126556,5,8,0:0:0:0:
256,192,126880,5,8,0:0:0:0:
256,192,127205,5,8,0:0:0:0:
256,192,127529,5,8,0:0:0:0:
256,192,128015,5,12,0:0:0:0:
256,192,128178,5,0,0:0:0:0:
256,192,128340,5,12,0:0:0:0:
256,192,128827,5,0,0:0:0:0:
256,192,129152,5,0,0:0:0:0:
256,192,129476,5,0,0:0:0:0:
256,192,129800,5,0,0:0:0:0:
256,192,130124,5,0,0:0:0:0:
256,192,130610,5,12,0:0:0:0:
256,192,130772,5,0,0:0:0:0:
256,192,130934,5,12,0:0:0:0:
256,192,131421,5,8,0:0:0:0:
256,192,131745,5,8,0:0:0:0:
256,192,132070,5,8,0:0:0:0:
256,192,132394,5,8,0:0:0:0:
256,192,132718,5,8,0:0:0:0:
256,192,133205,5,12,0:0:0:0:
256,192,133367,5,0,0:0:0:0:
256,192,133529,5,12,0:0:0:0:
256,192,134015,5,0,0:0:0:0:
256,192,134340,5,0,0:0:0:0:
256,192,134664,5,0,0:0:0:0:
256,192,134989,5,0,0:0:0:0:
256,192,135313,5,0,0:0:0:0:
256,192,135799,5,12,0:0:0:0:
256,192,135961,5,0,0:0:0:0:
256,192,136123,5,12,0:0:0:0:
256,192,136610,5,8,0:0:0:0:
256,192,136934,5,8,0:0:0:0:
256,192,137258,5,8,0:0:0:0:
256,192,137583,5,8,0:0:0:0:
256,192,137907,5,8,0:0:0:0:
256,192,138393,5,12,0:0:0:0:
256,192,138556,5,0,0:0:0:0:
256,192,138718,5,12,0:0:0:0:
256,192,139205,5,0,0:0:0:0:
256,192,139530,5,0,0:0:0:0:
256,192,139854,5,0,0:0:0:0:
256,192,140178,5,0,0:0:0:0:
256,192,140502,5,0,0:0:0:0:
256,192,140988,5,12,0:0:0:0:
256,192,141312,5,12,0:0:0:0:
256,192,141799,5,8,0:0:0:0:
256,192,142123,5,8,0:0:0:0:
256,192,142448,5,8,0:0:0:0:
256,192,142772,5,8,0:0:0:0:
256,192,143096,5,8,0:0:0:0:
256,192,143583,5,12,0:0:0:0:
256,192,143907,5,12,0:0:0:0:
256,192,144393,5,0,0:0:0:0:
256,192,144718,5,0,0:0:0:0:
256,192,145043,5,0,0:0:0:0:
256,192,145367,5,0,0:0:0:0:
256,192,145691,5,0,0:0:0:0:
256,192,146016,5,0,0:0:0:0:
