osu file format v14

[General]
AudioFilename: Dollfie Dream.mp3
AudioLeadIn: 0
PreviewTime: 55203
Countdown: 0
SampleSet: Soft
StackLeniency: 0.7
Mode: 3
LetterboxInBreaks: 0
SpecialStyle: 0
WidescreenStoryboard: 1

[Editor]
Bookmarks: 55372,61029,122057,127372
DistanceSpacing: 0.8
BeatDivisor: 4
GridSize: 16
TimelineZoom: 1.3

[Metadata]
Title:Dollfie Dream
TitleUnicode:Dollfie Dream
Artist:O2i3
ArtistUnicode:O2i3
Creator:Ilham
Version:Hard
Source:
Tags:Team Hanayamata Hana wa Odore ya Irohaniho Oishi Masayoshi KIMIJYANAKYA DAMEMITAI future bass instrumental electronic fa featured artist
BeatmapID:3786627
BeatmapSetID:1842979

[Difficulty]
HPDrainRate:7.5
CircleSize:4
OverallDifficulty:7.5
ApproachRate:5
SliderMultiplier:1.4
SliderTickRate:1

[Events]
//Background and Video events
0,0,"BG.jpg",0,0
//Break Periods
//Storyboard Layer 0 (Background)
//Storyboard Layer 1 (Fail)
//Storyboard Layer 2 (Pass)
//Storyboard Layer 3 (Foreground)
//Storyboard Layer 4 (Overlay)
//Storyboard Sound Samples

[TimingPoints]
1372,342.857142857143,4,2,1,30,1,0
20572,-100,4,2,1,20,0,0
21943,-100,4,2,1,30,0,0
67200,-100,4,2,1,20,0,0
75429,-100,4,2,1,30,0,0
133029,-100,4,2,1,20,0,0

[HitObjects]
64,192,1372,5,2,0:0:0:0:
320,192,1372,128,4,1714:0:0:0:0:
448,192,1372,1,0,0:0:0:0:
192,192,2572,128,0,2914:0:0:0:0:
320,192,3429,128,0,3772:0:0:0:0:
448,192,4114,128,0,4372:0:0:0:0:
64,192,5314,128,0,5572:0:0:0:0:
192,192,6000,1,0,0:0:0:0:
448,192,6000,128,0,6857:0:0:0:0:
64,192,7029,128,0,7200:0:0:0:0:
320,192,7029,1,0,0:0:0:0:
192,192,7543,128,0,7886:0:0:0:0:
448,192,7543,1,0,0:0:0:0:
64,192,8057,1,0,0:0:0:0:
320,192,8057,128,0,8229:0:0:0:0:
64,192,8914,1,0,0:0:0:0:
448,192,8914,128,0,9429:0:0:0:0:
192,192,9600,128,0,11657:0:0:0:0:
320,192,9600,1,0,0:0:0:0:
64,192,10286,1,0,0:0:0:30:hat.wav
448,192,10629,1,0,0:0:0:30:hat.wav
64,192,10972,1,0,0:0:0:30:hat.wav
320,192,11314,1,0,0:0:0:30:hat.wav
64,192,11657,1,0,0:0:0:30:hat.wav
448,192,11657,1,0,0:0:0:0:
320,192,11743,1,0,0:0:0:35:snare.wav
192,192,11829,1,0,0:0:0:35:snare.wav
320,192,11914,1,0,0:0:0:35:snare.wav
64,192,12000,128,0,12343:0:0:0:30:hat.wav
448,192,12000,1,0,0:0:0:0:
320,192,12172,1,0,0:0:0:60:tom.wav
192,192,12343,1,2,0:0:0:0:
448,192,12343,1,4,0:0:0:0:
64,192,12686,1,0,0:0:0:30:clap.wav
448,192,12686,1,0,0:0:0:0:
320,192,12857,1,0,0:0:0:0:
64,192,13029,1,0,0:0:0:30:clap.wav
192,192,13029,1,0,0:0:0:0:
448,192,13200,1,0,0:0:0:0:
192,192,13372,1,0,0:0:0:30:clap.wav
320,192,13372,1,0,0:0:0:0:
64,192,13543,1,2,0:0:0:0:
448,192,13543,1,0,0:0:0:0:
192,192,13714,1,0,0:0:0:30:clap.wav
320,192,13714,1,0,0:0:0:0:
64,192,13886,1,0,0:0:0:0:
320,192,14057,1,0,0:0:0:30:clap.wav
448,192,14057,1,0,0:0:0:0:
192,192,14229,1,0,0:0:0:0:
64,192,14400,1,2,0:0:0:0:
448,192,14400,1,0,0:0:0:30:clap.wav
320,192,14572,1,0,0:0:0:0:
192,192,14657,1,0,0:0:0:0:
64,192,14743,1,0,0:0:0:30:clap.wav
448,192,14743,1,0,0:0:0:0:
448,192,14914,1,0,0:0:0:0:
320,192,15000,1,0,0:0:0:0:
64,192,15086,1,2,0:0:0:0:
192,192,15086,1,0,0:0:0:30:clap.wav
320,192,15257,1,0,0:0:0:0:
64,192,15429,1,0,0:0:0:30:clap.wav
448,192,15429,1,0,0:0:0:0:
192,192,15514,1,0,0:0:0:0:
320,192,15600,1,0,0:0:0:0:
64,192,15772,1,0,0:0:0:30:clap.wav
192,192,15772,1,0,0:0:0:0:
320,192,15943,1,0,0:0:0:0:
64,192,16114,1,0,0:0:0:30:clap.wav
448,192,16114,1,0,0:0:0:0:
320,192,16200,1,0,0:0:0:0:
192,192,16286,1,2,0:0:0:0:
320,192,16372,1,0,0:0:0:0:
64,192,16457,1,0,0:0:0:30:clap.wav
192,192,16543,1,0,0:0:0:0:
320,192,16629,1,0,0:0:0:0:
64,192,16800,1,0,0:0:0:30:clap.wav
192,192,16800,1,0,0:0:0:0:
448,192,16886,1,0,0:0:0:0:
320,192,16972,1,2,0:0:0:0:
64,192,17057,1,0,0:0:0:0:
192,192,17143,1,0,0:0:0:30:clap.wav
448,192,17143,1,0,0:0:0:0:
320,192,17314,128,0,17486:0:0:0:0:
64,192,17486,1,0,0:0:0:30:clap.wav
448,192,17486,1,0,0:0:0:0:
192,192,17572,1,0,0:0:0:0:
320,192,17657,1,0,0:0:0:0:
448,192,17743,1,0,0:0:0:0:
64,192,17829,1,0,0:0:0:30:clap.wav
192,192,17829,1,0,0:0:0:0:
64,192,18000,1,2,0:0:0:0:
320,192,18000,1,0,0:0:0:0:
192,192,18172,1,0,0:0:0:30:clap.wav
448,192,18172,1,0,0:0:0:0:
448,192,18343,1,0,0:0:0:0:
320,192,18429,1,0,0:0:0:0:
64,192,18514,1,2,0:0:0:0:
192,192,18514,1,0,0:0:0:30:clap.wav
448,192,18686,1,0,0:0:0:0:
64,192,18857,1,0,0:0:0:30:clap.wav
192,192,18857,1,0,0:0:0:0:
64,192,19029,1,2,0:0:0:0:
320,192,19029,1,0,0:0:0:0:
192,192,19200,1,0,0:0:0:30:clap.wav
448,192,19200,1,0,0:0:0:0:
64,192,19286,1,0,0:0:0:0:
320,192,19372,1,0,0:0:0:0:
192,192,19457,1,0,0:0:0:0:
64,192,19543,1,0,0:0:0:30:clap.wav
448,192,19543,1,0,0:0:0:0:
320,192,19629,1,0,0:0:0:0:
192,192,19714,1,0,0:0:0:0:
64,192,19800,1,0,0:0:0:0:
320,192,19886,1,2,0:0:0:0:
448,192,19886,1,0,0:0:0:30:clap.wav
192,192,20057,1,0,0:0:0:0:
64,192,20229,1,0,0:0:0:30:clap.wav
448,192,20229,1,0,0:0:0:0:
320,192,20400,1,0,0:0:0:0:
192,192,20486,1,0,0:0:0:0:
64,192,20572,1,2,0:0:0:0:
448,192,20572,128,0,21943:0:0:0:30:clap.wav
320,192,20743,1,0,0:0:0:0:
64,192,20914,1,0,0:0:0:0:
320,192,21257,1,0,0:0:0:0:
320,192,21600,1,0,0:0:0:0:
64,192,21943,1,0,0:0:0:0:
192,192,22029,128,0,22629:0:0:0:0:
320,192,22629,1,0,0:0:0:0:
64,192,23314,1,2,0:0:0:0:
192,192,23314,1,4,0:0:0:0:
448,192,23314,1,0,0:0:0:0:
320,192,23486,1,0,0:0:0:0:
192,192,23572,1,0,0:0:0:0:
448,192,23657,1,0,0:0:0:30:hat.wav
320,192,23743,1,0,0:0:0:0:
64,192,23829,1,2,0:0:0:0:
192,192,23829,1,0,0:0:0:0:
64,192,24000,1,8,0:0:0:0:
448,192,24000,128,0,24172:0:0:0:0:
192,192,24172,128,0,24343:0:0:0:0:
320,192,24343,128,0,24514:0:0:0:0:
64,192,24514,1,2,0:0:0:0:
192,192,24514,1,0,0:0:0:0:
448,192,24686,1,0,0:0:0:0:
320,192,24772,1,0,0:0:0:0:
64,192,24857,128,0,25029:0:0:0:0:
192,192,24943,1,0,0:0:0:30:hat.wav
320,192,25029,1,2,0:0:0:0:
448,192,25029,1,0,0:0:0:0:
448,192,25200,128,0,25372:0:0:0:0:
192,192,25372,1,8,0:0:0:0:
320,192,25372,1,0,0:0:0:0:
192,192,25543,128,0,25714:0:0:0:0:
448,192,25714,1,0,0:0:0:30:hat.wav
64,192,25886,128,0,26400:0:0:0:0:
320,192,26057,1,2,0:0:0:0:
448,192,26057,1,0,0:0:0:0:
192,192,26400,1,0,0:0:0:0:
320,192,26572,1,2,0:0:0:0:
448,192,26572,1,0,0:0:0:0:
64,192,26743,1,8,0:0:0:0:
320,192,26743,1,0,0:0:0:0:
448,192,26914,128,0,27086:0:0:0:0:
192,192,27086,128,0,27257:0:0:0:0:
320,192,27257,128,2,27429:0:0:0:0:
448,192,27257,1,0,0:0:0:0:
64,192,27429,128,0,27600:0:0:0:0:
192,192,27686,128,0,27857:0:0:0:0:
64,192,27943,1,2,0:0:0:0:
448,192,27943,1,0,0:0:0:0:
320,192,28029,1,0,0:0:0:30:hat.wav
64,192,28114,128,8,28286:0:0:0:0:
192,192,28114,1,0,0:0:0:0:
320,192,28286,1,0,0:0:0:0:
192,192,28457,1,0,0:0:0:0:
448,192,28457,128,0,28800:0:0:0:0:
64,192,28800,128,0,28972:0:0:0:0:
192,192,28972,1,2,0:0:0:0:
320,192,28972,1,0,0:0:0:0:
448,192,29143,1,0,0:0:0:30:hat.wav
64,192,29314,1,2,0:0:0:0:
192,192,29314,1,0,0:0:0:0:
192,192,29486,1,8,0:0:0:0:
448,192,29486,128,0,29829:0:0:0:0:
320,192,29829,128,0,30000:0:0:0:0:
64,192,30000,1,2,0:0:0:0:
192,192,30000,128,0,30172:0:0:0:0:
320,192,30343,128,0,30514:0:0:0:0:
64,192,30514,1,2,0:0:0:0:
192,192,30514,1,0,0:0:0:0:
448,192,30686,128,0,30857:0:0:0:0:
64,192,30857,1,8,0:0:0:0:
320,192,30857,1,0,0:0:0:0:
192,192,31029,128,0,31543:0:0:0:0:
64,192,31372,128,0,31543:0:0:0:0:
320,192,31543,128,2,32743:0:0:0:0:
448,192,31543,1,0,0:0:0:0:
64,192,31886,1,0,0:0:0:0:
192,192,32057,1,2,0:0:0:0:
448,192,32057,1,0,0:0:0:0:
64,192,32229,1,8,0:0:0:0:
448,192,32229,1,0,0:0:0:0:
192,192,32743,1,2,0:0:0:0:
448,192,32743,1,0,0:0:0:0:
64,192,32914,128,0,33086:0:0:0:0:
448,192,33086,1,0,0:0:0:0:
320,192,33172,1,0,0:0:0:0:
448,192,33257,1,0,0:0:0:0:
192,192,33343,1,0,0:0:0:35:snare.wav
64,192,33429,1,2,0:0:0:0:
320,192,33429,1,0,0:0:0:0:
64,192,33600,1,8,0:0:0:0:
192,192,33600,1,0,0:0:0:0:
320,192,33772,1,0,0:0:0:0:
320,192,33943,128,0,34286:0:0:0:0:
192,192,34286,128,2,34457:0:0:0:0:
448,192,34286,1,0,0:0:0:0:
192,192,34629,128,0,34800:0:0:0:0:
64,192,34972,1,8,0:0:0:0:
448,192,34972,1,0,0:0:0:0:
192,192,35143,1,0,0:0:0:0:
320,192,35229,1,0,0:0:0:0:
64,192,35314,128,2,35829:0:0:0:0:
192,192,35314,1,4,0:0:0:0:
448,192,35314,1,0,0:0:0:0:
448,192,35829,128,0,36000:0:0:0:0:
320,192,35914,1,0,0:0:0:30:hat.wav
64,192,36000,1,2,0:0:0:0:
192,192,36000,1,0,0:0:0:0:
320,192,36172,128,0,36343:0:0:0:0:
64,192,36343,1,8,0:0:0:0:
448,192,36343,1,0,0:0:0:0:
192,192,36514,128,0,36686:0:0:0:0:
448,192,36686,1,0,0:0:0:30:hat.wav
320,192,36857,128,0,37372:0:0:0:0:
64,192,37029,1,2,0:0:0:0:
192,192,37029,1,0,0:0:0:0:
448,192,37372,1,0,0:0:0:0:
64,192,37543,1,2,0:0:0:0:
192,192,37543,1,0,0:0:0:0:
192,192,37714,1,8,0:0:0:0:
448,192,37714,1,0,0:0:0:0:
320,192,37886,128,0,38057:0:0:0:0:
192,192,38057,128,0,38229:0:0:0:0:
320,192,38229,1,2,0:0:0:0:
448,192,38229,128,0,38400:0:0:0:0:
64,192,38400,128,0,38572:0:0:0:0:
192,192,38657,128,0,38829:0:0:0:0:
320,192,38914,1,2,0:0:0:0:
448,192,38914,1,0,0:0:0:0:
192,192,39000,1,0,0:0:0:30:hat.wav
64,192,39086,128,8,39257:0:0:0:0:
448,192,39086,1,0,0:0:0:0:
320,192,39257,1,0,0:0:0:0:
448,192,39429,128,0,39772:0:0:0:0:
192,192,39600,1,0,0:0:0:0:
320,192,39772,128,0,39943:0:0:0:0:
64,192,39943,1,2,0:0:0:0:
192,192,39943,1,0,0:0:0:0:
448,192,40114,1,0,0:0:0:30:hat.wav
192,192,40286,1,2,0:0:0:0:
320,192,40286,1,0,0:0:0:0:
64,192,40457,128,8,40800:0:0:0:0:
320,192,40457,1,0,0:0:0:0:
448,192,40800,128,0,40972:0:0:0:0:
64,192,40972,1,2,0:0:0:0:
192,192,40972,128,0,41143:0:0:0:0:
320,192,41314,128,0,41486:0:0:0:0:
64,192,41486,1,2,0:0:0:0:
448,192,41486,1,0,0:0:0:0:
192,192,41657,128,0,41829:0:0:0:0:
64,192,41829,1,8,0:0:0:0:
320,192,41829,1,0,0:0:0:0:
448,192,42000,128,0,42172:0:0:0:0:
64,192,42343,128,2,44057:0:0:0:0:
192,192,42343,1,0,0:0:0:0:
320,192,43029,1,2,0:0:0:0:
448,192,43029,1,0,0:0:0:0:
192,192,43114,1,0,0:0:0:30:hat.wav
320,192,43200,1,8,0:0:0:0:
448,192,43200,1,0,0:0:0:0:
192,192,43714,1,2,0:0:0:0:
320,192,43714,1,0,0:0:0:0:
448,192,44057,128,0,44143:0:0:0:35:snare.wav
320,192,44229,128,0,44400:0:0:0:35:snare.wav
192,192,44314,1,0,0:0:0:35:snare.wav
64,192,44400,128,2,44914:0:0:0:0:
448,192,44400,1,0,0:0:0:0:
192,192,44572,1,8,0:0:0:0:
320,192,44572,1,0,0:0:0:0:
320,192,44914,1,0,0:0:0:0:
64,192,45257,1,2,0:0:0:0:
192,192,45257,1,4,0:0:0:0:
448,192,45257,1,0,0:0:0:0:
320,192,45600,128,0,45772:0:0:0:0:
192,192,45772,1,2,0:0:0:0:
448,192,45772,1,0,0:0:0:0:
64,192,45943,128,8,46114:0:0:0:0:
448,192,45943,1,0,0:0:0:0:
192,192,46286,128,0,46457:0:0:0:0:
64,192,46457,1,2,0:0:0:0:
448,192,46457,128,0,46800:0:0:0:0:
64,192,46800,128,0,46886:0:0:0:0:
320,192,46886,1,0,0:0:0:30:hat.wav
192,192,46972,128,2,47143:0:0:0:0:
448,192,46972,1,0,0:0:0:0:
320,192,47143,128,0,47314:0:0:0:0:
64,192,47314,1,8,0:0:0:0:
448,192,47314,1,0,0:0:0:0:
320,192,47486,128,0,47829:0:0:0:0:
448,192,47829,128,0,48514:0:0:0:0:
64,192,48000,1,2,0:0:0:0:
192,192,48000,1,0,0:0:0:0:
64,192,48514,1,2,0:0:0:0:
192,192,48514,1,0,0:0:0:0:
64,192,48686,1,8,0:0:0:0:
448,192,48686,1,0,0:0:0:0:
320,192,48857,128,0,49029:0:0:0:0:
192,192,49029,128,0,49200:0:0:0:0:
320,192,49200,1,2,0:0:0:0:
448,192,49200,128,0,49372:0:0:0:0:
64,192,49372,128,0,49543:0:0:0:0:
192,192,49629,128,0,49800:0:0:0:0:
64,192,49886,1,2,0:0:0:0:
448,192,49886,1,0,0:0:0:0:
320,192,49972,1,0,0:0:0:30:hat.wav
192,192,50057,128,8,50229:0:0:0:0:
448,192,50057,1,0,0:0:0:0:
320,192,50229,1,0,0:0:0:0:
64,192,50400,128,0,50743:0:0:0:0:
448,192,50743,128,0,50914:0:0:0:0:
64,192,50914,1,2,0:0:0:0:
192,192,50914,1,0,0:0:0:0:
320,192,51086,1,0,0:0:0:30:hat.wav
192,192,51257,1,2,0:0:0:0:
448,192,51257,1,0,0:0:0:0:
64,192,51429,128,8,51772:0:0:0:0:
448,192,51429,1,0,0:0:0:0:
320,192,51772,128,0,51943:0:0:0:0:
64,192,51943,1,2,0:0:0:0:
192,192,51943,1,0,0:0:0:0:
192,192,52286,128,0,52457:0:0:0:0:
64,192,52457,1,2,0:0:0:0:
448,192,52457,1,0,0:0:0:0:
320,192,52629,128,0,52800:0:0:0:0:
192,192,52800,1,8,0:0:0:0:
448,192,52800,1,0,0:0:0:0:
64,192,52972,128,0,53486:0:0:0:0:
320,192,53314,128,0,53486:0:0:0:0:
192,192,53486,1,2,0:0:0:0:
448,192,53486,128,0,55200:0:0:0:0:
320,192,53829,1,0,0:0:0:0:
64,192,54000,1,2,0:0:0:0:
192,192,54000,1,0,0:0:0:0:
64,192,54172,1,8,0:0:0:0:
320,192,54172,1,0,0:0:0:0:
192,192,54686,1,2,0:0:0:0:
320,192,54686,1,0,0:0:0:0:
192,192,55200,1,0,0:0:0:0:
64,192,55372,1,2,0:0:0:0:
320,192,55372,1,0,0:0:0:0:
64,192,55543,1,8,0:0:0:0:
448,192,55543,1,0,0:0:0:0:
192,192,55714,1,0,0:0:0:0:
192,192,55886,1,0,0:0:0:0:
448,192,56057,1,0,0:0:0:0:
64,192,56229,1,2,0:0:0:0:
192,192,56229,1,4,0:0:0:0:
448,192,56229,128,0,56743:0:0:0:0:
192,192,56572,1,0,0:0:0:0:
320,192,56743,1,0,0:0:0:0:
64,192,56914,1,2,0:0:0:0:
192,192,56914,1,4,0:0:0:0:
448,192,56914,128,0,57429:0:0:0:0:
320,192,57257,1,0,0:0:0:0:
192,192,57429,1,0,0:0:0:0:
64,192,57600,1,2,0:0:0:0:
320,192,57600,1,4,0:0:0:0:
448,192,57600,1,0,0:0:0:0:
192,192,57772,1,0,0:0:0:0:
64,192,57943,1,2,0:0:0:0:
320,192,57943,1,4,0:0:0:0:
448,192,57943,1,0,0:0:0:0:
320,192,58114,1,0,0:0:0:30:hat.wav
64,192,58286,1,8,0:0:0:0:
448,192,58286,128,4,58800:0:0:0:0:
192,192,58629,128,0,58800:0:0:0:30:hat.wav
64,192,58972,1,2,0:0:0:0:
320,192,58972,1,0,0:0:0:0:
448,192,59143,1,0,0:0:0:0:
192,192,59229,1,0,0:0:0:0:
448,192,59314,1,0,0:0:0:0:
64,192,59486,1,2,0:0:0:0:
192,192,59486,1,0,0:0:0:0:
64,192,59657,128,8,60172:0:0:0:0:
448,192,59657,1,0,0:0:0:0:
192,192,60172,1,2,0:0:0:0:
448,192,60172,128,0,60343:0:0:0:0:
320,192,60343,128,0,60514:0:0:0:0:
64,192,60514,128,0,60686:0:0:0:0:
448,192,60686,128,0,60857:0:0:0:0:
320,192,60857,128,0,61029:0:0:0:0:
64,192,61029,1,2,0:0:0:0:
192,192,61029,128,0,61543:0:0:0:0:
448,192,61200,1,0,0:0:0:0:
448,192,61372,1,0,0:0:0:0:
64,192,61714,1,0,0:0:0:0:
320,192,61800,1,0,0:0:0:0:
192,192,61886,1,2,0:0:0:0:
448,192,61886,1,0,0:0:0:0:
64,192,62057,1,0,0:0:0:30:hat.wav
320,192,62229,1,2,0:0:0:0:
448,192,62229,1,0,0:0:0:0:
192,192,62400,128,8,62743:0:0:0:0:
448,192,62400,1,0,0:0:0:0:
320,192,62743,128,0,62914:0:0:0:0:
64,192,62914,1,2,0:0:0:0:
192,192,62914,1,0,0:0:0:0:
64,192,63257,128,0,63429:0:0:0:0:
320,192,63429,1,2,0:0:0:0:
448,192,63429,1,0,0:0:0:0:
448,192,63600,128,0,63772:0:0:0:0:
64,192,63772,1,8,0:0:0:0:
192,192,63772,1,0,0:0:0:0:
320,192,63943,128,0,64200:0:0:0:0:
192,192,64286,128,2,65657:0:0:0:0:
448,192,64286,1,0,0:0:0:0:
64,192,64800,1,0,0:0:0:0:
320,192,64972,1,2,0:0:0:0:
448,192,64972,1,0,0:0:0:0:
64,192,65143,1,8,0:0:0:0:
448,192,65143,1,0,0:0:0:0:
64,192,65657,128,0,66172:0:0:0:80:tick.wav
448,192,66172,1,0,0:0:0:0:
192,192,66343,1,2,0:0:0:0:
320,192,66343,1,0,0:0:0:0:
64,192,66514,128,8,67200:0:0:0:0:
448,192,66514,1,0,0:0:0:0:
192,192,67200,1,2,0:0:0:30:soft-hitwhistle.wav
448,192,67200,128,0,69943:0:0:0:0:
320,192,67372,1,0,0:0:0:0:
64,192,67543,1,0,0:0:0:0:
192,192,67714,1,0,0:0:0:0:
320,192,68057,1,0,0:0:0:0:
64,192,68229,1,0,0:0:0:0:
192,192,68229,1,0,0:0:0:0:
320,192,69257,1,0,0:0:0:0:
64,192,69943,1,0,0:0:0:0:
192,192,70114,1,0,0:0:0:0:
448,192,70286,1,0,0:0:0:0:
64,192,70457,1,0,0:0:0:0:
448,192,70629,1,0,0:0:0:0:
320,192,70800,1,0,0:0:0:0:
64,192,70972,1,0,0:0:0:0:
192,192,70972,1,0,0:0:0:0:
448,192,71486,128,0,71657:0:0:0:0:
64,192,71657,128,0,71829:0:0:0:0:
320,192,71829,128,0,72000:0:0:0:0:
64,192,72172,128,0,72343:0:0:0:0:
448,192,72343,128,0,72514:0:0:0:0:
192,192,72514,128,0,72686:0:0:0:0:
320,192,72686,1,0,0:0:0:0:
448,192,72857,1,0,0:0:0:0:
64,192,73029,1,0,0:0:0:0:
192,192,73029,1,0,0:0:0:0:
448,192,73200,1,0,0:0:0:0:
320,192,73372,1,0,0:0:0:0:
64,192,73543,1,0,0:0:0:0:
192,192,73543,1,0,0:0:0:0:
320,192,73714,1,0,0:0:0:0:
448,192,73714,1,0,0:0:0:0:
320,192,74743,1,0,0:0:0:0:
192,192,74914,1,0,0:0:0:0:
448,192,75086,1,0,0:0:0:0:
64,192,75257,128,0,75600:0:0:0:0:
320,192,75429,1,0,0:0:0:30:hat.wav
192,192,75600,1,0,0:0:0:0:
320,192,75772,1,0,0:0:0:30:hat.wav
448,192,75772,1,0,0:0:0:0:
192,192,75943,128,0,76286:0:0:0:0:
448,192,76114,1,0,0:0:0:30:hat.wav
64,192,76286,1,0,0:0:0:0:
320,192,76286,1,0,0:0:0:0:
448,192,76457,1,0,0:0:0:30:hat.wav
320,192,76972,128,0,77314:0:0:0:0:
192,192,77314,1,0,0:0:0:0:
192,192,77657,1,0,0:0:0:0:
320,192,77743,1,0,0:0:0:35:snare.wav
64,192,77829,1,0,0:0:0:60:snare.wav
448,192,77829,1,0,0:0:0:0:
64,192,78000,1,0,0:0:0:60:tom.wav
192,192,78172,1,0,0:0:0:30:clap.wav
448,192,78172,1,0,0:0:0:0:
320,192,78343,1,0,0:0:0:30:hat.wav
64,192,78514,1,0,0:0:0:30:clap.wav
448,192,78514,1,0,0:0:0:0:
192,192,78686,1,0,0:0:0:30:hat.wav
64,192,78857,1,0,0:0:0:30:clap.wav
448,192,78857,1,0,0:0:0:0:
320,192,79029,1,0,0:0:0:30:hat.wav
64,192,79200,1,0,0:0:0:30:clap.wav
448,192,79200,1,0,0:0:0:0:
192,192,79372,1,0,0:0:0:30:hat.wav
64,192,79543,1,0,0:0:0:30:clap.wav
320,192,79543,1,0,0:0:0:0:
448,192,79714,1,0,0:0:0:30:hat.wav
64,192,79886,1,0,0:0:0:30:clap.wav
320,192,79886,1,0,0:0:0:0:
192,192,80057,1,0,0:0:0:30:hat.wav
64,192,80229,1,0,0:0:0:30:clap.wav
320,192,80229,1,0,0:0:0:0:
448,192,80400,1,0,0:0:0:30:hat.wav
192,192,80572,1,0,0:0:0:30:clap.wav
320,192,80572,1,0,0:0:0:0:
64,192,80743,1,0,0:0:0:30:hat.wav
192,192,80914,1,0,0:0:0:30:clap.wav
320,192,80914,1,0,0:0:0:0:
448,192,81086,1,0,0:0:0:30:hat.wav
192,192,81257,1,0,0:0:0:30:clap.wav
320,192,81257,1,0,0:0:0:0:
64,192,81429,1,0,0:0:0:30:hat.wav
320,192,81600,1,0,0:0:0:30:clap.wav
448,192,81600,1,0,0:0:0:0:
192,192,81772,1,0,0:0:0:30:hat.wav
64,192,81943,1,0,0:0:0:30:clap.wav
448,192,81943,128,0,82457:0:0:0:0:
192,192,82114,1,0,0:0:0:30:hat.wav
320,192,82286,1,0,0:0:0:30:clap.wav
64,192,82457,1,0,0:0:0:30:hat.wav
64,192,82629,128,0,82972:0:0:0:30:clap.wav
320,192,82629,1,0,0:0:0:0:
192,192,82800,1,0,0:0:0:30:hat.wav
448,192,82972,1,0,0:0:0:30:clap.wav
320,192,83143,1,0,0:0:0:30:hat.wav
64,192,83314,1,0,0:0:0:30:clap.wav
320,192,83314,128,0,83657:0:0:0:0:
192,192,83486,1,0,0:0:0:30:hat.wav
64,192,83657,1,2,0:0:0:0:
448,192,83657,1,0,0:0:0:30:clap.wav
192,192,83829,1,2,0:0:0:0:
192,192,84000,1,2,0:0:0:0:
320,192,84000,1,0,0:0:0:30:clap.wav
448,192,84172,1,2,0:0:0:0:
192,192,84343,1,2,0:0:0:0:
448,192,84343,1,0,0:0:0:30:clap.wav
64,192,84514,1,2,0:0:0:0:
64,192,84686,1,2,0:0:0:0:
448,192,84686,1,0,0:0:0:30:clap.wav
320,192,84857,1,2,0:0:0:0:
192,192,85029,1,2,0:0:0:0:
320,192,85029,1,0,0:0:0:30:clap.wav
64,192,85200,1,2,0:0:0:0:
64,192,85372,1,2,0:0:0:0:
448,192,85372,1,0,0:0:0:30:clap.wav
192,192,85543,1,2,0:0:0:0:
192,192,85714,1,2,0:0:0:0:
448,192,85714,1,0,0:0:0:30:clap.wav
320,192,85886,1,2,0:0:0:0:
64,192,86057,1,2,0:0:0:0:
320,192,86057,1,0,0:0:0:30:clap.wav
192,192,86229,1,2,0:0:0:0:
320,192,86314,1,2,0:0:0:0:
64,192,86400,1,2,0:0:0:0:
192,192,86400,1,0,0:0:0:30:clap.wav
320,192,86572,1,2,0:0:0:0:
192,192,86657,1,2,0:0:0:0:
320,192,86743,1,2,0:0:0:0:
448,192,86743,1,0,0:0:0:30:clap.wav
64,192,86914,1,2,0:0:0:0:
192,192,87086,1,0,0:0:0:30:clap.wav
448,192,87086,1,0,0:0:0:0:
320,192,87257,1,0,0:0:0:0:
64,192,87429,128,0,88457:0:0:0:80:tick.wav
448,192,87772,1,0,0:0:0:0:
192,192,88114,1,0,0:0:0:0:
448,192,88457,1,0,0:0:0:30:clap.wav
320,192,88543,1,0,0:0:0:30:clap.wav
448,192,88629,1,0,0:0:0:30:clap.wav
192,192,88800,1,0,0:0:0:30:clap.wav
64,192,89143,1,2,0:0:0:0:
192,192,89143,1,4,0:0:0:0:
448,192,89143,1,0,0:0:0:0:
320,192,89314,1,0,0:0:0:0:
192,192,89400,1,0,0:0:0:0:
448,192,89486,1,0,0:0:0:30:hat.wav
320,192,89572,1,0,0:0:0:0:
64,192,89657,1,2,0:0:0:0:
192,192,89657,1,0,0:0:0:0:
64,192,89829,1,8,0:0:0:0:
448,192,89829,128,0,90000:0:0:0:0:
320,192,90000,128,0,90172:0:0:0:0:
64,192,90172,128,0,90343:0:0:0:0:
320,192,90343,1,2,0:0:0:0:
448,192,90343,1,0,0:0:0:0:
64,192,90514,1,0,0:0:0:0:
192,192,90600,1,0,0:0:0:0:
448,192,90686,128,0,90857:0:0:0:0:
320,192,90772,1,0,0:0:0:30:hat.wav
64,192,90857,1,2,0:0:0:0:
192,192,90857,1,0,0:0:0:0:
64,192,91029,128,0,91200:0:0:0:0:
192,192,91200,1,8,0:0:0:0:
448,192,91200,1,0,0:0:0:0:
320,192,91372,128,0,91629:0:0:0:0:
448,192,91714,128,0,92229:0:0:0:0:
64,192,91886,1,2,0:0:0:0:
192,192,91886,1,0,0:0:0:0:
320,192,92229,1,0,0:0:0:0:
64,192,92400,1,2,0:0:0:0:
192,192,92400,1,0,0:0:0:0:
192,192,92572,1,8,0:0:0:0:
320,192,92572,1,0,0:0:0:0:
64,192,92743,128,0,92914:0:0:0:0:
448,192,92914,128,0,93086:0:0:0:0:
64,192,93086,1,2,0:0:0:0:
192,192,93086,128,0,93257:0:0:0:0:
320,192,93257,128,0,93429:0:0:0:0:
192,192,93514,128,0,93686:0:0:0:0:
64,192,93772,1,2,0:0:0:0:
448,192,93772,1,0,0:0:0:0:
320,192,93857,1,0,0:0:0:30:hat.wav
192,192,93943,1,8,0:0:0:0:
448,192,93943,128,0,94114:0:0:0:0:
320,192,94114,1,0,0:0:0:0:
64,192,94286,128,0,94629:0:0:0:0:
192,192,94629,128,0,94800:0:0:0:0:
320,192,94800,1,2,0:0:0:0:
448,192,94800,1,0,0:0:0:0:
192,192,94972,1,0,0:0:0:30:hat.wav
64,192,95143,1,2,0:0:0:0:
448,192,95143,1,0,0:0:0:0:
64,192,95314,1,8,0:0:0:0:
320,192,95314,128,0,95657:0:0:0:0:
64,192,95657,128,0,95829:0:0:0:0:
192,192,95829,128,2,96000:0:0:0:0:
448,192,95829,1,0,0:0:0:0:
320,192,96172,128,0,96343:0:0:0:0:
64,192,96343,1,2,0:0:0:0:
448,192,96343,1,0,0:0:0:0:
192,192,96514,128,0,96686:0:0:0:0:
64,192,96686,1,8,0:0:0:0:
320,192,96686,1,0,0:0:0:0:
448,192,96857,128,0,97372:0:0:0:0:
320,192,97200,128,0,97372:0:0:0:0:
64,192,97372,128,2,98572:0:0:0:0:
192,192,97372,1,0,0:0:0:0:
448,192,97714,1,0,0:0:0:0:
192,192,97886,1,2,0:0:0:0:
320,192,97886,1,0,0:0:0:0:
192,192,98057,1,8,0:0:0:0:
448,192,98057,1,0,0:0:0:0:
192,192,98572,1,2,0:0:0:0:
320,192,98572,1,0,0:0:0:0:
448,192,98743,128,0,98914:0:0:0:0:
64,192,98914,1,0,0:0:0:0:
192,192,99000,1,0,0:0:0:0:
64,192,99086,1,0,0:0:0:0:
320,192,99172,1,0,0:0:0:35:snare.wav
192,192,99257,1,2,0:0:0:0:
448,192,99257,1,0,0:0:0:0:
320,192,99429,1,8,0:0:0:0:
448,192,99429,1,0,0:0:0:0:
192,192,99600,1,0,0:0:0:0:
192,192,99772,128,0,100114:0:0:0:0:
64,192,100114,1,2,0:0:0:0:
320,192,100114,128,0,100286:0:0:0:0:
320,192,100457,128,0,100629:0:0:0:0:
64,192,100800,1,8,0:0:0:0:
448,192,100800,1,0,0:0:0:0:
320,192,100972,1,0,0:0:0:0:
192,192,101057,1,0,0:0:0:0:
64,192,101143,1,2,0:0:0:0:
320,192,101143,1,4,0:0:0:0:
448,192,101143,128,0,101657:0:0:0:0:
64,192,101657,128,0,101829:0:0:0:0:
192,192,101743,1,0,0:0:0:30:hat.wav
320,192,101829,1,2,0:0:0:0:
448,192,101829,1,0,0:0:0:0:
192,192,102000,128,0,102172:0:0:0:0:
64,192,102172,1,8,0:0:0:0:
448,192,102172,1,0,0:0:0:0:
320,192,102343,128,0,102600:0:0:0:0:
192,192,102686,128,0,103200:0:0:0:0:
64,192,102857,1,2,0:0:0:0:
448,192,102857,1,0,0:0:0:0:
64,192,103372,1,2,0:0:0:0:
448,192,103372,1,0,0:0:0:0:
64,192,103543,1,8,0:0:0:0:
320,192,103543,1,0,0:0:0:0:
448,192,103714,128,0,103886:0:0:0:0:
64,192,103886,128,0,104057:0:0:0:0:
192,192,104057,128,2,104229:0:0:0:0:
320,192,104057,1,0,0:0:0:0:
448,192,104229,128,0,104400:0:0:0:0:
320,192,104486,128,0,104657:0:0:0:0:
64,192,104743,1,2,0:0:0:0:
192,192,104743,1,0,0:0:0:0:
320,192,104829,1,0,0:0:0:30:hat.wav
64,192,104914,128,8,105086:0:0:0:0:
448,192,104914,1,0,0:0:0:0:
320,192,105086,1,0,0:0:0:0:
192,192,105257,128,0,105600:0:0:0:0:
448,192,105429,1,0,0:0:0:0:
64,192,105600,128,0,105772:0:0:0:0:
320,192,105772,1,2,0:0:0:0:
448,192,105772,1,0,0:0:0:0:
192,192,105943,1,0,0:0:0:30:hat.wav
64,192,106114,1,2,0:0:0:0:
448,192,106114,1,0,0:0:0:0:
320,192,106286,128,8,106629:0:0:0:0:
448,192,106286,1,0,0:0:0:0:
64,192,106629,128,0,106800:0:0:0:0:
320,192,106800,1,2,0:0:0:0:
448,192,106800,1,0,0:0:0:0:
192,192,107143,128,0,107314:0:0:0:0:
64,192,107314,1,2,0:0:0:0:
448,192,107314,1,0,0:0:0:0:
320,192,107486,128,0,107657:0:0:0:0:
64,192,107657,1,8,0:0:0:0:
448,192,107657,1,0,0:0:0:0:
192,192,107829,128,0,108086:0:0:0:0:
320,192,108172,1,2,0:0:0:0:
448,192,108172,128,0,109886:0:0:0:0:
64,192,108857,1,2,0:0:0:0:
192,192,108857,1,0,0:0:0:0:
320,192,108943,1,0,0:0:0:30:hat.wav
64,192,109029,1,8,0:0:0:0:
192,192,109029,1,0,0:0:0:0:
192,192,109543,1,2,0:0:0:0:
320,192,109543,1,0,0:0:0:0:
64,192,109886,128,0,109972:0:0:0:35:snare.wav
192,192,110057,128,0,110229:0:0:0:35:snare.wav
320,192,110143,1,0,0:0:0:35:snare.wav
64,192,110229,1,2,0:0:0:0:
448,192,110229,128,0,110743:0:0:0:0:
192,192,110400,1,8,0:0:0:0:
320,192,110400,1,0,0:0:0:0:
64,192,110743,1,0,0:0:0:0:
64,192,111086,1,2,0:0:0:0:
320,192,111086,1,4,0:0:0:0:
448,192,111086,1,0,0:0:0:0:
192,192,111429,128,0,111600:0:0:0:0:
64,192,111600,1,2,0:0:0:0:
448,192,111600,1,0,0:0:0:0:
320,192,111772,128,8,111943:0:0:0:0:
448,192,111772,1,0,0:0:0:0:
64,192,112114,128,0,112286:0:0:0:0:
192,192,112286,128,2,112629:0:0:0:0:
448,192,112286,1,0,0:0:0:0:
448,192,112629,128,0,112714:0:0:0:0:
320,192,112714,1,0,0:0:0:30:hat.wav
64,192,112800,128,2,112972:0:0:0:0:
192,192,112800,1,0,0:0:0:0:
320,192,112972,128,0,113143:0:0:0:0:
192,192,113143,1,8,0:0:0:0:
448,192,113143,1,0,0:0:0:0:
320,192,113314,128,0,113657:0:0:0:0:
192,192,113657,128,0,114343:0:0:0:0:
64,192,113829,1,2,0:0:0:0:
448,192,113829,1,0,0:0:0:0:
320,192,114343,1,2,0:0:0:0:
448,192,114343,1,0,0:0:0:0:
64,192,114514,1,8,0:0:0:0:
448,192,114514,1,0,0:0:0:0:
320,192,114686,128,0,114857:0:0:0:0:
192,192,114857,128,0,115029:0:0:0:0:
320,192,115029,1,2,0:0:0:0:
448,192,115029,128,0,115200:0:0:0:0:
64,192,115200,128,0,115372:0:0:0:0:
192,192,115457,128,0,115629:0:0:0:0:
64,192,115714,1,2,0:0:0:0:
448,192,115714,1,0,0:0:0:0:
320,192,115800,1,0,0:0:0:30:hat.wav
64,192,115886,128,8,116057:0:0:0:0:
192,192,115886,1,0,0:0:0:0:
320,192,116057,1,0,0:0:0:0:
448,192,116229,128,0,116572:0:0:0:0:
64,192,116572,128,0,116743:0:0:0:0:
192,192,116743,1,2,0:0:0:0:
320,192,116743,1,0,0:0:0:0:
448,192,116914,1,0,0:0:0:30:hat.wav
64,192,117086,1,2,0:0:0:0:
192,192,117086,1,0,0:0:0:0:
64,192,117257,1,8,0:0:0:0:
320,192,117257,128,0,117600:0:0:0:0:
192,192,117600,128,0,117772:0:0:0:0:
320,192,117772,1,2,0:0:0:0:
448,192,117772,128,0,117943:0:0:0:0:
320,192,118114,128,0,118286:0:0:0:0:
64,192,118286,1,2,0:0:0:0:
448,192,118286,1,0,0:0:0:0:
192,192,118457,128,0,118629:0:0:0:0:
64,192,118629,1,8,0:0:0:0:
320,192,118629,1,0,0:0:0:0:
448,192,118800,128,0,119314:0:0:0:0:
192,192,119143,128,0,119314:0:0:0:0:
64,192,119314,128,2,121029:0:0:0:0:
320,192,119314,1,0,0:0:0:0:
448,192,119657,1,0,0:0:0:0:
192,192,119829,1,2,0:0:0:0:
320,192,119829,1,0,0:0:0:0:
192,192,120000,1,8,0:0:0:0:
448,192,120000,1,0,0:0:0:0:
320,192,120514,1,2,0:0:0:0:
448,192,120514,1,0,0:0:0:0:
192,192,121029,1,0,0:0:0:0:
320,192,121200,1,2,0:0:0:0:
448,192,121200,1,0,0:0:0:0:
64,192,121372,1,8,0:0:0:0:
448,192,121372,128,0,122057:0:0:0:0:
64,192,122057,1,2,0:0:0:0:
320,192,122057,1,4,0:0:0:0:
192,192,122229,1,0,0:0:0:0:
192,192,122400,1,0,0:0:0:0:
64,192,122572,1,2,0:0:0:0:
448,192,122572,1,0,0:0:0:0:
64,192,122743,1,8,0:0:0:0:
320,192,122743,128,0,122914:0:0:0:0:
448,192,122914,128,0,123086:0:0:0:0:
64,192,123086,128,0,123257:0:0:0:0:
192,192,123257,128,2,123600:0:0:0:0:
320,192,123257,1,0,0:0:0:0:
448,192,123600,1,0,0:0:0:0:
320,192,123686,1,0,0:0:0:30:hat.wav
64,192,123772,128,2,124114:0:0:0:0:
192,192,123772,1,0,0:0:0:0:
448,192,123943,1,0,0:0:0:30:hat.wav
320,192,124114,128,8,124800:0:0:0:0:
448,192,124114,1,0,0:0:0:0:
64,192,124457,1,0,0:0:0:30:hat.wav
192,192,124800,1,2,0:0:0:0:
448,192,124800,1,0,0:0:0:0:
320,192,124972,1,0,0:0:0:0:
320,192,125143,1,0,0:0:0:0:
64,192,125314,1,2,0:0:0:0:
192,192,125314,1,0,0:0:0:0:
64,192,125486,1,8,0:0:0:0:
448,192,125486,128,0,125657:0:0:0:0:
192,192,125657,128,0,125829:0:0:0:0:
320,192,125829,128,0,126000:0:0:0:0:
64,192,126000,128,2,126343:0:0:0:0:
192,192,126000,1,0,0:0:0:0:
448,192,126172,1,0,0:0:0:0:
320,192,126257,1,0,0:0:0:0:
192,192,126343,1,0,0:0:0:0:
448,192,126514,128,0,126686:0:0:0:0:
64,192,126686,1,2,0:0:0:0:
192,192,126686,1,0,0:0:0:0:
320,192,126772,1,0,0:0:0:30:hat.wav
64,192,126857,1,8,0:0:0:0:
448,192,126857,1,0,0:0:0:0:
192,192,127029,1,0,0:0:0:0:
320,192,127200,1,0,0:0:0:0:
320,192,127372,1,0,0:0:0:0:
64,192,127714,1,2,0:0:0:0:
192,192,127714,1,0,0:0:0:0:
64,192,127886,1,0,0:0:0:0:
448,192,127886,1,0,0:0:0:0:
320,192,128057,1,2,0:0:0:0:
448,192,128057,1,0,0:0:0:0:
64,192,128229,128,8,128572:0:0:0:0:
320,192,128229,1,0,0:0:0:0:
448,192,128572,1,0,0:0:0:0:
320,192,128657,1,0,0:0:0:0:
64,192,128743,1,2,0:0:0:0:
192,192,128743,1,0,0:0:0:0:
64,192,129086,128,0,129257:0:0:0:0:
320,192,129257,1,2,0:0:0:0:
448,192,129257,1,0,0:0:0:0:
192,192,129429,128,0,129600:0:0:0:0:
64,192,129600,1,8,0:0:0:0:
448,192,129600,1,0,0:0:0:0:
320,192,129772,128,0,130029:0:0:0:0:
64,192,130114,1,2,0:0:0:0:
448,192,130114,128,0,131829:0:0:0:0:
192,192,130629,1,0,0:0:0:0:
64,192,130800,1,2,0:0:0:0:
320,192,130800,1,0,0:0:0:0:
192,192,130972,1,8,0:0:0:0:
320,192,130972,1,0,0:0:0:0:
64,192,131486,128,0,131829:0:0:0:80:tick.wav
320,192,131829,1,0,0:0:0:0:
192,192,132000,1,0,0:0:0:0:
320,192,132172,1,2,0:0:0:0:
448,192,132172,1,0,0:0:0:0:
64,192,132343,128,8,133029:0:0:0:0:
448,192,132343,1,0,0:0:0:0:
192,192,133029,1,2,0:0:0:30:soft-hitwhistle.wav
448,192,133029,128,0,135772:0:0:0:0:
320,192,133200,1,0,0:0:0:0:
64,192,133372,1,0,0:0:0:0:
192,192,133543,1,0,0:0:0:0:
320,192,133886,1,0,0:0:0:0:
64,192,134057,1,0,0:0:0:0:
192,192,134057,1,0,0:0:0:0:
320,192,135086,1,0,0:0:0:0:
64,192,135772,1,0,0:0:0:0:
192,192,135943,1,0,0:0:0:0:
320,192,136114,1,0,0:0:0:0:
448,192,136114,1,0,0:0:0:0:
64,192,136286,1,0,0:0:0:0:
320,192,136457,1,0,0:0:0:0:
448,192,136629,1,0,0:0:0:0:
64,192,136800,1,0,0:0:0:0:
192,192,136800,1,0,0:0:0:0:
320,192,137314,1,0,0:0:0:0:
192,192,137486,128,0,137657:0:0:0:0:
320,192,137657,1,0,0:0:0:0:
64,192,137829,1,0,0:0:0:0:
448,192,138000,1,0,0:0:0:0:
64,192,138172,1,0,0:0:0:0:
192,192,138172,1,0,0:0:0:0:
320,192,138514,1,0,0:0:0:0:
192,192,138686,1,0,0:0:0:0:
320,192,138857,1,0,0:0:0:0:
448,192,138857,1,0,0:0:0:0:
64,192,139029,1,0,0:0:0:0:
320,192,139200,1,0,0:0:0:0:
192,192,139372,1,0,0:0:0:0:
448,192,139372,1,0,0:0:0:0:
64,192,139543,1,0,0:0:0:0:
320,192,139543,1,0,0:0:0:0:
64,192,140572,1,0,0:0:0:0:
192,192,140743,1,0,0:0:0:0:
448,192,140914,1,0,0:0:0:0:
320,192,141086,1,0,0:0:0:0:
64,192,141257,1,0,0:0:0:0:
192,192,141429,1,0,0:0:0:0:
320,192,141600,1,0,0:0:0:0:
448,192,141600,1,0,0:0:0:0:
192,192,141772,1,0,0:0:0:0:
320,192,141943,1,0,0:0:0:0:
64,192,142114,1,0,0:0:0:0:
192,192,142286,1,0,0:0:0:0:
448,192,142286,1,0,0:0:0:0:
