osu file format v14

[General]
AudioFilename: audio.mp3
AudioLeadIn: 0
PreviewTime: 31289
Countdown: 0
SampleSet: None
StackLeniency: 0.7
Mode: 0
LetterboxInBreaks: 0
WidescreenStoryboard: 1

[Editor]
DistanceSpacing: 0.4
BeatDivisor: 4
GridSize: 32
TimelineZoom: 2.3

[Metadata]
Title:Capitalism Cannon
TitleUnicode:Capitalism Cannon
Artist:O2i3
ArtistUnicode:O2i3
Creator:My Angel RangE
Version:hitsound
Source:MÚSECA
Tags:
BeatmapID:1946164
BeatmapSetID:932091

[Difficulty]
HPDrainRate:4
CircleSize:4.5
OverallDifficulty:8.7
ApproachRate:9.5
SliderMultiplier:1.9
SliderTickRate:1

[Events]
//Background and Video events
0,0,"5445.jpg",0,0
//Break Periods
2,102301,114208
//Storyboard Layer 0 (Background)
//Storyboard Layer 1 (Fail)
//Storyboard Layer 2 (Pass)
//Storyboard Layer 3 (Foreground)
//Storyboard Sound Samples

[TimingPoints]
2312,315.789473684211,4,1,2,30,1,0
2312,-166.666666666667,4,1,2,30,0,0
9890,-83.3333333333333,4,1,2,60,0,0
10364,-71.4285714285714,4,1,2,60,0,0
10996,-100,4,1,2,60,0,0
12417,-125,4,1,3,30,0,0
17469,-100,4,1,2,50,0,0
20627,-71.4285714285714,4,1,2,40,0,0
20838,-125,4,1,2,40,0,0
21048,-166.666666666667,4,1,2,40,0,0
21259,-125,4,1,2,30,0,0
25680,-83.3333333333333,4,1,2,40,0,0
26312,-100,4,1,2,50,0,0
30101,-142.857142857143,4,1,2,30,0,0
31364,-71.4285714285714,4,1,2,70,0,1
31996,-200,4,1,2,70,0,1
32312,-100,4,1,2,70,0,1
32627,-71.4285714285714,4,1,2,70,0,1
32943,-100,4,1,2,70,0,1
33890,-71.4285714285714,4,1,2,70,0,1
34522,-100,4,1,2,70,0,1
34838,-125,4,1,2,70,0,1
35154,-166.666666666667,4,1,2,70,0,1
36259,-100,4,1,2,70,0,1
36417,-166.666666666667,4,1,2,70,0,1
37048,-71.4285714285715,4,1,2,70,0,1
37364,-100,4,1,2,70,0,1
37680,-100,4,1,2,70,0,1
38312,-100,4,1,2,65,0,1
38390,-100,4,1,2,60,0,1
38469,-100,4,1,2,55,0,1
38548,-100,4,1,2,50,0,1
38627,-100,4,1,2,45,0,1
38706,-100,4,1,2,35,0,1
38785,-100,4,1,2,25,0,1
38864,-100,4,1,2,15,0,1
38943,-71.4285714285714,4,1,2,70,0,1
39259,-100,4,1,2,70,0,1
39575,-100,4,1,2,70,0,1
39890,-125,4,1,2,70,0,1
40206,-71.4285714285714,4,1,2,70,0,1
40522,-100,4,1,2,70,0,1
40838,-71.4285714285714,4,1,2,70,0,1
41469,-100,4,1,2,70,0,1
42101,-166.666666666667,4,1,2,70,0,1
42733,-71.4285714285714,4,1,2,70,0,1
43048,-125,4,1,2,70,0,1
43364,-100,4,1,2,70,0,1
46206,-71.4285714285714,4,1,2,70,0,1
46443,-71.4285714285714,4,1,2,5,0,1
46522,-166.666666666667,4,1,2,70,0,1
48417,-71.4285714285715,4,1,2,70,0,1
48575,-100,4,1,2,70,0,1
49048,-71.4285714285715,4,1,2,70,0,1
49996,-100,4,1,2,70,0,1
50312,-500.000000000005,4,1,2,70,0,1
51575,-100,4,1,2,60,0,0
61048,-500,4,1,2,60,0,0
61680,-125,4,1,2,60,0,0
63733,-100,4,1,5,60,0,0
64206,-125,4,1,2,60,0,0
66101,-100,4,1,5,60,0,0
66733,-100,4,1,2,60,0,0
69259,-500,4,1,2,60,0,0
69338,-500,4,1,2,5,0,0
70522,-100,4,1,4,60,0,0
71785,-166.666666666667,4,1,3,60,0,0
72417,-100,4,1,2,60,0,0
73996,-71.4285714285714,4,1,2,60,0,0
74312,-100,4,1,2,60,0,0
76838,-166.666666666667,4,1,2,60,0,0
77154,-100,4,1,2,60,0,0
77785,-83.3333333333333,4,1,2,60,0,0
78101,-100,4,1,2,60,0,0
79048,-71.4285714285714,4,1,2,60,0,0
79364,-100,4,1,2,60,0,0
80627,-100,4,1,2,55,0,0
80706,-100,4,1,2,50,0,0
80785,-100,4,1,2,45,0,0
80864,-100,4,1,2,40,0,0
80943,-100,4,1,2,37,0,0
81022,-100,4,1,2,35,0,0
81101,-100,4,1,2,32,0,0
81180,-100,4,1,2,30,0,0
81259,-100,4,1,2,25,0,0
81338,-100,4,1,2,20,0,0
81417,-100,4,1,2,15,0,0
81496,-100,4,1,2,10,0,0
81575,-100,4,1,2,5,0,0
81890,-71.4285714285714,4,1,2,60,0,0
82838,-100,4,1,2,60,0,0
84101,-71.4285714285714,4,1,2,60,0,0
84417,-100,4,1,2,60,0,0
86627,-83.3333333333333,4,1,2,60,0,0
86943,-100,4,1,2,60,0,0
87259,-100,4,1,2,60,0,0
87890,-83.3333333333333,4,1,2,60,0,0
88206,-100,4,1,2,60,0,0
89154,-71.4285714285714,4,1,2,60,0,0
89469,-100,4,1,2,60,0,0
90733,-250.000000000001,4,1,2,60,0,0
91996,-125,4,1,2,60,0,0
92627,-83.3333333333333,4,1,2,60,0,0
93259,-125,4,1,2,60,0,0
93890,-83.3333333333333,4,1,2,60,0,0
94522,-71.4285714285714,4,1,2,60,0,0
95154,-100,4,1,2,60,0,0
97048,-125,4,1,2,60,0,0
97680,-250,4,1,2,60,0,0
98312,-100,4,1,2,60,0,0
101469,-100,4,1,2,60,0,0
101548,-100,4,1,2,55,0,0
101627,-100,4,1,2,50,0,0
101706,-100,4,1,2,45,0,0
101785,-100,4,1,2,40,0,0
101864,-100,4,1,2,35,0,0
101943,-100,4,1,2,25,0,0
102022,-100,4,1,2,15,0,0
102101,-100,4,1,2,60,0,0
103996,-71.4285714285714,4,1,2,60,0,0
104627,-100,4,1,2,60,0,0
107154,-125,4,1,2,60,0,0
107785,-250,4,1,2,60,0,0
108417,-100,4,1,2,60,0,0
110943,-500,4,1,2,60,0,0
114733,-500,4,2,2,60,0,0

[Colours]
Combo1 : 128,128,255
Combo2 : 0,0,189
Combo3 : 104,255,255
Combo4 : 80,0,159

[HitObjects]
210,121,2312,5,0,0:0:0:0:
68,77,2627,1,0,0:0:0:0:
152,44,2785,1,0,0:0:0:0:
168,204,3101,1,0,0:0:0:0:
210,121,3259,1,0,0:0:0:0:
258,207,3417,6,0,B|320:208|320:208|368:224|368:224|432:224,1,170.999994781494
226,140,4048,1,0,0:0:0:0:
196,158,4127,1,0,0:0:0:0:
187,192,4206,2,0,P|212:125|164:27,1,170.999994781494
74,208,4838,6,0,L|187:192,1,113.999996520996
74,208,5785,1,0,0:0:0:0:
174,269,6101,5,0,0:0:0:0:
174,269,7364,5,0,0:0:0:0:
349,239,7679,1,0,0:0:0:0:
272,324,7837,1,0,0:0:0:0:
343,153,8153,1,0,0:0:0:0:
433,267,8311,1,0,0:0:0:0:
296,298,8469,1,0,0:0:0:0:
296,298,8548,6,0,P|231:283|138:289,1,142.499995651245
5,344,9101,2,0,P|89:336|155:284,1,170.999994781494
41,181,9733,1,0,0:0:0:0:
57,211,9812,1,0,0:0:0:0:
56,243,9890,6,0,P|32:157|99:43,1,227.999993041992
202,220,10364,6,0,P|124:157|242:158,1,265.999991882324
412,116,10838,1,0,0:0:0:0:
412,116,10917,1,0,0:0:0:0:
412,116,10996,6,0,B|345:158|271:123|271:123|223:97|188:86|169:140|223:177|247:107,1,285
253,88,11548,1,0,0:0:0:0:
212,62,11627,1,0,0:0:0:0:
166,74,11706,1,0,0:0:0:0:
150,118,11785,2,0,L|160:344,1,190
342,245,12417,5,8,0:0:0:0:
275,170,12575,1,0,0:0:0:0:
242,263,12733,1,0,0:0:0:0:
242,263,13048,1,0,0:0:0:0:
407,363,13364,1,0,0:0:0:0:
427,277,13522,1,8,0:0:0:0:
342,245,13680,5,0,0:0:0:0:
263,321,13838,1,0,0:0:0:0:
252,292,13917,1,0,0:0:0:0:
242,263,13996,1,0,0:0:0:0:
193,371,14154,1,0,0:0:0:0:
91,242,14312,2,0,L|256:265,1,152,8|0,0:0|0:0,0:0:0:0:
57,317,14943,5,8,0:0:0:0:
3,251,15101,1,0,0:0:0:0:
36,174,15259,1,0,0:0:0:0:
36,174,15575,1,8,0:0:0:0:
168,182,15733,1,0,0:0:0:0:
97,242,15890,1,0,0:0:0:0:
200,333,16048,1,0,0:0:0:0:
190,300,16127,1,0,0:0:0:0:
183,266,16206,5,8,0:0:0:0:
97,347,16364,1,0,0:0:0:0:
295,288,16522,1,0,0:0:0:0:
183,266,16680,1,0,0:0:0:0:
344,355,16838,2,0,L|319:184,1,152,8|0,0:0|0:0,0:0:0:0:
423,46,17469,6,0,B|389:104|389:104|340:124|340:124|262:97,1,190,2|0,0:0|0:0,0:0:0:0:
199,39,17864,1,0,0:0:0:0:
199,39,17943,2,0,L|199:96,1,47.5
181,214,18101,2,0,B|215:156|215:156|264:136|264:136|342:163,1,190,8|0,0:0|0:0,0:0:0:0:
412,198,18496,1,0,0:0:0:0:
412,198,18575,2,0,L|408:267,1,47.5
284,254,18733,6,0,L|295:348,1,95,2|0,0:0|0:0,0:0:0:0:
181,214,19048,1,0,0:0:0:0:
227,112,19206,1,0,0:0:0:0:
330,158,19364,1,8,0:0:0:0:
328,195,19443,1,0,0:0:0:0:
325,232,19522,1,0,0:0:0:0:
405,99,19680,1,0,0:0:0:0:
478,202,19838,1,0,0:0:0:0:
322,269,19996,6,0,L|227:257,1,95,2|0,0:0|0:0,0:0:0:0:
70,233,20312,1,0,0:0:0:0:
135,324,20469,1,0,0:0:0:0:
162,155,20627,6,0,P|158:104|132:31,1,88.6666639607748,8|0,0:0|0:0,0:0:0:0:
250,4,20838,6,0,P|245:28|245:54,1,50.6666666666667,2|0,0:0|0:0,0:0:0:0:
334,137,21048,6,0,P|331:115|336:90,1,37.9999988403321,2|0,0:0|0:0,0:0:0:0:
404,181,21259,6,0,P|329:218|257:107,1,228,4|0,0:0|0:0,0:0:0:0:
436,102,22048,1,0,0:0:0:0:
498,167,22206,1,0,0:0:0:0:
462,242,22364,1,0,0:0:0:0:
431,240,22443,1,0,0:0:0:0:
400,236,22522,5,0,0:0:0:0:
400,236,22838,1,0,0:0:0:0:
301,139,22996,2,0,L|303:176,1,38
309,254,23154,5,0,0:0:0:0:
324,280,23233,1,0,0:0:0:0:
284,261,23312,1,0,0:0:0:0:
284,281,23390,1,0,0:0:0:0:
206,318,23469,5,0,0:0:0:0:
200,282,23548,1,0,0:0:0:0:
159,308,23627,1,0,0:0:0:0:
175,272,23706,1,0,0:0:0:0:
217,196,23785,5,0,0:0:0:0:
127,176,23943,1,0,0:0:0:0:
95,90,24101,1,0,0:0:0:0:
159,25,24259,1,0,0:0:0:0:
247,47,24417,1,0,0:0:0:0:
283,130,24575,1,0,0:0:0:0:
319,121,24654,1,0,0:0:0:0:
355,112,24733,1,0,0:0:0:0:
187,112,24890,1,0,0:0:0:0:
218,197,25048,5,0,0:0:0:0:
133,231,25206,1,0,0:0:0:0:
100,145,25364,1,0,0:0:0:0:
205,281,25522,1,0,0:0:0:0:
203,311,25601,1,0,0:0:0:0:
199,340,25680,6,0,B|169:316|169:316|176:266|176:266|216:253|216:253|221:202|221:202|190:154|190:154|193:126|193:126|214:101|214:101|215:78|215:78|181:19,1,341.999989562989
117,25,26312,5,0,0:0:0:0:
83,124,26469,1,0,0:0:0:0:
111,119,26548,1,0,0:0:0:0:
139,115,26627,1,0,0:0:0:0:
292,95,26785,1,0,0:0:0:0:
272,234,26943,1,0,0:0:0:0:
221,157,27101,1,0,0:0:0:0:
359,250,27259,1,0,0:0:0:0:
237,315,27417,1,0,0:0:0:0:
204,139,27575,6,0,L|376:124,1,142.5
373,126,27890,1,0,0:0:0:0:
202,53,28048,1,0,0:0:0:0:
206,81,28127,1,0,0:0:0:0:
211,108,28206,2,0,L|357:96,1,142.5
156,187,28522,2,0,L|13:175,1,142.5
228,252,28838,5,0,0:0:0:0:
228,252,28996,2,0,L|234:299,1,47.5
311,278,29154,2,0,L|332:322,1,47.5
399,269,29312,2,0,L|431:303,1,47.5
466,221,29469,5,0,0:0:0:0:
487,168,29548,1,0,0:0:0:0:
460,117,29627,1,0,0:0:0:0:
404,105,29706,1,0,0:0:0:0:
361,143,29785,5,0,0:0:0:0:
490,31,29943,1,0,0:0:0:0:
192,60,30101,2,0,B|238:27|298:59|298:59|375:106|442:52|442:52|371:10|297:59|297:59|266:96|290:157,1,498.749984779358
359,141,31364,6,0,P|281:54|325:198,1,398.999987823487
489,200,31996,6,0,P|456:196|411:208,1,71.25
368,272,32312,6,0,L|374:319,1,47.5
299,209,32469,2,0,L|342:149,1,47.5
286,292,32627,6,0,B|198:279|198:279|171:289|171:289|45:270,1,199.499993911743
32,221,32943,5,0,0:0:0:0:
188,327,33101,1,0,0:0:0:0:
140,320,33180,1,0,0:0:0:0:
93,311,33259,6,0,B|128:352|128:352|193:360|193:360|261:322|261:322|392:336,1,285
436,249,33890,6,0,B|345:238|345:238|397:222|435:159,1,199.499993911743
396,66,34206,2,0,P|342:150|209:173,1,199.499993911743
175,133,34522,5,0,0:0:0:0:
272,275,34680,1,0,0:0:0:0:
315,57,34838,2,0,P|287:88|228:100,1,76
137,62,35154,6,0,P|175:130|168:152,1,85.4999973907472
75,183,35469,2,0,P|37:115|44:93,1,85.4999973907472
108,124,35785,1,0,0:0:0:0:
177,202,35943,1,0,0:0:0:0:
179,230,36022,1,0,0:0:0:0:
180,260,36101,1,0,0:0:0:0:
261,138,36259,5,0,0:0:0:0:
268,184,36338,1,0,0:0:0:0:
277,230,36417,2,0,P|253:201|346:201,1,199.499993911743
344,220,37048,5,0,0:0:0:0:
363,255,37127,1,0,0:0:0:0:
399,270,37206,1,0,0:0:0:0:
437,259,37285,1,0,0:0:0:0:
464,231,37364,6,0,L|456:145,1,47.5
351,99,37522,2,0,L|348:172,1,47.5
344,220,37680,5,0,0:0:0:0:
312,249,37759,1,0,0:0:0:0:
269,250,37838,1,0,0:0:0:0:
235,222,37917,1,0,0:0:0:0:
192,213,37996,5,0,0:0:0:0:
143,243,38075,1,0,0:0:0:0:
142,300,38154,1,0,0:0:0:0:
178,343,38233,1,0,0:0:0:0:
234,346,38312,5,0,0:0:0:0:
226,313,38390,1,0,0:0:0:0:
221,279,38469,1,0,0:0:0:0:
215,246,38548,1,0,0:0:0:0:
192,213,38627,5,0,0:0:0:0:
197,189,38706,1,0,0:0:0:0:
201,165,38785,1,0,0:0:0:0:
204,141,38864,1,0,0:0:0:0:
139,93,38943,6,0,B|210:107|210:107|258:95|258:95|349:109,1,199.499993911743
169,20,39259,6,0,B|215:27|215:27|256:19|256:19|350:30,1,142.5
408,77,39575,6,0,P|412:114|403:140,1,47.5
332,153,39733,2,0,P|329:129|333:106,1,47.5
479,167,39890,6,0,P|481:226|470:269,1,76
332,153,40206,6,0,P|367:229|371:341,1,177.33332792155
233,364,40575,1,0,0:0:0:0:
216,231,40733,1,0,0:0:0:0:
190,267,40838,6,0,P|143:124|249:251,1,443.333319803874
165,245,41469,6,0,P|178:119|263:212,1,316.666666666667
363,295,42101,6,0,L|278:310,1,75.9999976806641
171,332,42417,2,0,L|96:346,1,75.9999976806641
321,278,42733,6,0,L|83:324,1,199.499993911743
50,273,43048,1,0,0:0:0:0:
288,309,43206,1,0,0:0:0:0:
255,314,43285,1,0,0:0:0:0:
287,228,43364,6,0,P|249:165|198:313,1,332.5
366,355,43996,5,0,0:0:0:0:
369,331,44075,1,0,0:0:0:0:
371,307,44154,2,0,L|299:323,1,47.5
210,233,44312,2,0,L|259:228,1,47.5
399,142,44469,2,0,L|352:152,1,47.5
209,66,44627,5,0,0:0:0:0:
205,89,44706,1,0,0:0:0:0:
201,112,44785,2,0,L|274:96,1,47.5
344,3,44943,2,0,L|342:71,1,47.5
272,191,45101,2,0,L|277:238,1,47.5
292,330,45259,5,0,0:0:0:0:
311,292,45337,1,0,0:0:0:0:
273,271,45416,1,0,0:0:0:0:
252,308,45495,1,0,0:0:0:0:
264,334,45575,5,0,0:0:0:0:
311,319,45653,1,0,0:0:0:0:
300,267,45732,1,0,0:0:0:0:
249,278,45811,1,0,0:0:0:0:
174,320,45890,2,0,P|163:341|161:364,1,47.5
118,252,46048,2,0,P|116:228|105:207,1,47.5
46,344,46206,6,0,P|50:267|-16:135,1,199.499993911743
216,122,46522,6,0,P|133:134|57:96,1,170.999994781494
214,243,47154,2,0,L|234:316,1,75.9999976806641
307,190,47469,2,0,L|311:138,1,37.9999988403321
317,62,47680,1,0,0:0:0:0:
409,238,47785,6,0,L|403:200,1,37.9999988403321
392,112,47996,1,0,0:0:0:0:
505,261,48101,2,0,L|494:176,1,75.9999976806641
392,112,48417,6,0,L|403:202,1,88.6666639607748
294,41,48575,6,0,B|300:99|300:99|272:170|272:170|285:267,1,221.666666666667
211,337,49048,6,0,B|258:292|258:292|318:283|318:283|402:310,1,199.499993911743
364,206,49364,6,0,B|317:251|317:251|257:260|257:260|173:233,1,199.499993911743
120,187,49680,1,0,0:0:0:0:
68,347,49838,1,0,0:0:0:0:
68,347,49917,1,0,0:0:0:0:
68,347,49996,6,0,L|239:334,1,142.5
371,239,50312,6,0,L|231:218,1,142.5
141,203,51575,5,0,0:0:0:0:
229,146,51733,2,0,L|215:202,1,47.5
297,132,51890,1,0,0:0:0:0:
376,107,52048,1,0,0:0:0:0:
291,169,52206,1,0,0:0:0:0:
291,169,52364,1,0,0:0:0:0:
291,169,52522,1,0,0:0:0:0:
291,169,52680,1,0,0:0:0:0:
291,169,52759,1,0,0:0:0:0:
291,169,52838,5,0,0:0:0:0:
250,154,52996,1,0,0:0:0:0:
250,154,53154,1,0,0:0:0:0:
250,154,53312,1,0,0:0:0:0:
251,139,53469,2,0,L|251:328,1,190
185,135,54101,6,0,P|166:182|165:200,1,47.5
185,135,54259,2,0,P|169:185|168:203,1,47.5
185,135,54417,2,0,P|173:189|172:207,1,47.5
276,195,54575,1,0,0:0:0:0:
276,195,54654,1,0,0:0:0:0:
276,195,54733,1,0,0:0:0:0:
276,195,54812,1,0,0:0:0:0:
276,195,54890,1,0,0:0:0:0:
276,195,54969,1,0,0:0:0:0:
276,195,55048,1,0,0:0:0:0:
276,195,55206,1,0,0:0:0:0:
276,195,55364,5,0,0:0:0:0:
217,160,55522,1,0,0:0:0:0:
217,160,55680,1,0,0:0:0:0:
217,160,55838,1,0,0:0:0:0:
217,160,55917,1,0,0:0:0:0:
202,133,55996,2,0,L|200:347,1,190
185,135,56627,6,0,P|166:182|165:200,1,47.5
185,135,56785,2,0,P|169:185|168:203,1,47.5
185,135,56943,2,0,P|173:189|172:207,1,47.5
260,173,57101,1,0,0:0:0:0:
246,219,57259,1,0,0:0:0:0:
246,219,57417,1,0,0:0:0:0:
246,219,57575,1,0,0:0:0:0:
260,173,57733,1,0,0:0:0:0:
246,219,57890,5,0,0:0:0:0:
260,173,58048,1,0,0:0:0:0:
246,219,58206,1,0,0:0:0:0:
246,219,58364,1,0,0:0:0:0:
246,219,58522,1,0,0:0:0:0:
260,173,58680,1,0,0:0:0:0:
260,173,58838,1,0,0:0:0:0:
246,219,58996,1,0,0:0:0:0:
200,149,59154,6,0,L|209:213,1,47.5
200,149,59312,2,0,L|212:216,1,47.5
200,149,59469,2,0,L|216:220,1,47.5
246,219,59627,1,0,0:0:0:0:
246,219,59785,1,0,0:0:0:0:
260,173,59943,1,0,0:0:0:0:
260,173,60101,1,0,0:0:0:0:
246,219,60259,1,0,0:0:0:0:
217,150,60417,6,0,L|204:88,1,47.5
217,150,60575,2,0,L|208:92,1,47.5
217,150,60733,2,0,L|211:95,1,47.5
217,150,60891,2,0,L|215:99,1,47.5
334,156,61048,6,0,L|342:82,1,66.5
192,170,61680,5,0,0:0:0:0:
192,170,61838,1,0,0:0:0:0:
248,141,61996,2,0,P|257:209|248:247,1,76
220,90,62312,2,0,P|248:130|242:175,1,76
127,265,62628,2,0,P|145:202|158:175,1,76
184,183,62943,5,0,0:0:0:0:
184,183,63101,1,0,0:0:0:0:
127,265,63259,2,0,P|145:202|158:175,1,76
225,158,63575,1,0,0:0:0:0:
203,157,63733,5,4,0:0:0:0:
254,108,63890,2,0,P|268:207|270:265,1,142.5,4|0,0:0|0:0,0:0:0:0:
192,170,64206,5,0,0:0:0:0:
192,170,64364,1,0,0:0:0:0:
248,141,64522,2,0,P|257:209|248:247,1,76
220,90,64838,2,0,P|248:130|242:175,1,76
127,265,65154,2,0,P|145:202|158:175,1,76
184,183,65469,5,0,0:0:0:0:
184,183,65627,1,0,0:0:0:0:
215,88,65785,2,0,L|236:171,1,76
178,155,66101,2,4,L|242:137,4,47.5
244,161,66733,5,0,0:0:0:0:
244,161,66890,1,0,0:0:0:0:
244,161,67048,1,0,0:0:0:0:
244,161,67205,1,0,0:0:0:0:
244,161,67364,1,0,0:0:0:0:
244,161,67522,1,0,0:0:0:0:
244,161,67679,1,0,0:0:0:0:
244,161,67838,1,0,0:0:0:0:
244,161,67996,5,0,0:0:0:0:
314,158,68075,1,0,0:0:0:0:
244,161,68153,1,0,0:0:0:0:
314,158,68233,1,0,0:0:0:0:
244,161,68311,1,0,0:0:0:0:
314,158,68390,1,0,0:0:0:0:
244,161,68468,1,0,0:0:0:0:
314,158,68548,1,0,0:0:0:0:
244,161,68627,5,0,0:0:0:0:
314,158,68706,1,0,0:0:0:0:
244,161,68784,1,0,0:0:0:0:
314,158,68863,1,0,0:0:0:0:
244,161,68943,1,0,0:0:0:0:
244,161,69022,1,0,0:0:0:0:
314,158,69101,1,0,0:0:0:0:
244,161,69179,1,0,0:0:0:0:
168,82,69259,6,0,L|157:230,1,142.5
166,185,70522,5,4,0:0:0:0:
244,162,70680,1,0,0:0:0:0:
244,162,70838,1,0,0:0:0:0:
244,162,70996,1,0,0:0:0:0:
244,162,71075,1,0,0:0:0:0:
244,162,71154,1,0,0:0:0:0:
244,162,71312,1,0,0:0:0:0:
243,172,71390,1,0,0:0:0:0:
242,172,71469,1,0,0:0:0:0:
242,172,71627,1,0,0:0:0:0:
246,175,71706,1,0,0:0:0:0:
369,82,71785,6,0,L|348:296,1,199.499993911743,4|0,0:0|0:0,0:0:0:0:
244,142,72417,5,0,0:0:0:0:
244,142,72496,1,0,0:0:0:0:
207,195,72575,2,0,L|263:171,1,47.5
244,142,72733,1,0,0:0:0:0:
244,142,72812,1,0,0:0:0:0:
207,195,72891,2,0,L|266:174,1,47.5
244,142,73048,5,0,0:0:0:0:
244,142,73127,1,0,0:0:0:0:
207,195,73206,2,0,L|270:178,1,47.5
244,142,73364,1,0,0:0:0:0:
244,142,73443,1,0,0:0:0:0:
207,195,73522,2,0,L|273:181,1,47.5
244,142,73680,1,0,0:0:0:0:
244,142,73759,1,0,0:0:0:0:
207,195,73838,2,0,L|277:185,1,47.5
204,223,73996,6,0,L|436:193,1,199.499993911743
296,137,74312,6,0,P|239:205|219:281,1,142.5
244,142,74627,5,0,0:0:0:0:
244,142,74706,1,0,0:0:0:0:
207,195,74785,2,0,L|263:171,1,47.5
244,142,74943,1,0,0:0:0:0:
244,142,75022,1,0,0:0:0:0:
207,195,75101,2,0,L|266:174,1,47.5
244,142,75258,5,0,0:0:0:0:
244,142,75337,1,0,0:0:0:0:
207,195,75417,2,0,L|270:178,1,47.5
244,142,75575,1,0,0:0:0:0:
244,142,75653,1,0,0:0:0:0:
207,195,75733,2,0,L|273:181,1,47.5
213,119,75890,6,0,L|211:64,1,47.5
300,71,76048,2,0,L|299:119,1,47.5
213,119,76206,2,0,L|211:64,1,47.5
300,71,76364,2,0,L|299:119,1,47.5
228,188,76522,2,0,L|397:144,1,142.5
329,236,76838,6,0,L|271:222,1,56.9999982604981
336,152,77154,5,0,0:0:0:0:
336,152,77233,1,0,0:0:0:0:
274,120,77312,2,0,L|280:192,1,47.5
336,152,77469,1,0,0:0:0:0:
336,152,77548,1,0,0:0:0:0:
274,120,77627,2,0,L|280:192,1,47.5
254,272,77785,6,0,L|79:236,1,170.999994781494
336,152,78101,5,0,0:0:0:0:
336,152,78180,1,0,0:0:0:0:
274,120,78259,2,0,L|280:192,1,47.5
336,152,78416,1,0,0:0:0:0:
336,152,78495,1,0,0:0:0:0:
274,120,78574,2,0,L|280:192,1,47.5
336,152,78733,1,0,0:0:0:0:
336,152,78812,1,0,0:0:0:0:
274,120,78891,2,0,L|280:192,1,47.5
128,170,79048,6,0,L|332:121,1,199.499993911743
226,138,79364,5,0,0:0:0:0:
226,138,79522,1,0,0:0:0:0:
226,138,79601,1,0,0:0:0:0:
226,138,79680,1,0,0:0:0:0:
226,138,79838,1,0,0:0:0:0:
226,138,79917,1,0,0:0:0:0:
226,138,79996,5,0,0:0:0:0:
226,138,80154,1,0,0:0:0:0:
226,138,80233,1,0,0:0:0:0:
226,138,80312,1,0,0:0:0:0:
226,138,80470,1,0,0:0:0:0:
226,138,80549,1,0,0:0:0:0:
235,161,80627,5,0,0:0:0:0:
226,138,80706,1,0,0:0:0:0:
226,138,80785,1,0,0:0:0:0:
226,138,80864,1,0,0:0:0:0:
226,138,80943,1,0,0:0:0:0:
226,138,81022,1,0,0:0:0:0:
226,138,81101,5,0,0:0:0:0:
226,138,81180,1,0,0:0:0:0:
226,138,81259,1,0,0:0:0:0:
226,138,81338,1,0,0:0:0:0:
226,138,81417,1,0,0:0:0:0:
226,138,81496,1,0,0:0:0:0:
226,138,81575,1,0,0:0:0:0:
328,162,81890,6,0,P|260:151|231:210,1,132.999995941162
328,162,82127,2,0,P|260:151|231:210,1,132.999995941162
284,151,82364,1,0,0:0:0:0:
201,203,82522,2,0,L|354:192,1,132.999995941162
336,152,82838,5,0,0:0:0:0:
336,152,82917,1,0,0:0:0:0:
274,120,82996,2,0,L|280:192,1,47.5
336,152,83153,1,0,0:0:0:0:
336,152,83232,1,0,0:0:0:0:
274,120,83311,2,0,L|280:192,1,47.5
336,152,83469,5,0,0:0:0:0:
336,152,83548,1,0,0:0:0:0:
274,120,83627,2,0,L|280:192,1,47.5
336,152,83784,1,0,0:0:0:0:
336,152,83863,1,0,0:0:0:0:
274,120,83942,2,0,L|280:192,1,47.5
340,54,84101,6,0,L|310:271,1,199.499993911743
170,251,84417,6,0,L|355:228,1,142.5
336,152,84733,5,0,0:0:0:0:
336,152,84812,1,0,0:0:0:0:
274,120,84891,2,0,L|280:192,1,47.5
336,152,85048,1,0,0:0:0:0:
336,152,85127,1,0,0:0:0:0:
274,120,85206,2,0,L|280:192,1,47.5
336,152,85364,5,0,0:0:0:0:
336,152,85443,1,0,0:0:0:0:
274,120,85522,2,0,L|280:192,1,47.5
336,152,85679,1,0,0:0:0:0:
336,152,85758,1,0,0:0:0:0:
274,120,85837,2,0,L|280:192,1,47.5
208,190,85996,6,0,L|170:136,1,47.5
225,160,86154,2,0,L|222:220,1,47.5
208,190,86312,2,0,L|170:136,1,47.5
225,160,86470,2,0,L|222:220,1,47.5
296,174,86627,6,0,L|241:337,1,170.999994781494
121,276,86943,6,0,P|188:284|219:297,1,95
189,199,87259,5,0,0:0:0:0:
189,199,87338,1,0,0:0:0:0:
205,204,87417,2,0,L|285:175,1,47.5
189,199,87575,1,0,0:0:0:0:
189,199,87654,1,0,0:0:0:0:
205,204,87733,2,0,L|285:175,1,47.5
220,102,87890,6,0,L|183:315,1,170.999994781494
189,199,88206,5,0,0:0:0:0:
189,199,88285,1,0,0:0:0:0:
205,204,88364,2,0,L|285:175,1,47.5
189,199,88522,1,0,0:0:0:0:
189,199,88601,1,0,0:0:0:0:
205,204,88680,2,0,L|285:175,1,47.5
189,199,88838,1,0,0:0:0:0:
189,199,88917,1,0,0:0:0:0:
205,204,88996,2,0,L|285:175,1,47.5
221,98,89154,6,0,L|227:329,1,199.499993911743
247,244,89469,5,0,0:0:0:0:
247,244,89627,1,0,0:0:0:0:
345,188,89706,1,0,0:0:0:0:
247,244,89785,1,0,0:0:0:0:
247,244,89943,1,0,0:0:0:0:
345,188,90022,1,0,0:0:0:0:
247,244,90101,5,0,0:0:0:0:
247,244,90259,1,0,0:0:0:0:
345,188,90338,1,0,0:0:0:0:
247,244,90417,1,0,0:0:0:0:
247,244,90575,1,0,0:0:0:0:
345,188,90654,1,0,0:0:0:0:
283,236,90733,6,0,P|246:278|280:209,1,285
325,258,91996,6,0,L|42:241,1,266
81,159,92627,6,0,P|113:217|85:351,1,170.999994781494
92,319,92943,2,0,L|223:280,1,113.999996520996
280,152,93259,6,0,L|267:243,1,76
280,152,93575,2,0,L|267:243,1,76
151,197,93890,6,0,P|210:192|302:258,1,170.999994781494
285,287,94206,2,0,L|291:147,1,113.999996520996
137,152,94522,6,0,P|295:164|295:177,1,199.499993911743
275,227,94838,2,0,P|276:82|334:91,1,199.499993911743
354,159,95154,6,0,L|338:235,1,47.5
167,205,95312,2,0,L|158:159,1,47.5
214,191,95469,1,0,0:0:0:0:
214,191,95548,1,0,0:0:0:0:
214,191,95627,1,0,0:0:0:0:
214,191,95706,1,0,0:0:0:0:
210,177,95785,6,0,L|261:193,1,47.5
316,202,95943,2,0,L|225:224,1,47.5
101,198,96101,2,0,L|269:224,1,142.5
283,235,96417,2,0,L|287:293,3,47.5
234,165,96733,1,0,0:0:0:0:
234,165,96890,1,0,0:0:0:0:
234,165,96969,1,0,0:0:0:0:
367,231,97048,6,0,L|97:224,1,266
97,165,97680,6,0,P|131:200|141:221,1,57
151,252,97996,2,0,L|166:179,1,57
226,89,98312,6,0,L|226:194,1,95
163,107,98943,2,0,P|211:112|264:158,1,95
243,189,99180,2,0,L|272:76,1,95
278,127,99417,1,0,0:0:0:0:
311,151,99575,5,0,0:0:0:0:
311,151,99733,1,0,0:0:0:0:
311,151,99812,1,0,0:0:0:0:
311,151,99890,1,0,0:0:0:0:
293,147,100048,1,0,0:0:0:0:
306,121,100127,1,0,0:0:0:0:
306,121,100206,5,0,0:0:0:0:
306,121,100364,1,0,0:0:0:0:
311,138,100443,1,0,0:0:0:0:
311,138,100522,1,0,0:0:0:0:
311,138,100680,1,0,0:0:0:0:
311,138,100759,1,0,0:0:0:0:
311,138,100838,5,0,0:0:0:0:
306,121,100917,1,0,0:0:0:0:
311,138,100996,1,0,0:0:0:0:
311,138,101075,1,0,0:0:0:0:
311,138,101154,1,0,0:0:0:0:
311,138,101233,1,0,0:0:0:0:
311,138,101312,1,0,0:0:0:0:
306,121,101390,1,0,0:0:0:0:
311,138,101469,5,0,0:0:0:0:
311,138,101548,1,0,0:0:0:0:
311,138,101627,1,0,0:0:0:0:
311,138,101706,1,0,0:0:0:0:
311,138,101785,1,0,0:0:0:0:
306,121,101864,1,0,0:0:0:0:
311,138,101943,1,0,0:0:0:0:
311,138,102022,1,0,0:0:0:0:
281,132,102101,5,0,0:0:0:0:
213,162,114733,5,4,0:0:0:0:
