osu file format v14

[General]
AudioFilename: audio.mp3
AudioLeadIn: 0
PreviewTime: 45980
Countdown: 0
SampleSet: None
StackLeniency: 0.7
Mode: 3
LetterboxInBreaks: 0
SpecialStyle: 0
WidescreenStoryboard: 1

[Editor]
DistanceSpacing: 1.5
BeatDivisor: 4
GridSize: 32
TimelineZoom: 1.3

[Metadata]
Title:Belly Flopper
TitleUnicode:Belly Flopper
Artist:O2i3
ArtistUnicode:O2i3
Creator:Takeshi Hiroshi
Version:EZ
Source:SOUND VOLTEX III GRAVITY WARS
Tags:
BeatmapID:1207550
BeatmapSetID:554142

[Difficulty]
HPDrainRate:5
CircleSize:4
OverallDifficulty:6
ApproachRate:5
SliderMultiplier:1.9
SliderTickRate:3

[Events]
//Background and Video events
0,0,"chica-anime.jpg",0,0
//Break Periods
//Storyboard Layer 0 (Background)
//Storyboard Layer 1 (Fail)
//Storyboard Layer 2 (Pass)
//Storyboard Layer 3 (Foreground)
//Storyboard Sound Samples

[TimingPoints]
575,324.324324324324,4,2,1,60,1,0
12250,-100,4,2,1,60,0,1
22629,-100,4,2,1,60,0,0
33007,-100,4,2,1,60,0,1
43385,-100,4,2,1,60,0,0
45980,-100,4,2,1,60,0,1
55073,-100,4,2,1,60,0,0
56683,-100,4,2,1,60,0,1
64142,-100,4,2,1,60,0,0
90088,-100,4,2,1,60,0,1
110845,-100,4,2,1,60,0,0

[HitObjects]
64,192,575,128,0,899:0:0:0:0:
448,192,899,128,0,1223:0:0:0:0:
320,192,1223,1,0,0:0:0:0:
64,192,1547,1,0,0:0:0:0:
448,192,1872,1,0,0:0:0:0:
320,192,2034,1,0,0:0:0:0:
64,192,2196,1,0,0:0:0:70:snd.wav
192,192,2358,1,0,0:0:0:70:snd.wav
320,192,2520,1,0,0:0:0:70:snd.wav
64,192,2845,1,0,0:0:0:0:
192,192,3007,1,0,0:0:0:0:
448,192,3169,1,0,0:0:0:70:snd.wav
320,192,3331,1,0,0:0:0:70:snd.wav
192,192,3493,1,0,0:0:0:70:snd.wav
64,192,3818,1,0,0:0:0:0:
448,192,4142,128,0,4466:0:0:0:0:
64,192,4466,1,0,0:0:0:0:
192,192,4629,1,0,0:0:0:0:
448,192,4791,1,0,0:0:0:70:snd.wav
320,192,4953,1,0,0:0:0:70:snd.wav
192,192,5115,1,0,0:0:0:70:snd.wav
448,192,5439,1,0,0:0:0:0:
320,192,5602,1,0,0:0:0:0:
64,192,5764,1,0,0:0:0:70:snd.wav
192,192,5926,1,0,0:0:0:70:snd.wav
320,192,6088,1,0,0:0:0:70:snd.wav
448,192,6412,1,0,0:0:0:0:
320,192,6737,128,0,6899:0:0:0:0:
192,192,6899,128,0,7061:0:0:0:0:
448,192,7061,128,0,7385:0:0:0:0:
64,192,7385,1,0,0:0:0:70:snd.wav
192,192,7547,1,0,0:0:0:70:snd.wav
320,192,7710,1,0,0:0:0:70:snd.wav
64,192,8034,128,0,8358:0:0:0:0:
448,192,8358,1,0,0:0:0:70:snd.wav
320,192,8520,1,0,0:0:0:70:snd.wav
192,192,8683,128,0,9007:0:0:0:70:snd.wav
64,192,9169,1,0,0:0:0:0:
192,192,9331,1,0,0:0:0:0:
320,192,9493,1,0,0:0:0:0:
448,192,9656,128,0,9980:0:0:0:100:snd.wav
192,192,9980,1,0,0:0:0:0:
64,192,10142,128,0,10466:0:0:0:100:snd.wav
448,192,10466,1,0,0:0:0:0:
320,192,10629,1,0,0:0:0:0:
192,192,10791,128,0,11602:0:0:0:0:
448,192,11602,128,0,11926:0:0:0:0:
64,192,11926,1,0,0:0:0:70:snd.wav
320,192,12250,1,0,0:0:0:0:
192,192,12574,1,0,0:0:0:0:
320,192,12899,1,0,0:0:0:0:
192,192,13061,1,0,0:0:0:0:
64,192,13223,128,0,13547:0:0:0:0:
192,192,13547,1,0,0:0:0:0:
448,192,13872,1,0,0:0:0:0:
192,192,14196,1,0,0:0:0:0:
320,192,14520,128,0,14845:0:0:0:0:
64,192,14845,1,0,0:0:0:0:
448,192,15169,1,0,0:0:0:0:
64,192,15493,1,0,0:0:0:0:
192,192,15656,1,0,0:0:0:0:
320,192,15818,1,0,0:0:0:0:
64,192,16142,1,0,0:0:0:0:
448,192,16304,128,0,16791:0:0:0:0:
64,192,16791,1,0,0:0:0:70:snd.wav
192,192,16953,1,0,0:0:0:0:
448,192,17115,128,0,17439:0:0:0:70:snd.wav
64,192,17439,1,0,0:0:0:0:
320,192,17764,1,0,0:0:0:0:
192,192,18088,1,0,0:0:0:0:
448,192,18412,128,0,18737:0:0:0:0:
320,192,18737,1,0,0:0:0:0:
192,192,19061,128,0,19385:0:0:0:0:
320,192,19385,128,0,19710:0:0:0:0:
64,192,19710,1,0,0:0:0:0:
320,192,20034,1,0,0:0:0:100:snd.wav
192,192,20358,1,0,0:0:0:0:
448,192,20683,1,0,0:0:0:70:snd.wav
320,192,20845,1,0,0:0:0:0:
192,192,21007,1,0,0:0:0:0:
64,192,21169,1,0,0:0:0:0:
64,192,21493,1,0,0:0:0:0:
192,192,21656,1,0,0:0:0:0:
320,192,21818,1,0,0:0:0:0:
448,192,21980,128,0,22304:0:0:0:100:snd.wav
64,192,22304,128,0,22629:0:0:0:0:
448,192,22791,1,0,0:0:0:0:
64,192,23115,1,0,0:0:0:0:
448,192,23439,1,0,0:0:0:0:
64,192,23764,1,0,0:0:0:0:
320,192,24088,1,0,0:0:0:0:
192,192,24412,1,0,0:0:0:0:
320,192,24737,1,0,0:0:0:0:
192,192,25061,1,0,0:0:0:0:
64,192,25385,1,0,0:0:0:0:
320,192,25710,1,0,0:0:0:0:
64,192,26034,1,0,0:0:0:0:
192,192,26358,1,0,0:0:0:0:
448,192,26683,1,0,0:0:0:0:
192,192,27007,1,0,0:0:0:0:
320,192,27331,1,0,0:0:0:0:
448,192,27656,1,0,0:0:0:0:
320,192,27980,1,0,0:0:0:0:
64,192,28304,1,0,0:0:0:0:
448,192,28466,1,0,0:0:0:0:
320,192,28629,1,0,0:0:0:0:
192,192,28791,1,0,0:0:0:0:
64,192,28953,1,0,0:0:0:0:
448,192,29277,1,0,0:0:0:0:
64,192,29602,1,0,0:0:0:0:
320,192,29926,1,0,0:0:0:0:
64,192,30088,128,0,30412:0:0:0:0:
320,192,30412,128,0,30737:0:0:0:0:
192,192,30899,1,0,0:0:0:0:
320,192,31223,1,0,0:0:0:0:
64,192,31385,128,0,31710:0:0:0:0:
320,192,31710,128,0,32034:0:0:0:0:
192,192,32034,128,0,32358:0:0:0:0:
320,192,32358,1,0,0:0:0:70:snd.wav
448,192,32520,1,0,0:0:0:70:snd.wav
320,192,32683,128,0,33007:0:0:0:70:snd.wav
64,192,33007,128,0,33169:0:0:0:0:
448,192,33331,128,0,33493:0:0:0:0:
64,192,33656,128,0,33818:0:0:0:0:
192,192,33980,128,0,34142:0:0:0:0:
320,192,34142,128,0,34304:0:0:0:0:
64,192,34466,128,0,34629:0:0:0:0:
448,192,34791,128,0,34953:0:0:0:0:
192,192,34953,128,0,35277:0:0:0:0:
448,192,35277,1,0,0:0:0:0:
192,192,35602,1,0,0:0:0:0:
320,192,35764,128,0,35926:0:0:0:0:
192,192,36088,128,0,36250:0:0:0:0:
320,192,36250,1,0,0:0:0:0:
64,192,36574,128,0,36737:0:0:0:0:
320,192,36899,128,0,37223:0:0:0:0:
192,192,37223,1,0,0:0:0:0:
320,192,37547,128,0,37872:0:0:0:0:
192,192,37872,1,0,0:0:0:70:snd.wav
448,192,38358,1,0,0:0:0:0:
64,192,38683,1,0,0:0:0:0:
320,192,38845,1,0,0:0:0:0:
448,192,39007,1,0,0:0:0:0:
64,192,39169,1,0,0:0:0:0:
192,192,39331,1,0,0:0:0:0:
64,192,39493,128,0,39818:0:0:0:0:
448,192,39818,1,0,0:0:0:0:
320,192,39980,1,0,0:0:0:0:
64,192,40142,1,0,0:0:0:0:
192,192,40304,1,0,0:0:0:0:
448,192,40466,1,0,0:0:0:0:
448,192,40791,1,0,0:0:0:70:snd.wav
320,192,40953,1,0,0:0:0:70:snd.wav
64,192,41277,1,0,0:0:0:70:snd.wav
192,192,41439,1,0,0:0:0:70:snd.wav
320,192,41764,128,0,42088:0:0:0:70:snd.wav
192,192,42088,1,0,0:0:0:0:
448,192,42250,1,0,0:0:0:0:
320,192,42412,1,0,0:0:0:0:
192,192,42574,1,0,0:0:0:0:
64,192,42737,1,0,0:0:0:70:snd.wav
448,192,42899,1,0,0:0:0:70:snd.wav
64,192,43061,1,0,0:0:0:0:
320,192,43385,128,0,44683:0:0:0:70:snd.wav
192,192,44683,128,0,45331:0:0:0:0:
64,192,45331,128,0,45656:0:0:0:0:
320,192,45656,128,0,45980:0:0:0:70:snd.wav
64,192,45980,1,0,0:0:0:0:
448,192,46304,1,0,0:0:0:0:
320,192,46629,128,0,46953:0:0:0:0:
64,192,46953,1,0,0:0:0:0:
448,192,47277,1,0,0:0:0:0:
192,192,47602,128,0,47926:0:0:0:0:
64,192,47926,128,0,48088:0:0:0:0:
448,192,48250,128,0,48412:0:0:0:0:
192,192,48574,1,0,0:0:0:0:
64,192,48899,1,0,0:0:0:0:
320,192,49223,128,0,49547:0:0:0:0:
192,192,49547,1,0,0:0:0:0:
448,192,49872,1,0,0:0:0:0:
192,192,50196,128,0,50520:0:0:0:0:
320,192,50520,128,0,50845:0:0:0:0:
64,192,50845,1,0,0:0:0:0:
192,192,51007,1,0,0:0:0:0:
320,192,51169,1,0,0:0:0:0:
448,192,51493,1,0,0:0:0:0:
192,192,51818,128,0,52142:0:0:0:0:
320,192,52142,1,0,0:0:0:0:
64,192,52466,1,0,0:0:0:0:
320,192,52791,128,0,53115:0:0:0:0:
192,192,53115,1,0,0:0:0:0:
448,192,53277,128,0,53439:0:0:0:0:
448,192,53602,128,0,53764:0:0:0:0:
192,192,53764,1,0,0:0:0:0:
64,192,54088,1,0,0:0:0:0:
448,192,54088,1,0,0:0:0:0:
192,192,54412,1,0,0:0:0:0:
320,192,54737,1,0,0:0:0:0:
448,192,55061,1,0,0:0:0:0:
320,192,55223,1,0,0:0:0:0:
192,192,55385,1,0,0:0:0:0:
64,192,55547,128,0,56034:0:0:0:0:
448,192,56034,128,0,56358:0:0:0:0:
192,192,56358,128,0,56683:0:0:0:0:
320,192,56683,1,0,0:0:0:70:snd.wav
64,192,57007,128,0,57331:0:0:0:0:
192,192,57331,1,0,0:0:0:0:
320,192,57656,1,0,0:0:0:0:
448,192,57980,128,0,58304:0:0:0:0:
320,192,58304,1,0,0:0:0:0:
64,192,58629,128,0,58953:0:0:0:0:
192,192,58953,1,0,0:0:0:0:
320,192,59277,1,0,0:0:0:0:
448,192,59602,128,0,59926:0:0:0:0:
320,192,59926,1,0,0:0:0:0:
192,192,60250,1,0,0:0:0:0:
64,192,60574,128,0,60899:0:0:0:0:
448,192,60899,1,0,0:0:0:0:
192,192,61223,128,0,61547:0:0:0:0:
64,192,61547,1,0,0:0:0:0:
320,192,61872,1,0,0:0:0:0:
448,192,62196,1,0,0:0:0:0:
192,192,62520,1,0,0:0:0:0:
448,192,62845,1,0,0:0:0:0:
64,192,63169,1,0,0:0:0:0:
192,192,63493,128,0,63818:0:0:0:0:
64,192,63818,128,0,64142:0:0:0:0:
320,192,64142,1,0,0:0:0:0:
192,192,64466,1,0,0:0:0:0:
64,192,64791,1,0,0:0:0:0:
192,192,64953,1,0,0:0:0:0:
320,192,65115,1,0,0:0:0:70:snd.wav
448,192,65602,1,0,0:0:0:70:snd.wav
64,192,65764,1,0,0:0:0:70:snd.wav
448,192,65926,1,0,0:0:0:70:snd.wav
64,192,66088,1,0,0:0:0:70:snd.wav
320,192,66412,128,0,66737:0:0:0:0:
64,192,66737,1,0,0:0:0:70:snd.wav
192,192,67061,1,0,0:0:0:0:
448,192,67385,1,0,0:0:0:0:
320,192,67710,1,0,0:0:0:0:
192,192,68034,1,0,0:0:0:0:
448,192,68358,1,0,0:0:0:0:
192,192,68683,1,0,0:0:0:0:
64,192,69007,1,0,0:0:0:0:
448,192,69331,1,0,0:0:0:0:
192,192,69656,1,0,0:0:0:0:
448,192,69980,1,0,0:0:0:0:
192,192,70304,1,0,0:0:0:0:
320,192,70629,1,0,0:0:0:0:
64,192,70953,1,0,0:0:0:0:
320,192,71277,1,0,0:0:0:0:
64,192,71602,1,0,0:0:0:0:
448,192,71926,1,0,0:0:0:0:
192,192,72250,1,0,0:0:0:0:
448,192,72574,1,0,0:0:0:0:
320,192,72737,1,0,0:0:0:0:
192,192,72899,1,0,0:0:0:0:
64,192,73061,1,0,0:0:0:0:
448,192,73223,1,0,0:0:0:0:
192,192,73547,1,0,0:0:0:0:
448,192,73872,128,0,74520:0:0:0:0:
192,192,74520,1,0,0:0:0:0:
320,192,74845,1,0,0:0:0:0:
192,192,75169,1,0,0:0:0:0:
320,192,75493,1,0,0:0:0:0:
448,192,75818,128,0,76142:0:0:0:0:
64,192,76142,128,0,76466:0:0:0:0:
448,192,76466,1,0,0:0:0:0:
192,192,76791,128,0,77115:0:0:0:0:
64,192,77115,1,0,0:0:0:0:
448,192,77439,128,0,77764:0:0:0:0:
64,192,77764,128,0,78088:0:0:0:0:
320,192,78088,1,0,0:0:0:0:
192,192,78412,128,0,78737:0:0:0:0:
448,192,78737,128,0,79061:0:0:0:0:
320,192,79061,128,0,79385:0:0:0:0:
64,192,79385,1,0,0:0:0:0:
192,192,79602,1,0,0:0:0:0:
320,192,79710,1,0,0:0:0:0:
64,192,80034,128,0,80358:0:0:0:0:
320,192,80358,128,0,80683:0:0:0:0:
64,192,80683,1,0,0:0:0:0:
320,192,81007,1,0,0:0:0:0:
448,192,81223,1,0,0:0:0:0:
320,192,81331,1,0,0:0:0:0:
64,192,81547,1,0,0:0:0:0:
192,192,81656,1,0,0:0:0:0:
448,192,81872,1,0,0:0:0:0:
64,192,81980,128,0,82304:0:0:0:0:
320,192,82304,128,0,82629:0:0:0:0:
448,192,82629,128,0,82953:0:0:0:0:
64,192,82953,128,0,83277:0:0:0:0:
448,192,83277,128,0,83602:0:0:0:0:
192,192,83602,128,0,83926:0:0:0:0:
320,192,83926,128,0,84250:0:0:0:0:
64,192,84250,128,0,84574:0:0:0:0:
448,192,84574,128,0,84899:0:0:0:0:
64,192,84899,128,0,85223:0:0:0:0:
320,192,85223,128,0,85547:0:0:0:0:
192,192,85547,128,0,85872:0:0:0:0:
448,192,85872,128,0,86196:0:0:0:0:
64,192,86196,1,0,0:0:0:70:snd.wav
448,192,86412,1,0,0:0:0:0:
320,192,86520,1,0,0:0:0:70:snd.wav
64,192,86737,1,0,0:0:0:0:
192,192,86845,128,0,87169:0:0:0:70:snd.wav
320,192,87169,128,0,87493:0:0:0:0:
64,192,87493,128,0,88791:0:0:0:70:snd.wav
192,192,88791,1,0,0:0:0:0:
320,192,89115,1,0,0:0:0:0:
192,192,89439,128,0,89764:0:0:0:0:
448,192,89764,1,0,0:0:0:70:snd.wav
64,192,90088,128,0,90412:0:0:0:0:
320,192,90412,128,0,90737:0:0:0:0:
448,192,90737,1,0,0:0:0:0:
64,192,91061,128,0,91385:0:0:0:0:
192,192,91385,128,0,91710:0:0:0:0:
448,192,91710,1,0,0:0:0:0:
64,192,92034,128,0,92250:0:0:0:0:
192,192,92250,1,0,0:0:0:0:
320,192,92358,128,0,92683:0:0:0:0:
448,192,92683,128,0,93007:0:0:0:0:
192,192,93007,128,0,93331:0:0:0:0:
64,192,93331,128,0,93656:0:0:0:0:
448,192,93656,128,0,93980:0:0:0:0:
192,192,93980,128,0,94304:0:0:0:0:
64,192,94304,1,0,0:0:0:0:
448,192,94629,1,0,0:0:0:0:
448,192,94845,1,0,0:0:0:0:
320,192,94953,128,0,95277:0:0:0:0:
64,192,95277,128,0,95602:0:0:0:0:
192,192,95602,128,0,95926:0:0:0:0:
448,192,95926,128,0,96250:0:0:0:0:
64,192,96250,128,0,96574:0:0:0:0:
192,192,96574,128,0,96899:0:0:0:0:
320,192,96899,128,0,97223:0:0:0:0:
64,192,97223,1,0,0:0:0:0:
320,192,97439,1,0,0:0:0:0:
192,192,97547,1,0,0:0:0:0:
448,192,97764,1,0,0:0:0:0:
320,192,97872,128,0,98196:0:0:0:0:
64,192,98196,1,0,0:0:0:70:snd.wav
192,192,98520,1,0,0:0:0:0:
320,192,98737,1,0,0:0:0:0:
448,192,98845,1,0,0:0:0:70:snd.wav
64,192,99169,128,0,99493:0:0:0:0:
320,192,99493,1,0,0:0:0:0:
448,192,99710,128,0,100142:0:0:0:0:
320,192,100142,128,0,100466:0:0:0:0:
192,192,100466,128,0,100791:0:0:0:0:
64,192,100791,128,0,101115:0:0:0:70:snd.wav
320,192,101115,128,0,101439:0:0:0:0:
64,192,101439,128,0,101764:0:0:0:0:
192,192,101764,128,0,102088:0:0:0:0:
448,192,102088,128,0,102412:0:0:0:0:
64,192,102412,128,0,102737:0:0:0:0:
320,192,102737,128,0,103061:0:0:0:0:
64,192,103061,128,0,103385:0:0:0:0:
192,192,103385,128,0,103710:0:0:0:0:
448,192,103710,128,0,104034:0:0:0:0:
64,192,104034,128,0,104358:0:0:0:0:
192,192,104358,128,0,104683:0:0:0:0:
320,192,104683,128,0,105007:0:0:0:0:
64,192,105007,128,0,105331:0:0:0:0:
448,192,105331,128,0,105656:0:0:0:0:
64,192,105656,128,0,105980:0:0:0:0:
320,192,105980,128,0,106304:0:0:0:0:
64,192,106304,128,0,106629:0:0:0:0:
192,192,106629,128,0,106953:0:0:0:0:
320,192,106953,128,0,107277:0:0:0:0:
64,192,107277,128,0,107602:0:0:0:0:
448,192,107602,1,0,0:0:0:0:
192,192,107818,1,0,0:0:0:0:
320,192,107926,1,0,0:0:0:0:
192,192,108142,1,0,0:0:0:0:
64,192,108250,128,0,108574:0:0:0:0:
448,192,108574,128,0,108899:0:0:0:0:
64,192,108899,1,0,0:0:0:0:
192,192,109115,1,0,0:0:0:0:
320,192,109223,1,0,0:0:0:0:
64,192,109439,1,0,0:0:0:0:
448,192,109764,1,0,0:0:0:0:
320,192,109872,1,0,0:0:0:0:
64,192,110088,1,0,0:0:0:0:
192,192,110196,128,0,110520:0:0:0:0:
320,192,110520,128,0,110845:0:0:0:0:
64,192,110845,128,0,113439:0:0:0:70:snd.wav
