osu file format v14

[General]
AudioFilename: Belly Flopper.mp3
AudioLeadIn: 0
PreviewTime: 45623
Countdown: 0
SampleSet: Soft
StackLeniency: 0.7
Mode: 3
LetterboxInBreaks: 0
SpecialStyle: 0
WidescreenStoryboard: 0

[Editor]
DistanceSpacing: 0.5
BeatDivisor: 4
GridSize: 8
TimelineZoom: 0.5999998

[Metadata]
Title:Belly Flopper
TitleUnicode:Belly Flopper
Artist:O2i3
ArtistUnicode:O2i3
Creator:Ilham
Version:NOVICE
Source:SOUND VOLTEX III GRAVITY WARS
Tags:制作決定記念 オリジナル楽曲コンテスト Production Confirmation Commemorative Original Song Contest SDVX Adinata28
BeatmapID:839155
BeatmapSetID:383929

[Difficulty]
HPDrainRate:7
CircleSize:4
OverallDifficulty:7
ApproachRate:8
SliderMultiplier:1.4
SliderTickRate:1

[Events]
//Background and Video events
0,0,"flop.jpg",0,0
//Break Periods
//Storyboard Layer 0 (Background)
//Storyboard Layer 1 (Fail)
//Storyboard Layer 2 (Pass)
//Storyboard Layer 3 (Foreground)
//Storyboard Sound Samples

[TimingPoints]
867,324.324324324324,4,2,1,35,1,0
23083,-100,4,2,1,20,0,0
32975,-100,4,2,1,35,0,0
46272,-100,4,2,1,35,0,1
55839,-100,4,2,1,35,0,0
56975,-100,4,2,1,35,0,1
67029,-100,4,2,1,35,0,0
68326,-100,4,2,1,20,0,0
76110,-100,4,2,1,35,0,0

[HitObjects]
64,192,867,5,0,0:0:0:0:
448,192,1191,1,0,0:0:0:0:
320,192,1515,1,8,0:0:0:0:
64,192,1677,1,8,0:0:0:0:
448,192,1839,1,2,0:0:0:0:
448,192,2002,1,2,0:0:0:0:
64,192,2164,1,0,0:0:0:0:
192,192,2164,1,2,0:0:0:0:
320,192,2326,1,0,0:0:0:0:
64,192,2488,1,2,0:0:0:0:
448,192,2488,1,0,0:0:0:0:
192,192,2650,1,2,0:0:0:0:
320,192,2812,1,0,0:0:0:0:
64,192,2812,1,2,0:0:0:0:
64,192,3137,1,0,0:0:0:0:
448,192,3137,1,2,0:0:0:0:
320,192,3299,1,0,0:0:0:0:
192,192,3461,1,2,0:0:0:0:
64,192,3461,1,0,0:0:0:0:
320,192,3623,1,2,0:0:0:0:
448,192,3785,1,2,0:0:0:0:
192,192,3785,1,0,0:0:0:0:
64,192,4110,1,0,0:0:0:25:bell.wav
448,192,4272,1,0,0:0:0:25:bell.wav
192,192,4434,128,0,4758:0:0:0:25:bell.wav
320,192,4758,1,2,0:0:0:0:
64,192,4758,1,0,0:0:0:0:
448,192,4921,1,0,0:0:0:0:
64,192,5083,1,2,0:0:0:0:
192,192,5083,1,0,0:0:0:0:
320,192,5245,1,2,0:0:0:0:
192,192,5407,1,2,0:0:0:0:
448,192,5407,1,0,0:0:0:0:
64,192,5731,1,0,0:0:0:0:
320,192,5731,1,2,0:0:0:0:
192,192,5894,1,0,0:0:0:0:
64,192,6056,1,2,0:0:0:0:
448,192,6056,1,0,0:0:0:0:
320,192,6218,1,2,0:0:0:0:
64,192,6380,1,2,0:0:0:0:
192,192,6380,1,0,0:0:0:0:
320,192,6704,1,0,0:0:0:0:
64,192,6866,1,0,0:0:0:0:
448,192,7029,1,0,0:0:0:0:
448,192,7191,1,0,0:0:0:0:
64,192,7353,1,2,0:0:0:0:
192,192,7353,1,0,0:0:0:0:
320,192,7515,1,0,0:0:0:0:
64,192,7677,1,2,0:0:0:0:
448,192,7677,1,0,0:0:0:0:
192,192,7839,1,2,0:0:0:0:
320,192,8002,1,0,0:0:0:0:
64,192,8002,1,2,0:0:0:0:
320,192,8326,1,0,0:0:0:0:
448,192,8326,1,2,0:0:0:0:
192,192,8488,1,0,0:0:0:0:
64,192,8650,1,0,0:0:0:0:
320,192,8650,1,2,0:0:0:0:
448,192,8812,1,2,0:0:0:0:
64,192,8975,1,0,0:0:0:0:
192,192,8975,1,2,0:0:0:0:
320,192,9461,1,2,0:0:0:0:
64,192,9623,1,2,0:0:0:0:
448,192,9785,1,2,0:0:0:0:
64,192,9948,1,0,0:0:0:0:
192,192,9948,1,2,0:0:0:0:
64,192,10272,128,0,10434:0:0:0:0:
448,192,10434,128,0,10758:0:0:0:0:
320,192,10434,1,2,0:0:0:0:
64,192,10758,1,0,0:0:0:0:
192,192,10921,1,0,0:0:0:0:
320,192,11083,1,0,0:0:0:0:
448,192,11083,1,2,0:0:0:0:
320,192,11407,1,0,0:0:0:25:bell.wav
64,192,11569,1,0,0:0:0:25:bell.wav
448,192,11731,1,0,0:0:0:25:bell.wav
192,192,11894,128,0,12218:0:0:0:0:
448,192,12218,128,8,12542:0:0:0:0:
64,192,12542,1,2,0:0:0:0:
320,192,12866,1,2,0:0:0:0:
192,192,13191,1,2,0:0:0:0:
448,192,13515,1,2,0:0:0:0:
64,192,13839,1,2,0:0:0:0:
320,192,14164,1,2,0:0:0:0:
192,192,14488,1,2,0:0:0:0:
448,192,14812,1,2,0:0:0:0:
320,192,15137,1,2,0:0:0:0:
64,192,15461,1,2,0:0:0:0:
448,192,15785,1,2,0:0:0:0:
192,192,16110,1,2,0:0:0:0:
64,192,16434,1,10,0:0:0:0:
448,192,16596,1,2,0:0:0:0:
64,192,16921,128,2,17083:0:0:0:0:
448,192,17083,1,2,0:0:0:0:
64,192,17245,1,10,0:0:0:0:
448,192,17407,1,2,0:0:0:0:
320,192,17407,1,8,0:0:0:0:
64,192,17731,1,2,0:0:0:0:
320,192,18056,1,2,0:0:0:0:
448,192,18380,1,2,0:0:0:0:
192,192,18704,1,2,0:0:0:0:
320,192,19029,1,2,0:0:0:0:
64,192,19353,1,2,0:0:0:0:
448,192,19677,1,2,0:0:0:0:
192,192,20002,1,2,0:0:0:0:
64,192,20326,1,2,0:0:0:0:
448,192,20326,1,8,0:0:0:0:
192,192,20650,1,2,0:0:0:0:
320,192,20812,1,2,0:0:0:0:
64,192,20975,1,8,0:0:0:0:
448,192,20975,1,2,0:0:0:0:
192,192,21137,1,2,0:0:0:0:
320,192,21299,1,2,0:0:0:0:
64,192,21461,1,8,0:0:0:0:
192,192,21461,1,2,0:0:0:0:
448,192,21785,1,2,0:0:0:0:
64,192,21948,1,2,0:0:0:0:
192,192,22110,1,2,0:0:0:0:
448,192,22272,1,8,0:0:0:0:
320,192,22272,1,2,0:0:0:0:
64,192,22596,128,0,22921:0:0:0:0:
320,192,22921,1,2,0:0:0:0:
448,192,22921,1,0,0:0:0:0:
64,192,23083,1,0,0:0:0:0:
448,192,23407,1,0,0:0:0:0:
192,192,23731,1,0,0:0:0:0:
320,192,24056,1,0,0:0:0:0:
64,192,24380,1,0,0:0:0:0:
192,192,24704,1,0,0:0:0:0:
448,192,25029,1,0,0:0:0:0:
320,192,25353,1,0,0:0:0:0:
192,192,25677,1,0,0:0:0:0:
448,192,26002,1,0,0:0:0:0:
64,192,26326,1,0,0:0:0:0:
320,192,26650,1,0,0:0:0:0:
192,192,26975,1,0,0:0:0:0:
448,192,27299,1,0,0:0:0:0:
64,192,27623,1,0,0:0:0:0:
320,192,27948,1,0,0:0:0:0:
448,192,28272,1,0,0:0:0:0:
64,192,28596,1,0,0:0:0:0:
320,192,28921,1,0,0:0:0:0:
192,192,29245,1,0,0:0:0:0:
448,192,29569,1,0,0:0:0:0:
64,192,29894,1,0,0:0:0:0:
320,192,30218,1,0,0:0:0:0:
192,192,30542,1,0,0:0:0:0:
448,192,30866,1,0,0:0:0:0:
64,192,31191,1,0,0:0:0:0:
192,192,31515,1,0,0:0:0:0:
320,192,31839,1,0,0:0:0:0:
64,192,32002,128,0,32164:0:0:0:0:
320,192,32326,128,0,32488:0:0:0:0:
192,192,32650,128,0,32975:0:0:0:0:
448,192,32975,128,2,33299:0:0:0:0:
64,192,33299,1,2,0:0:0:0:
192,192,33623,1,2,0:0:0:0:
64,192,33948,1,8,0:0:0:0:
448,192,33948,1,2,0:0:0:0:
320,192,34110,1,0,0:0:0:0:
192,192,34272,1,2,0:0:0:0:
64,192,34434,1,0,0:0:0:0:
448,192,34596,1,2,0:0:0:0:
192,192,34921,1,2,0:0:0:0:
64,192,35245,1,8,0:0:0:0:
320,192,35245,1,2,0:0:0:0:
192,192,35407,1,0,0:0:0:0:
448,192,35569,1,2,0:0:0:0:
320,192,35731,1,0,0:0:0:0:
64,192,35894,1,2,0:0:0:0:
192,192,36218,1,2,0:0:0:0:
320,192,36542,1,8,0:0:0:0:
448,192,36542,1,2,0:0:0:0:
192,192,36704,1,0,0:0:0:0:
64,192,36866,1,2,0:0:0:0:
448,192,37029,1,0,0:0:0:0:
192,192,37191,1,2,0:0:0:0:
320,192,37353,1,0,0:0:0:0:
64,192,37515,1,2,0:0:0:0:
320,192,37677,1,0,0:0:0:0:
192,192,37839,1,8,0:0:0:0:
448,192,37839,1,2,0:0:0:0:
64,192,38002,1,2,0:0:0:0:
320,192,38164,1,2,0:0:0:0:
192,192,38326,1,0,0:0:0:0:
320,192,38488,1,2,0:0:0:0:
448,192,38488,1,0,0:0:0:0:
64,192,38650,1,2,0:0:0:0:
320,192,38812,1,2,0:0:0:0:
192,192,38812,1,0,0:0:0:0:
448,192,38975,1,2,0:0:0:0:
64,192,39137,1,0,0:0:0:0:
320,192,39137,1,2,0:0:0:0:
192,192,39299,1,2,0:0:0:0:
448,192,39461,1,0,0:0:0:0:
320,192,39461,1,2,0:0:0:0:
192,192,39623,1,2,0:0:0:0:
64,192,39785,1,2,0:0:0:0:
448,192,39785,1,0,0:0:0:0:
320,192,39948,1,2,0:0:0:0:
192,192,40110,1,2,0:0:0:0:
64,192,40110,1,0,0:0:0:0:
320,192,40272,1,2,0:0:0:0:
448,192,40434,1,0,0:0:0:0:
192,192,40434,1,2,0:0:0:0:
320,192,40596,1,2,0:0:0:0:
64,192,40758,1,2,0:0:0:0:
448,192,40758,1,0,0:0:0:0:
192,192,40921,1,2,0:0:0:0:
448,192,41083,1,0,0:0:0:0:
320,192,41083,1,2,0:0:0:0:
448,192,41245,1,0,0:0:0:0:
320,192,41245,1,2,0:0:0:0:
64,192,41569,1,0,0:0:0:0:
192,192,41569,1,2,0:0:0:0:
64,192,41731,1,0,0:0:0:0:
192,192,41731,1,2,0:0:0:0:
448,192,42056,1,0,0:0:0:0:
320,192,42056,1,2,0:0:0:0:
64,192,42218,1,2,0:0:0:0:
192,192,42299,1,2,0:0:0:0:
320,192,42380,1,2,0:0:0:0:
448,192,42380,1,8,0:0:0:0:
64,192,42542,1,2,0:0:0:0:
448,192,42704,1,2,0:0:0:0:
192,192,42704,1,8,0:0:0:0:
320,192,42866,1,2,0:0:0:0:
448,192,43029,1,2,0:0:0:0:
64,192,43029,1,8,0:0:0:0:
192,192,43191,1,2,0:0:0:0:
320,192,43353,1,2,0:0:0:0:
448,192,43353,1,8,0:0:0:0:
192,192,43515,1,2,0:0:0:0:
64,192,43677,128,2,44975:0:0:0:0:
448,192,43677,1,0,0:0:0:0:
320,192,44975,128,0,45623:0:0:0:0:
448,192,44975,128,0,45623:0:0:0:0:
64,192,45623,128,0,45948:0:0:0:0:
320,192,45948,1,2,0:0:0:0:
448,192,45948,1,8,0:0:0:0:
320,192,46272,1,2,0:0:0:0:
64,192,46272,1,4,0:0:0:0:
448,192,46434,1,0,0:0:0:0:
192,192,46596,1,8,0:0:0:0:
64,192,46596,1,2,0:0:0:0:
320,192,46758,1,0,0:0:0:0:
192,192,46921,1,0,0:0:0:0:
448,192,46921,1,2,0:0:0:0:
64,192,47245,1,2,0:0:0:0:
320,192,47245,1,8,0:0:0:0:
192,192,47407,1,0,0:0:0:0:
448,192,47569,1,2,0:0:0:0:
64,192,47569,1,0,0:0:0:0:
192,192,47731,1,0,0:0:0:0:
320,192,47894,1,2,0:0:0:0:
448,192,47894,1,8,0:0:0:0:
192,192,48218,1,0,0:0:0:25:bell.wav
64,192,48218,1,0,0:0:0:0:
448,192,48380,1,0,0:0:0:25:bell.wav
320,192,48542,128,0,48866:0:0:0:25:bell.wav
192,192,48542,1,8,0:0:0:0:
448,192,48866,1,2,0:0:0:0:
64,192,48866,1,0,0:0:0:0:
320,192,49029,1,0,0:0:0:0:
448,192,49191,1,2,0:0:0:0:
192,192,49191,1,8,0:0:0:0:
64,192,49353,1,0,0:0:0:0:
192,192,49515,1,2,0:0:0:0:
320,192,49515,1,0,0:0:0:0:
64,192,49839,1,2,0:0:0:0:
448,192,49839,1,8,0:0:0:0:
192,192,50002,1,0,0:0:0:0:
320,192,50164,1,0,0:0:0:0:
448,192,50164,1,2,0:0:0:0:
192,192,50326,1,0,0:0:0:0:
64,192,50488,1,2,0:0:0:0:
320,192,50488,1,8,0:0:0:0:
192,192,50812,1,0,0:0:0:25:bell.wav
448,192,50812,1,0,0:0:0:0:
320,192,50975,1,0,0:0:0:25:bell.wav
64,192,51137,128,0,51461:0:0:0:25:bell.wav
448,192,51137,1,8,0:0:0:0:
320,192,51461,1,0,0:0:0:0:
192,192,51461,1,2,0:0:0:0:
448,192,51623,1,0,0:0:0:0:
64,192,51785,1,8,0:0:0:0:
320,192,51785,1,2,0:0:0:0:
192,192,51948,1,0,0:0:0:0:
448,192,52110,1,2,0:0:0:0:
320,192,52110,1,0,0:0:0:0:
448,192,52434,1,2,0:0:0:0:
64,192,52434,1,8,0:0:0:0:
192,192,52596,1,0,0:0:0:0:
320,192,52758,1,2,0:0:0:0:
64,192,52758,1,0,0:0:0:0:
192,192,52921,1,0,0:0:0:0:
320,192,53083,1,8,0:0:0:0:
448,192,53083,1,2,0:0:0:0:
64,192,53407,1,0,0:0:0:0:
320,192,53407,1,2,0:0:0:0:
192,192,53569,1,0,0:0:0:0:
448,192,53731,1,2,0:0:0:0:
64,192,53731,1,8,0:0:0:0:
320,192,53894,1,0,0:0:0:0:
192,192,54056,1,2,0:0:0:0:
64,192,54056,1,0,0:0:0:0:
448,192,54218,128,0,54380:0:0:0:0:
320,192,54380,1,8,0:0:0:0:
192,192,54380,1,2,0:0:0:0:
64,192,54704,1,2,0:0:0:0:
192,192,54704,1,0,0:0:0:0:
448,192,54866,1,0,0:0:0:0:
192,192,55029,1,2,0:0:0:0:
64,192,55029,1,8,0:0:0:0:
448,192,55353,1,2,0:0:0:0:
320,192,55515,1,2,0:0:0:0:
192,192,55677,1,2,0:0:0:0:
64,192,55839,128,2,56650:0:0:0:0:
448,192,56650,128,0,56975:0:0:0:0:
192,192,56975,1,4,0:0:0:0:
64,192,56975,1,10,0:0:0:0:
320,192,57299,1,2,0:0:0:0:
64,192,57299,1,0,0:0:0:0:
448,192,57623,1,2,0:0:0:0:
320,192,57623,1,8,0:0:0:0:
64,192,57785,1,0,0:0:0:0:
192,192,57948,1,0,0:0:0:0:
320,192,57948,1,2,0:0:0:0:
448,192,58110,1,0,0:0:0:0:
64,192,58272,1,8,0:0:0:0:
192,192,58272,1,2,0:0:0:0:
64,192,58596,1,0,0:0:0:25:bell.wav
448,192,58596,1,0,0:0:0:0:
192,192,58758,1,0,0:0:0:25:bell.wav
448,192,58921,128,0,59245:0:0:0:25:bell.wav
320,192,58921,1,8,0:0:0:0:
192,192,59245,1,2,0:0:0:0:
64,192,59245,1,0,0:0:0:0:
320,192,59407,1,0,0:0:0:0:
448,192,59569,1,2,0:0:0:0:
64,192,59569,1,8,0:0:0:0:
320,192,59731,1,0,0:0:0:0:
192,192,59894,1,2,0:0:0:0:
448,192,59894,1,0,0:0:0:0:
320,192,60218,1,2,0:0:0:0:
64,192,60218,1,8,0:0:0:0:
192,192,60380,1,0,0:0:0:0:
448,192,60542,1,0,0:0:0:0:
64,192,60542,1,2,0:0:0:0:
320,192,60704,1,0,0:0:0:0:
192,192,60866,1,2,0:0:0:0:
64,192,60866,1,8,0:0:0:0:
448,192,61191,1,0,0:0:0:25:bell.wav
320,192,61191,1,0,0:0:0:0:
192,192,61353,1,0,0:0:0:25:bell.wav
64,192,61515,128,0,61839:0:0:0:25:bell.wav
320,192,61515,1,8,0:0:0:0:
448,192,61839,1,0,0:0:0:0:
192,192,61839,1,2,0:0:0:0:
320,192,62002,1,2,0:0:0:0:
448,192,62164,1,2,0:0:0:0:
64,192,62164,1,0,0:0:0:0:
320,192,62326,1,2,0:0:0:0:
192,192,62488,1,2,0:0:0:0:
64,192,62488,1,0,0:0:0:0:
320,192,62650,1,2,0:0:0:0:
64,192,62812,1,0,0:0:0:0:
448,192,62812,1,2,0:0:0:0:
192,192,62975,1,2,0:0:0:0:
320,192,63137,1,2,0:0:0:0:
448,192,63137,1,0,0:0:0:0:
64,192,63299,1,2,0:0:0:0:
192,192,63461,1,0,0:0:0:0:
448,192,63461,1,2,0:0:0:0:
320,192,63623,1,2,0:0:0:0:
448,192,63785,1,2,0:0:0:0:
64,192,63785,1,0,0:0:0:0:
192,192,63948,1,2,0:0:0:0:
320,192,64110,1,2,0:0:0:0:
64,192,64110,1,0,0:0:0:0:
448,192,64272,1,2,0:0:0:0:
192,192,64434,1,2,0:0:0:0:
64,192,64434,1,0,0:0:0:0:
448,192,64758,128,0,65083:0:0:0:0:
320,192,65083,1,8,0:0:0:0:
64,192,65083,1,0,0:0:0:0:
192,192,65245,1,0,0:0:0:0:
64,192,65407,1,0,0:0:0:0:
448,192,65407,1,2,0:0:0:0:
320,192,65569,1,0,0:0:0:0:
192,192,65894,1,2,0:0:0:0:
448,192,66056,1,2,0:0:0:0:
64,192,66218,1,2,0:0:0:0:
320,192,66380,128,2,66704:0:0:0:0:
192,192,66704,128,0,67029:0:0:0:0:
448,192,67029,128,0,68326:0:0:0:0:
64,192,67029,1,2,0:0:0:0:
64,192,68326,128,0,68975:0:0:0:0:
192,192,68975,128,0,69623:0:0:0:0:
320,192,69623,128,0,70921:0:0:0:0:
448,192,70921,128,0,71569:0:0:0:0:
192,192,71569,128,0,72218:0:0:0:0:
64,192,72218,128,0,73515:0:0:0:0:
448,192,73515,128,0,74812:0:0:0:0:
64,192,74812,128,0,76110:0:0:0:0:
192,192,76110,1,0,0:0:0:0:
448,192,76272,1,0,0:0:0:0:
64,192,76434,1,0,0:0:0:0:
320,192,76596,1,0,0:0:0:0:
192,192,76758,1,0,0:0:0:0:
448,192,76921,1,0,0:0:0:0:
192,192,77083,128,0,77407:0:0:0:0:
448,192,77407,1,2,0:0:0:0:
448,192,77731,1,2,0:0:0:0:
64,192,78056,1,2,0:0:0:0:
320,192,78380,1,2,0:0:0:0:
192,192,78704,1,2,0:0:0:0:
192,192,79029,1,2,0:0:0:0:
448,192,79353,1,10,0:0:0:0:
64,192,79677,1,2,0:0:0:0:
320,192,80002,1,2,0:0:0:0:
320,192,80326,1,2,0:0:0:0:
64,192,80650,1,10,0:0:0:0:
448,192,80975,1,2,0:0:0:0:
192,192,81299,1,2,0:0:0:0:
320,192,81623,1,2,0:0:0:0:
64,192,81948,1,10,0:0:0:0:
320,192,82272,1,2,0:0:0:0:
64,192,82596,1,2,0:0:0:0:
64,192,82921,1,2,0:0:0:0:
448,192,83245,1,10,0:0:0:0:
448,192,83569,1,2,0:0:0:0:
192,192,83894,1,2,0:0:0:0:
320,192,84218,1,2,0:0:0:0:
64,192,84542,1,10,0:0:0:0:
448,192,84866,1,2,0:0:0:0:
64,192,85191,128,2,86488:0:0:0:0:
448,192,86488,1,2,0:0:0:0:
320,192,86488,1,8,0:0:0:0:
192,192,86704,1,2,0:0:0:0:
448,192,86812,1,10,0:0:0:0:
64,192,87029,1,2,0:0:0:0:
320,192,87137,1,10,0:0:0:0:
448,192,87353,1,2,0:0:0:0:
192,192,87461,1,10,0:0:0:0:
448,192,87677,1,0,0:0:0:0:
192,192,87785,1,2,0:0:0:0:
64,192,87785,128,4,89083:0:0:0:0:
448,192,89083,1,0,0:0:0:0:
64,192,89299,1,0,0:0:0:0:
320,192,89407,1,0,0:0:0:0:
64,192,89623,1,0,0:0:0:0:
448,192,89731,128,0,90056:0:0:0:0:
64,192,90056,1,8,0:0:0:0:
192,192,90056,1,0,0:0:0:0:
192,192,90380,1,10,0:0:0:0:
320,192,90380,1,4,0:0:0:0:
448,192,90704,1,2,0:0:0:0:
64,192,90704,1,8,0:0:0:0:
320,192,91029,1,2,0:0:0:0:
192,192,91353,1,8,0:0:0:0:
64,192,91353,1,2,0:0:0:0:
448,192,91677,1,2,0:0:0:0:
64,192,92002,1,8,0:0:0:0:
320,192,92002,1,2,0:0:0:0:
192,192,92326,1,2,0:0:0:0:
320,192,92650,1,10,0:0:0:0:
448,192,92650,128,0,92975:0:0:0:25:bell.wav
64,192,92975,1,2,0:0:0:0:
448,192,93299,1,8,0:0:0:0:
192,192,93299,1,2,0:0:0:0:
320,192,93623,1,2,0:0:0:0:
64,192,93948,1,8,0:0:0:0:
448,192,93948,1,2,0:0:0:0:
192,192,94272,1,2,0:0:0:0:
448,192,94596,1,8,0:0:0:0:
320,192,94596,1,2,0:0:0:0:
192,192,94921,1,2,0:0:0:0:
64,192,95245,128,8,95569:0:0:0:0:
448,192,95245,1,2,0:0:0:0:
320,192,95569,1,2,0:0:0:0:
448,192,95894,1,2,0:0:0:0:
64,192,95894,1,8,0:0:0:0:
320,192,96218,1,2,0:0:0:0:
64,192,96542,1,8,0:0:0:0:
192,192,96542,1,2,0:0:0:0:
448,192,96866,1,2,0:0:0:0:
64,192,97191,1,8,0:0:0:0:
320,192,97191,1,2,0:0:0:0:
192,192,97515,1,2,0:0:0:0:
64,192,97839,1,2,0:0:0:0:
448,192,97839,1,8,0:0:0:0:
320,192,98164,1,2,0:0:0:0:
64,192,98488,1,8,0:0:0:0:
448,192,98488,1,2,0:0:0:0:
192,192,98812,1,2,0:0:0:0:
448,192,99137,1,8,0:0:0:0:
320,192,99137,1,2,0:0:0:0:
64,192,99461,1,2,0:0:0:0:
448,192,99677,1,2,0:0:0:0:
192,192,99785,1,2,0:0:0:0:
320,192,100002,128,0,100758:0:0:0:0:
64,192,100002,128,2,100758:0:0:0:0:
448,192,100758,128,2,101083:0:0:0:0:
64,192,101083,128,4,101407:0:0:0:0:
192,192,101083,1,10,0:0:0:0:
320,192,101407,128,2,101731:0:0:0:0:
448,192,101407,128,8,101731:0:0:0:0:
64,192,101731,1,8,0:0:0:0:
192,192,101731,1,2,0:0:0:0:
448,192,102056,1,2,0:0:0:0:
64,192,102380,1,8,0:0:0:0:
320,192,102380,1,2,0:0:0:0:
192,192,102704,1,2,0:0:0:0:
64,192,103029,1,10,0:0:0:0:
448,192,103029,128,0,103353:0:0:0:25:bell.wav
320,192,103353,1,2,0:0:0:0:
448,192,103677,1,8,0:0:0:0:
64,192,103677,1,2,0:0:0:0:
192,192,104002,1,2,0:0:0:0:
448,192,104326,1,8,0:0:0:0:
320,192,104326,1,2,0:0:0:0:
64,192,104650,1,2,0:0:0:0:
192,192,104975,1,2,0:0:0:0:
448,192,104975,1,8,0:0:0:0:
320,192,105299,1,2,0:0:0:0:
448,192,105623,1,2,0:0:0:0:
192,192,105623,128,8,105948:0:0:0:0:
64,192,105948,1,0,0:0:0:0:
320,192,105948,1,2,0:0:0:0:
448,192,106272,1,2,0:0:0:0:
64,192,106272,1,0,0:0:0:0:
448,192,106596,1,2,0:0:0:0:
192,192,106596,1,0,0:0:0:0:
320,192,106921,1,2,0:0:0:0:
64,192,106921,1,0,0:0:0:0:
320,192,107245,1,2,0:0:0:0:
448,192,107245,1,0,0:0:0:0:
64,192,107569,1,0,0:0:0:0:
192,192,107569,1,2,0:0:0:0:
448,192,107894,1,0,0:0:0:0:
320,192,107894,1,2,0:0:0:0:
448,192,108218,1,2,0:0:0:0:
64,192,108218,1,0,0:0:0:0:
192,192,108542,1,2,0:0:0:0:
320,192,108542,128,0,108866:0:0:0:0:
448,192,108866,128,0,109191:0:0:0:0:
64,192,109191,1,8,0:0:0:0:
192,192,109191,1,2,0:0:0:0:
320,192,109407,1,0,0:0:0:0:
64,192,109515,1,2,0:0:0:0:
448,192,109731,1,0,0:0:0:0:
64,192,110056,1,0,0:0:0:0:
320,192,110164,1,0,0:0:0:0:
448,192,110380,1,0,0:0:0:0:
192,192,110488,1,0,0:0:0:0:
320,192,110812,128,0,111137:0:0:0:0:
64,192,111137,128,0,113731:0:0:0:0:
448,192,111137,128,2,113731:0:0:0:0:
