osu file format v14

[General]
AudioFilename: Belly Flopper.mp3
AudioLeadIn: 0
PreviewTime: 45623
Countdown: 0
SampleSet: Soft
StackLeniency: 0.7
Mode: 3
LetterboxInBreaks: 0
SpecialStyle: 0
WidescreenStoryboard: 0

[Editor]
DistanceSpacing: 0.5
BeatDivisor: 4
GridSize: 8
TimelineZoom: 2.9

[Metadata]
Title:Belly Flopper
TitleUnicode:Belly Flopper
Artist:O2i3
ArtistUnicode:O2i3
Creator:Ilham
Version:EXHAUST
Source:SOUND VOLTEX III GRAVITY WARS
Tags:制作決定記念 オリジナル楽曲コンテスト Production Confirmation Commemorative Original Song Contest SDVX Adinata28
BeatmapID:839153
BeatmapSetID:383929

[Difficulty]
HPDrainRate:8
CircleSize:4
OverallDifficulty:8
ApproachRate:8
SliderMultiplier:1.4
SliderTickRate:1

[Events]
//Background and Video events
0,0,"flop.jpg",0,0
//Break Periods
//Storyboard Layer 0 (Background)
//Storyboard Layer 1 (Fail)
//Storyboard Layer 2 (Pass)
//Storyboard Layer 3 (Foreground)
//Storyboard Sound Samples

[TimingPoints]
867,324.324324324324,4,2,1,35,1,0
23083,-100,4,2,1,35,0,0
32975,-100,4,2,1,35,0,0
43677,-133.333333333333,4,2,1,35,0,0
44975,-100,4,2,1,35,0,0
45948,-66.6666666666667,4,2,1,35,0,0
46110,-200,4,2,1,35,0,0
46272,-100,4,2,1,35,0,1
55839,-100,4,2,1,35,0,0
56975,-100,4,2,1,35,0,1
67029,-100,4,2,1,35,0,0
67515,-100,4,2,1,20,0,0
77083,-100,4,2,1,35,0,0
87785,-133.333333333333,4,2,1,35,0,0
89083,-100,4,2,1,35,0,0
90056,-66.6666666666667,4,2,1,35,0,0
90218,-200,4,2,1,35,0,0
90380,-100,4,2,1,35,0,0
101083,-66.6666666666667,4,2,1,35,0,0
101245,-200,4,2,1,35,0,0
101407,-100,4,2,1,35,0,0

[HitObjects]
64,192,867,5,0,0:0:0:0:
448,192,867,1,0,0:0:0:0:
192,192,948,1,0,0:0:0:0:
320,192,1029,1,0,0:0:0:0:
64,192,1191,1,0,0:0:0:0:
192,192,1191,1,0,0:0:0:0:
448,192,1272,1,0,0:0:0:0:
192,192,1353,1,0,0:0:0:0:
448,192,1515,1,0,0:0:0:0:
320,192,1515,1,8,0:0:0:0:
192,192,1596,1,8,0:0:0:0:
64,192,1596,1,0,0:0:0:0:
448,192,1677,1,0,0:0:0:0:
320,192,1677,1,8,0:0:0:0:
64,192,1839,1,0,0:0:0:0:
192,192,1839,1,2,0:0:0:0:
192,192,2002,1,2,0:0:0:0:
64,192,2002,1,0,0:0:0:0:
320,192,2164,1,0,0:0:0:0:
64,192,2164,1,2,0:0:0:0:
448,192,2164,1,0,0:0:0:0:
192,192,2326,1,0,0:0:0:0:
64,192,2488,1,0,0:0:0:0:
320,192,2488,1,2,0:0:0:0:
448,192,2488,1,0,0:0:0:0:
192,192,2650,1,2,0:0:0:0:
320,192,2650,1,0,0:0:0:0:
448,192,2812,1,0,0:0:0:0:
64,192,2812,1,0,0:0:0:0:
192,192,2812,1,2,0:0:0:0:
64,192,3137,1,0,0:0:0:0:
192,192,3137,1,0,0:0:0:0:
448,192,3137,1,2,0:0:0:0:
320,192,3299,1,0,0:0:0:0:
448,192,3461,1,0,0:0:0:0:
192,192,3461,1,2,0:0:0:0:
64,192,3461,1,0,0:0:0:0:
320,192,3623,1,2,0:0:0:0:
192,192,3623,1,0,0:0:0:0:
320,192,3785,1,2,0:0:0:0:
448,192,3785,1,0,0:0:0:0:
64,192,3785,1,0,0:0:0:0:
448,192,4110,1,0,0:0:0:25:bell.wav
64,192,4272,1,0,0:0:0:25:bell.wav
448,192,4434,1,0,0:0:0:25:bell.wav
320,192,4488,1,0,0:0:0:25:bell.wav
192,192,4542,1,0,0:0:0:25:bell.wav
64,192,4596,1,0,0:0:0:25:bell.wav
448,192,4650,1,0,0:0:0:25:bell.wav
320,192,4704,1,0,0:0:0:25:bell.wav
64,192,4758,1,2,0:0:0:0:
448,192,4758,1,0,0:0:0:0:
192,192,4758,1,0,0:0:0:0:
320,192,4921,1,0,0:0:0:0:
64,192,5083,1,0,0:0:0:0:
448,192,5083,1,2,0:0:0:0:
192,192,5083,1,0,0:0:0:0:
192,192,5245,1,0,0:0:0:0:
320,192,5245,1,2,0:0:0:0:
64,192,5407,1,2,0:0:0:0:
448,192,5407,1,0,0:0:0:0:
320,192,5407,1,0,0:0:0:0:
320,192,5731,1,0,0:0:0:0:
448,192,5731,1,0,0:0:0:0:
64,192,5731,1,2,0:0:0:0:
192,192,5894,1,0,0:0:0:0:
320,192,6056,1,2,0:0:0:0:
448,192,6056,1,0,0:0:0:0:
64,192,6056,1,0,0:0:0:0:
192,192,6218,1,0,0:0:0:0:
320,192,6218,1,2,0:0:0:0:
64,192,6380,1,0,0:0:0:0:
448,192,6380,1,0,0:0:0:0:
192,192,6380,1,2,0:0:0:0:
64,192,6704,128,0,6866:0:0:0:0:
192,192,6785,128,0,6866:0:0:0:0:
448,192,6866,128,0,6948:0:0:0:0:
320,192,6948,128,0,7029:0:0:0:0:
64,192,7029,1,0,0:0:0:0:
192,192,7029,1,0,0:0:0:0:
64,192,7191,1,0,0:0:0:0:
320,192,7191,1,0,0:0:0:0:
192,192,7353,1,0,0:0:0:0:
64,192,7353,1,0,0:0:0:0:
448,192,7353,1,2,0:0:0:0:
320,192,7515,1,0,0:0:0:0:
192,192,7677,1,2,0:0:0:0:
64,192,7677,1,0,0:0:0:0:
448,192,7677,1,0,0:0:0:0:
448,192,7839,1,0,0:0:0:0:
320,192,7839,1,2,0:0:0:0:
448,192,8002,1,2,0:0:0:0:
64,192,8002,1,0,0:0:0:0:
192,192,8002,1,0,0:0:0:0:
448,192,8326,1,0,0:0:0:0:
320,192,8326,1,2,0:0:0:0:
64,192,8326,1,0,0:0:0:0:
192,192,8488,1,0,0:0:0:0:
64,192,8650,1,2,0:0:0:0:
320,192,8650,1,0,0:0:0:0:
448,192,8650,1,0,0:0:0:0:
64,192,8812,1,0,0:0:0:0:
192,192,8812,1,2,0:0:0:0:
448,192,8975,1,0,0:0:0:0:
64,192,8975,1,0,0:0:0:0:
320,192,8975,1,2,0:0:0:0:
448,192,9461,1,0,0:0:0:0:
320,192,9461,1,0,0:0:0:0:
192,192,9461,1,2,0:0:0:0:
320,192,9623,1,2,0:0:0:0:
192,192,9623,1,0,0:0:0:0:
64,192,9623,1,0,0:0:0:0:
64,192,9785,1,2,0:0:0:0:
320,192,9785,1,0,0:0:0:0:
448,192,9785,1,0,0:0:0:0:
448,192,9948,1,2,0:0:0:0:
192,192,9948,1,0,0:0:0:0:
320,192,10272,128,0,10434:0:0:0:0:
192,192,10434,1,2,0:0:0:0:
448,192,10434,128,0,10758:0:0:0:0:
64,192,10434,128,0,10758:0:0:0:0:
320,192,10758,128,0,10921:0:0:0:0:
192,192,10921,128,0,11083:0:0:0:0:
64,192,11083,128,0,11894:0:0:0:0:
320,192,11083,1,0,0:0:0:0:
448,192,11083,1,2,0:0:0:0:
192,192,11407,1,0,0:0:0:25:bell.wav
448,192,11569,1,0,0:0:0:25:bell.wav
320,192,11731,1,0,0:0:0:25:bell.wav
192,192,11894,128,0,12542:0:0:0:0:
448,192,11894,128,0,12218:0:0:0:0:
64,192,12218,128,8,12542:0:0:0:0:
448,192,12542,1,2,0:0:0:0:
320,192,12542,1,0,0:0:0:0:
192,192,12704,1,0,0:0:0:0:
448,192,12785,1,0,0:0:0:0:
320,192,12785,1,0,0:0:0:0:
64,192,12866,1,2,0:0:0:0:
192,192,12866,1,0,0:0:0:0:
64,192,13029,1,0,0:0:0:0:
448,192,13029,1,0,0:0:0:0:
192,192,13110,1,0,0:0:0:0:
448,192,13191,1,2,0:0:0:0:
320,192,13191,1,0,0:0:0:0:
192,192,13272,1,0,0:0:0:0:
448,192,13353,1,0,0:0:0:0:
64,192,13353,1,0,0:0:0:0:
320,192,13434,1,0,0:0:0:0:
192,192,13515,1,0,0:0:0:0:
64,192,13515,1,2,0:0:0:0:
448,192,13677,1,0,0:0:0:0:
320,192,13677,1,0,0:0:0:0:
64,192,13758,1,0,0:0:0:0:
320,192,13839,1,0,0:0:0:0:
448,192,13839,1,2,0:0:0:0:
64,192,13921,1,0,0:0:0:0:
448,192,14002,1,0,0:0:0:0:
64,192,14083,1,0,0:0:0:0:
192,192,14083,1,0,0:0:0:0:
320,192,14164,1,0,0:0:0:0:
448,192,14164,1,2,0:0:0:0:
192,192,14245,1,0,0:0:0:0:
64,192,14326,1,0,0:0:0:0:
448,192,14326,1,0,0:0:0:0:
320,192,14407,1,0,0:0:0:0:
192,192,14488,1,0,0:0:0:0:
64,192,14488,1,2,0:0:0:0:
320,192,14569,1,0,0:0:0:0:
64,192,14650,1,0,0:0:0:0:
448,192,14650,1,0,0:0:0:0:
448,192,14731,1,0,0:0:0:0:
64,192,14731,1,0,0:0:0:0:
192,192,14812,1,0,0:0:0:0:
320,192,14812,1,2,0:0:0:0:
448,192,14975,1,0,0:0:0:0:
192,192,15056,1,0,0:0:0:0:
64,192,15056,1,0,0:0:0:0:
320,192,15137,1,0,0:0:0:0:
448,192,15137,1,2,0:0:0:0:
192,192,15218,1,0,0:0:0:0:
64,192,15299,1,0,0:0:0:0:
448,192,15380,1,0,0:0:0:0:
320,192,15380,1,0,0:0:0:0:
64,192,15461,1,2,0:0:0:0:
192,192,15461,1,0,0:0:0:0:
448,192,15542,1,0,0:0:0:0:
320,192,15623,1,0,0:0:0:0:
192,192,15623,1,0,0:0:0:0:
64,192,15704,1,0,0:0:0:0:
320,192,15785,1,0,0:0:0:0:
448,192,15785,1,2,0:0:0:0:
448,192,15948,1,0,0:0:0:0:
64,192,15948,1,0,0:0:0:0:
192,192,16029,1,0,0:0:0:0:
320,192,16110,1,0,0:0:0:0:
448,192,16110,1,2,0:0:0:0:
192,192,16191,1,0,0:0:0:0:
448,192,16272,1,0,0:0:0:0:
64,192,16272,1,0,0:0:0:0:
320,192,16353,1,0,0:0:0:0:
64,192,16434,128,2,16515:0:0:0:0:
192,192,16434,128,0,16515:0:0:0:0:
192,192,16596,1,0,0:0:0:0:
64,192,16596,1,2,0:0:0:0:
320,192,16758,128,0,16839:0:0:0:0:
448,192,16839,128,0,16921:0:0:0:0:
64,192,16921,1,2,0:0:0:0:
192,192,16961,1,2,0:0:0:0:
320,192,17002,1,2,0:0:0:0:
448,192,17042,1,2,0:0:0:0:
192,192,17083,1,0,0:0:0:0:
64,192,17083,1,2,0:0:0:0:
64,192,17245,128,8,17326:0:0:0:0:
192,192,17245,128,0,17326:0:0:0:0:
448,192,17245,128,2,17326:0:0:0:0:
448,192,17407,128,8,17650:0:0:0:0:
320,192,17407,128,0,17650:0:0:0:0:
64,192,17407,128,2,17650:0:0:0:0:
192,192,17731,1,0,0:0:0:0:
320,192,17731,1,2,0:0:0:0:
64,192,17894,1,0,0:0:0:0:
448,192,17894,128,0,18056:0:0:0:0:
320,192,18056,1,0,0:0:0:0:
192,192,18056,1,2,0:0:0:0:
448,192,18218,1,0,0:0:0:0:
64,192,18218,128,0,18380:0:0:0:0:
320,192,18380,1,0,0:0:0:0:
448,192,18380,1,2,0:0:0:0:
192,192,18542,1,0,0:0:0:0:
64,192,18542,128,0,18704:0:0:0:0:
320,192,18704,1,0,0:0:0:0:
448,192,18704,1,2,0:0:0:0:
192,192,18785,1,0,0:0:0:0:
64,192,18785,1,0,0:0:0:0:
320,192,18866,1,0,0:0:0:0:
448,192,18866,1,0,0:0:0:0:
192,192,18948,1,0,0:0:0:0:
64,192,18948,1,0,0:0:0:0:
320,192,19029,128,0,19110:0:0:0:0:
448,192,19029,128,2,19110:0:0:0:0:
192,192,19191,128,0,19272:0:0:0:0:
64,192,19191,128,0,19272:0:0:0:0:
448,192,19353,1,2,0:0:0:0:
320,192,19353,1,0,0:0:0:0:
64,192,19434,1,0,0:0:0:0:
192,192,19515,1,0,0:0:0:0:
320,192,19596,1,0,0:0:0:0:
64,192,19677,1,2,0:0:0:0:
448,192,19677,1,0,0:0:0:0:
192,192,19758,1,0,0:0:0:0:
320,192,19839,1,0,0:0:0:0:
64,192,19921,1,0,0:0:0:0:
192,192,20002,1,2,0:0:0:0:
448,192,20002,128,0,20164:0:0:0:0:
320,192,20164,1,0,0:0:0:0:
192,192,20245,1,0,0:0:0:0:
320,192,20326,1,0,0:0:0:0:
64,192,20326,128,8,20569:0:0:0:0:
448,192,20326,128,2,20569:0:0:0:0:
320,192,20650,1,0,0:0:0:0:
448,192,20650,1,2,0:0:0:0:
448,192,20812,1,2,0:0:0:0:
320,192,20812,1,0,0:0:0:0:
64,192,20975,1,8,0:0:0:0:
448,192,20975,1,2,0:0:0:0:
192,192,20975,1,0,0:0:0:0:
320,192,21137,1,0,0:0:0:0:
192,192,21137,1,2,0:0:0:0:
192,192,21299,1,2,0:0:0:0:
320,192,21299,1,0,0:0:0:0:
320,192,21461,1,0,0:0:0:0:
448,192,21461,128,8,21704:0:0:0:0:
64,192,21461,128,2,21704:0:0:0:0:
192,192,21785,1,2,0:0:0:0:
64,192,21785,1,0,0:0:0:0:
448,192,21948,1,0,0:0:0:0:
320,192,21948,1,2,0:0:0:0:
192,192,22110,1,2,0:0:0:0:
64,192,22110,1,0,0:0:0:0:
64,192,22272,1,0,0:0:0:0:
448,192,22272,1,8,0:0:0:0:
320,192,22272,1,2,0:0:0:0:
192,192,22596,128,0,22677:0:0:0:0:
320,192,22596,128,0,22677:0:0:0:0:
64,192,22677,128,0,22921:0:0:0:0:
448,192,22677,128,0,22921:0:0:0:0:
320,192,22921,1,0,0:0:0:0:
192,192,22921,1,2,0:0:0:0:
448,192,23083,1,0,0:0:0:0:
320,192,23245,1,0,0:0:0:0:
192,192,23407,1,0,0:0:0:0:
64,192,23569,1,0,0:0:0:0:
448,192,23731,1,0,0:0:0:0:
320,192,23894,1,0,0:0:0:0:
192,192,24056,1,0,0:0:0:0:
320,192,24218,1,0,0:0:0:0:
64,192,24380,1,0,0:0:0:0:
448,192,24380,1,0,0:0:0:0:
320,192,24542,1,0,0:0:0:0:
64,192,24704,1,0,0:0:0:0:
448,192,24704,1,0,0:0:0:0:
192,192,24866,1,0,0:0:0:0:
448,192,25029,1,0,0:0:0:0:
320,192,25029,1,0,0:0:0:0:
64,192,25191,1,0,0:0:0:0:
320,192,25353,1,0,0:0:0:0:
448,192,25353,1,0,0:0:0:0:
192,192,25515,1,0,0:0:0:0:
448,192,25677,1,0,0:0:0:0:
64,192,25677,1,0,0:0:0:0:
320,192,25839,1,0,0:0:0:0:
64,192,26002,1,0,0:0:0:0:
448,192,26002,1,0,0:0:0:0:
192,192,26164,1,0,0:0:0:0:
448,192,26326,1,0,0:0:0:0:
320,192,26326,1,0,0:0:0:0:
192,192,26488,1,0,0:0:0:0:
64,192,26650,1,0,0:0:0:0:
320,192,26650,1,0,0:0:0:0:
192,192,26812,1,0,0:0:0:25:bell.wav
320,192,26894,1,0,0:0:0:25:bell.wav
448,192,26975,1,0,0:0:0:25:bell.wav
64,192,26975,1,0,0:0:0:0:
320,192,27056,1,0,0:0:0:25:bell.wav
192,192,27137,1,0,0:0:0:25:bell.wav
320,192,27218,1,0,0:0:0:25:bell.wav
448,192,27299,1,0,0:0:0:25:bell.wav
64,192,27299,1,0,0:0:0:0:
192,192,27380,1,0,0:0:0:25:bell.wav
320,192,27461,1,0,0:0:0:25:bell.wav
192,192,27542,1,0,0:0:0:25:bell.wav
64,192,27623,1,0,0:0:0:0:
448,192,27623,1,0,0:0:0:25:bell.wav
320,192,27704,1,0,0:0:0:25:bell.wav
192,192,27785,1,0,0:0:0:25:bell.wav
320,192,27866,1,0,0:0:0:25:bell.wav
64,192,27948,1,0,0:0:0:0:
448,192,27948,1,0,0:0:0:25:bell.wav
320,192,28029,1,0,0:0:0:25:bell.wav
192,192,28110,1,0,0:0:0:25:bell.wav
448,192,28272,1,0,0:0:0:0:
64,192,28272,1,0,0:0:0:0:
320,192,28434,1,0,0:0:0:0:
64,192,28596,1,0,0:0:0:0:
192,192,28596,1,0,0:0:0:0:
320,192,28758,128,0,28921:0:0:0:0:
448,192,28758,128,0,28921:0:0:0:0:
64,192,28921,1,0,0:0:0:0:
192,192,28921,1,0,0:0:0:0:
320,192,29083,128,0,29407:0:0:0:0:
448,192,29083,1,0,0:0:0:0:
64,192,29245,1,0,0:0:0:0:
192,192,29245,1,0,0:0:0:0:
448,192,29407,1,0,0:0:0:0:
64,192,29569,128,0,29731:0:0:0:0:
192,192,29569,128,0,29731:0:0:0:0:
448,192,29731,128,0,29894:0:0:0:0:
64,192,29894,1,0,0:0:0:0:
192,192,29894,128,0,30056:0:0:0:0:
448,192,30056,128,0,30218:0:0:0:0:
320,192,30056,1,0,0:0:0:0:
192,192,30218,1,0,0:0:0:0:
64,192,30218,128,0,30542:0:0:0:0:
448,192,30380,128,0,30542:0:0:0:0:
192,192,30542,1,0,0:0:0:0:
320,192,30542,1,0,0:0:0:0:
64,192,30704,1,0,0:0:0:0:
448,192,30704,1,0,0:0:0:0:
320,192,30866,1,0,0:0:0:0:
192,192,30866,1,0,0:0:0:0:
64,192,31029,1,0,0:0:0:0:
448,192,31191,1,0,0:0:0:0:
320,192,31191,1,0,0:0:0:0:
64,192,31353,128,0,31515:0:0:0:0:
192,192,31353,128,0,31515:0:0:0:0:
320,192,31515,1,0,0:0:0:0:
448,192,31515,1,0,0:0:0:0:
64,192,31677,128,0,32002:0:0:0:0:
448,192,31677,1,0,0:0:0:0:
320,192,31839,1,0,0:0:0:0:
192,192,31839,1,0,0:0:0:0:
448,192,32002,1,0,0:0:0:0:
320,192,32002,1,0,0:0:0:0:
64,192,32083,1,0,0:0:0:0:
192,192,32083,1,0,0:0:0:0:
320,192,32164,1,0,0:0:0:0:
448,192,32164,1,0,0:0:0:0:
64,192,32326,1,0,0:0:0:0:
192,192,32326,1,0,0:0:0:0:
448,192,32407,1,0,0:0:0:0:
320,192,32407,1,0,0:0:0:0:
64,192,32488,1,0,0:0:0:0:
192,192,32488,1,0,0:0:0:0:
448,192,32650,1,0,0:0:0:0:
320,192,32650,1,0,0:0:0:0:
64,192,32731,1,0,0:0:0:0:
192,192,32731,1,0,0:0:0:0:
320,192,32812,1,0,0:0:0:0:
448,192,32812,1,0,0:0:0:0:
64,192,32894,1,0,0:0:0:0:
192,192,32894,1,0,0:0:0:0:
320,192,32975,1,2,0:0:0:0:
448,192,32975,128,0,33299:0:0:0:0:
64,192,33299,1,2,0:0:0:0:
192,192,33299,1,0,0:0:0:0:
448,192,33461,1,0,0:0:0:0:
320,192,33461,1,0,0:0:0:0:
192,192,33623,1,0,0:0:0:0:
64,192,33623,1,2,0:0:0:0:
320,192,33785,1,0,0:0:0:0:
448,192,33785,1,0,0:0:0:0:
192,192,33948,1,0,0:0:0:0:
448,192,33948,1,8,0:0:0:0:
64,192,33948,1,2,0:0:0:0:
64,192,34110,1,0,0:0:0:0:
448,192,34110,1,0,0:0:0:0:
320,192,34191,1,0,0:0:0:0:
192,192,34272,1,0,0:0:0:0:
64,192,34272,1,2,0:0:0:0:
448,192,34434,1,0,0:0:0:0:
320,192,34434,1,0,0:0:0:0:
448,192,34596,1,0,0:0:0:0:
64,192,34596,1,2,0:0:0:0:
320,192,34758,1,0,0:0:0:0:
192,192,34758,1,0,0:0:0:0:
448,192,34921,1,0,0:0:0:0:
64,192,34921,1,2,0:0:0:0:
320,192,35083,1,0,0:0:0:0:
192,192,35083,1,0,0:0:0:0:
64,192,35245,1,2,0:0:0:0:
192,192,35245,1,0,0:0:0:0:
448,192,35245,1,8,0:0:0:0:
64,192,35407,1,0,0:0:0:0:
320,192,35407,1,0,0:0:0:0:
448,192,35569,1,2,0:0:0:0:
192,192,35569,1,0,0:0:0:0:
448,192,35731,1,0,0:0:0:0:
64,192,35731,1,0,0:0:0:0:
448,192,35894,1,0,0:0:0:0:
320,192,35894,1,2,0:0:0:0:
64,192,36056,1,0,0:0:0:0:
192,192,36056,1,0,0:0:0:0:
320,192,36218,1,2,0:0:0:0:
448,192,36218,1,0,0:0:0:0:
64,192,36380,1,0,0:0:0:0:
192,192,36380,1,0,0:0:0:0:
320,192,36542,1,0,0:0:0:0:
448,192,36542,1,2,0:0:0:0:
64,192,36542,1,8,0:0:0:0:
320,192,36704,1,0,0:0:0:0:
448,192,36704,1,0,0:0:0:0:
192,192,36866,1,0,0:0:0:0:
64,192,36866,1,2,0:0:0:0:
64,192,37029,1,0,0:0:0:0:
192,192,37029,1,0,0:0:0:0:
448,192,37191,1,2,0:0:0:0:
64,192,37191,1,0,0:0:0:0:
192,192,37353,1,0,0:0:0:0:
448,192,37353,1,0,0:0:0:0:
64,192,37515,1,2,0:0:0:0:
448,192,37515,1,0,0:0:0:0:
320,192,37677,1,0,0:0:0:0:
64,192,37677,1,0,0:0:0:0:
64,192,37839,1,2,0:0:0:0:
448,192,37839,1,8,0:0:0:0:
192,192,37839,1,0,0:0:0:0:
192,192,38002,1,0,0:0:0:0:
320,192,38002,1,0,0:0:0:0:
448,192,38002,1,2,0:0:0:0:
320,192,38164,1,2,0:0:0:0:
192,192,38164,1,0,0:0:0:0:
64,192,38164,1,0,0:0:0:0:
448,192,38326,1,0,0:0:0:0:
192,192,38407,1,0,0:0:0:0:
64,192,38488,1,0,0:0:0:0:
320,192,38488,1,2,0:0:0:0:
448,192,38650,1,2,0:0:0:0:
192,192,38650,1,0,0:0:0:0:
320,192,38812,1,2,0:0:0:0:
64,192,38812,1,0,0:0:0:0:
192,192,38975,1,0,0:0:0:0:
448,192,38975,1,2,0:0:0:0:
64,192,39137,1,2,0:0:0:0:
448,192,39137,1,0,0:0:0:0:
320,192,39137,1,0,0:0:0:0:
192,192,39299,1,0,0:0:0:0:
64,192,39299,1,2,0:0:0:0:
320,192,39461,1,0,0:0:0:0:
448,192,39461,1,2,0:0:0:0:
64,192,39461,1,0,0:0:0:0:
64,192,39623,1,0,0:0:0:0:
192,192,39623,1,2,0:0:0:0:
192,192,39785,1,0,0:0:0:0:
320,192,39785,1,2,0:0:0:0:
320,192,39948,1,0,0:0:0:0:
448,192,39948,1,2,0:0:0:0:
64,192,39948,1,0,0:0:0:0:
64,192,40110,1,0,0:0:0:0:
192,192,40110,1,0,0:0:0:0:
448,192,40110,1,2,0:0:0:0:
192,192,40272,1,0,0:0:0:0:
320,192,40272,1,2,0:0:0:0:
448,192,40434,1,0,0:0:0:0:
64,192,40434,1,2,0:0:0:0:
320,192,40434,1,0,0:0:0:0:
192,192,40596,1,0,0:0:0:0:
320,192,40596,1,2,0:0:0:0:
448,192,40758,1,2,0:0:0:0:
64,192,40758,1,0,0:0:0:0:
192,192,40758,1,0,0:0:0:0:
320,192,40921,1,2,0:0:0:0:
192,192,40921,1,0,0:0:0:0:
448,192,41083,1,0,0:0:0:0:
64,192,41083,1,2,0:0:0:0:
320,192,41083,1,0,0:0:0:0:
64,192,41245,1,2,0:0:0:0:
448,192,41245,1,0,0:0:0:0:
320,192,41245,1,0,0:0:0:0:
192,192,41569,1,0,0:0:0:0:
448,192,41569,1,2,0:0:0:0:
64,192,41569,1,0,0:0:0:0:
448,192,41731,1,2,0:0:0:0:
192,192,41731,1,0,0:0:0:0:
64,192,41731,1,0,0:0:0:0:
320,192,41894,1,0,0:0:0:0:
192,192,41975,1,0,0:0:0:0:
64,192,42056,1,0,0:0:0:0:
320,192,42056,1,0,0:0:0:0:
448,192,42056,1,2,0:0:0:0:
64,192,42218,1,0,0:0:0:0:
192,192,42218,1,2,0:0:0:0:
448,192,42299,1,0,0:0:0:0:
320,192,42299,1,2,0:0:0:0:
448,192,42380,1,0,0:0:0:0:
192,192,42380,1,2,0:0:0:0:
64,192,42380,1,8,0:0:0:0:
320,192,42542,1,0,0:0:0:0:
192,192,42542,1,2,0:0:0:0:
448,192,42704,1,8,0:0:0:0:
64,192,42704,1,2,0:0:0:0:
320,192,42704,1,0,0:0:0:0:
320,192,42866,1,2,0:0:0:0:
192,192,42866,1,0,0:0:0:0:
448,192,43029,1,8,0:0:0:0:
64,192,43029,1,0,0:0:0:0:
192,192,43029,1,2,0:0:0:0:
192,192,43191,1,2,0:0:0:0:
320,192,43191,1,0,0:0:0:0:
64,192,43353,1,8,0:0:0:0:
448,192,43353,1,2,0:0:0:0:
320,192,43353,1,0,0:0:0:0:
192,192,43515,1,0,0:0:0:0:
320,192,43515,1,2,0:0:0:0:
64,192,43677,128,0,44975:0:0:0:0:
448,192,43677,1,2,0:0:0:0:
192,192,43677,1,0,0:0:0:0:
320,192,44975,128,0,45623:0:0:0:0:
448,192,44975,128,0,45623:0:0:0:0:
192,192,45623,1,0,0:0:0:0:
448,192,45704,1,0,0:0:0:0:
192,192,45785,1,0,0:0:0:0:
448,192,45866,1,0,0:0:0:0:
320,192,45948,1,8,0:0:0:0:
64,192,45948,128,0,46272:0:0:0:0:
192,192,45948,1,2,0:0:0:0:
192,192,46272,1,2,0:0:0:0:
320,192,46272,1,0,0:0:0:0:
448,192,46272,1,4,0:0:0:0:
64,192,46434,1,0,0:0:0:0:
192,192,46596,1,2,0:0:0:0:
320,192,46596,1,0,0:0:0:0:
448,192,46596,1,8,0:0:0:0:
64,192,46677,1,0,0:0:0:0:
192,192,46758,1,0,0:0:0:0:
320,192,46839,1,0,0:0:0:0:
448,192,46921,1,0,0:0:0:0:
64,192,46921,1,2,0:0:0:0:
320,192,47083,1,0,0:0:0:0:
192,192,47164,1,0,0:0:0:0:
448,192,47245,1,2,0:0:0:0:
64,192,47245,1,8,0:0:0:0:
320,192,47245,1,0,0:0:0:0:
192,192,47407,1,0,0:0:0:0:
64,192,47569,1,0,0:0:0:0:
448,192,47569,1,2,0:0:0:0:
192,192,47731,1,0,0:0:0:0:
64,192,47894,1,8,0:0:0:0:
320,192,47894,1,0,0:0:0:0:
448,192,47894,1,2,0:0:0:0:
192,192,47975,1,0,0:0:0:0:
320,192,48056,1,0,0:0:0:0:
448,192,48137,1,0,0:0:0:0:
64,192,48218,1,2,0:0:0:0:
192,192,48218,1,0,0:0:0:25:bell.wav
320,192,48380,1,0,0:0:0:25:bell.wav
448,192,48380,1,0,0:0:0:0:
192,192,48542,1,0,0:0:0:25:bell.wav
64,192,48542,1,8,0:0:0:0:
320,192,48596,1,0,0:0:0:25:bell.wav
448,192,48650,1,0,0:0:0:25:bell.wav
64,192,48704,1,0,0:0:0:25:bell.wav
192,192,48758,1,0,0:0:0:25:bell.wav
320,192,48812,1,0,0:0:0:25:bell.wav
64,192,48866,1,0,0:0:0:0:
448,192,48866,1,2,0:0:0:0:
192,192,49029,1,0,0:0:0:0:
448,192,49191,1,8,0:0:0:0:
64,192,49191,1,2,0:0:0:0:
320,192,49191,1,0,0:0:0:0:
192,192,49272,1,0,0:0:0:0:
320,192,49353,1,0,0:0:0:0:
448,192,49434,1,0,0:0:0:0:
64,192,49515,1,2,0:0:0:0:
192,192,49515,1,0,0:0:0:0:
448,192,49677,1,0,0:0:0:0:
320,192,49758,1,0,0:0:0:0:
448,192,49839,1,2,0:0:0:0:
64,192,49839,1,8,0:0:0:0:
192,192,49839,1,0,0:0:0:0:
320,192,50002,1,0,0:0:0:0:
64,192,50164,1,0,0:0:0:0:
448,192,50164,1,2,0:0:0:0:
192,192,50326,1,0,0:0:0:0:
320,192,50488,1,0,0:0:0:0:
64,192,50488,1,8,0:0:0:0:
448,192,50488,1,2,0:0:0:0:
192,192,50650,1,0,0:0:0:0:
320,192,50731,1,0,0:0:0:0:
448,192,50812,1,0,0:0:0:25:bell.wav
192,192,50812,1,2,0:0:0:0:
320,192,50975,1,0,0:0:0:25:bell.wav
64,192,50975,1,0,0:0:0:0:
192,192,51137,1,8,0:0:0:0:
448,192,51137,1,0,0:0:0:25:bell.wav
320,192,51191,1,0,0:0:0:25:bell.wav
64,192,51245,1,0,0:0:0:25:bell.wav
192,192,51299,1,0,0:0:0:25:bell.wav
448,192,51353,1,0,0:0:0:25:bell.wav
320,192,51407,1,0,0:0:0:25:bell.wav
64,192,51461,1,2,0:0:0:0:
192,192,51461,1,0,0:0:0:0:
320,192,51623,1,0,0:0:0:0:
64,192,51785,1,8,0:0:0:0:
448,192,51785,1,2,0:0:0:0:
192,192,51785,1,0,0:0:0:0:
320,192,51866,1,0,0:0:0:0:
448,192,51948,1,0,0:0:0:0:
64,192,52029,1,0,0:0:0:0:
192,192,52110,1,0,0:0:0:0:
320,192,52110,1,2,0:0:0:0:
448,192,52272,1,0,0:0:0:0:
192,192,52353,1,0,0:0:0:0:
448,192,52434,1,2,0:0:0:0:
320,192,52434,1,0,0:0:0:0:
64,192,52434,1,8,0:0:0:0:
192,192,52515,1,0,0:0:0:0:
64,192,52596,1,0,0:0:0:0:
320,192,52758,1,0,0:0:0:0:
448,192,52758,1,2,0:0:0:0:
192,192,52921,1,0,0:0:0:0:
64,192,53083,1,8,0:0:0:0:
320,192,53083,1,0,0:0:0:0:
448,192,53083,1,2,0:0:0:0:
192,192,53164,1,0,0:0:0:0:
320,192,53245,1,0,0:0:0:0:
448,192,53326,1,0,0:0:0:0:
320,192,53407,1,0,0:0:0:0:
64,192,53407,1,2,0:0:0:0:
448,192,53488,1,0,0:0:0:0:
192,192,53569,1,0,0:0:0:0:
64,192,53569,1,0,0:0:0:0:
320,192,53650,1,0,0:0:0:0:
64,192,53731,1,2,0:0:0:0:
192,192,53731,1,0,0:0:0:0:
448,192,53731,1,8,0:0:0:0:
320,192,53812,1,0,0:0:0:0:
192,192,53894,1,0,0:0:0:0:
448,192,53894,1,0,0:0:0:0:
320,192,54056,1,0,0:0:0:0:
64,192,54056,1,2,0:0:0:0:
192,192,54218,128,0,54380:0:0:0:0:
448,192,54380,128,0,54704:0:0:0:0:
64,192,54380,1,2,0:0:0:0:
320,192,54380,1,8,0:0:0:0:
192,192,54542,1,0,0:0:0:0:
64,192,54704,1,2,0:0:0:0:
320,192,54704,1,0,0:0:0:0:
320,192,54866,128,0,55029:0:0:0:0:
192,192,55029,1,2,0:0:0:0:
64,192,55029,128,0,55353:0:0:0:0:
448,192,55029,1,8,0:0:0:0:
320,192,55191,1,0,0:0:0:0:
192,192,55353,1,2,0:0:0:0:
448,192,55353,1,0,0:0:0:0:
320,192,55515,1,2,0:0:0:0:
448,192,55515,1,0,0:0:0:0:
192,192,55677,1,2,0:0:0:0:
64,192,55677,1,0,0:0:0:0:
448,192,55839,128,0,56650:0:0:0:0:
320,192,55839,1,2,0:0:0:0:
64,192,55839,1,0,0:0:0:0:
192,192,56002,128,0,56164:0:0:0:0:
320,192,56164,128,0,56326:0:0:0:0:
64,192,56326,128,0,56650:0:0:0:0:
192,192,56488,1,0,0:0:0:0:
320,192,56650,1,0,0:0:0:0:
64,192,56731,1,0,0:0:0:0:
320,192,56812,1,0,0:0:0:0:
64,192,56894,1,0,0:0:0:0:
192,192,56975,1,2,0:0:0:0:
320,192,56975,1,8,0:0:0:0:
448,192,56975,1,4,0:0:0:0:
192,192,57137,1,0,0:0:0:0:
448,192,57299,1,0,0:0:0:0:
64,192,57299,1,2,0:0:0:0:
320,192,57461,1,0,0:0:0:0:
192,192,57542,1,0,0:0:0:0:
448,192,57623,1,0,0:0:0:0:
64,192,57623,1,8,0:0:0:0:
320,192,57623,1,2,0:0:0:0:
192,192,57704,1,0,0:0:0:0:
64,192,57785,1,0,0:0:0:0:
448,192,57948,1,2,0:0:0:0:
192,192,57948,1,0,0:0:0:0:
64,192,58110,1,0,0:0:0:0:
320,192,58272,1,0,0:0:0:0:
64,192,58272,1,8,0:0:0:0:
448,192,58272,1,2,0:0:0:0:
192,192,58353,1,0,0:0:0:0:
320,192,58434,1,0,0:0:0:0:
448,192,58515,1,0,0:0:0:0:
64,192,58596,1,0,0:0:0:25:bell.wav
192,192,58596,1,2,0:0:0:0:
320,192,58758,1,0,0:0:0:25:bell.wav
448,192,58758,1,0,0:0:0:0:
192,192,58921,1,8,0:0:0:0:
64,192,58921,1,0,0:0:0:25:bell.wav
320,192,58975,1,0,0:0:0:25:bell.wav
448,192,59029,1,0,0:0:0:25:bell.wav
64,192,59083,1,0,0:0:0:25:bell.wav
192,192,59137,1,0,0:0:0:25:bell.wav
320,192,59191,1,0,0:0:0:25:bell.wav
64,192,59245,1,0,0:0:0:0:
448,192,59245,1,2,0:0:0:0:
320,192,59407,1,0,0:0:0:0:
448,192,59569,1,8,0:0:0:0:
192,192,59569,1,0,0:0:0:0:
64,192,59569,1,2,0:0:0:0:
320,192,59650,1,0,0:0:0:0:
448,192,59731,1,0,0:0:0:0:
64,192,59812,1,0,0:0:0:0:
448,192,59894,1,2,0:0:0:0:
192,192,59894,1,0,0:0:0:0:
320,192,60056,1,0,0:0:0:0:
192,192,60137,1,0,0:0:0:0:
64,192,60218,1,8,0:0:0:0:
320,192,60218,1,0,0:0:0:0:
448,192,60218,1,2,0:0:0:0:
192,192,60299,1,0,0:0:0:0:
448,192,60380,1,0,0:0:0:0:
64,192,60542,1,2,0:0:0:0:
320,192,60542,1,0,0:0:0:0:
192,192,60704,1,0,0:0:0:0:
448,192,60866,1,2,0:0:0:0:
320,192,60866,1,0,0:0:0:0:
64,192,60866,1,8,0:0:0:0:
192,192,60948,1,0,0:0:0:0:
320,192,61029,1,0,0:0:0:0:
64,192,61110,1,0,0:0:0:0:
192,192,61191,1,2,0:0:0:0:
448,192,61191,1,0,0:0:0:25:bell.wav
320,192,61353,1,0,0:0:0:25:bell.wav
64,192,61353,1,0,0:0:0:0:
192,192,61515,1,8,0:0:0:0:
448,192,61515,1,0,0:0:0:25:bell.wav
320,192,61569,1,0,0:0:0:25:bell.wav
64,192,61623,1,0,0:0:0:25:bell.wav
192,192,61677,1,0,0:0:0:25:bell.wav
448,192,61731,1,0,0:0:0:25:bell.wav
320,192,61785,1,0,0:0:0:25:bell.wav
64,192,61839,1,2,0:0:0:0:
192,192,61839,1,0,0:0:0:0:
448,192,62002,1,0,0:0:0:0:
320,192,62002,1,2,0:0:0:0:
192,192,62164,1,0,0:0:0:0:
64,192,62164,1,2,0:0:0:0:
320,192,62326,1,2,0:0:0:0:
448,192,62326,1,0,0:0:0:0:
64,192,62488,1,2,0:0:0:0:
448,192,62488,1,0,0:0:0:0:
192,192,62488,1,0,0:0:0:0:
64,192,62650,1,2,0:0:0:0:
320,192,62650,1,0,0:0:0:0:
192,192,62812,1,2,0:0:0:0:
448,192,62812,1,0,0:0:0:0:
64,192,62975,1,0,0:0:0:0:
320,192,62975,1,2,0:0:0:0:
448,192,63137,1,0,0:0:0:0:
192,192,63137,1,2,0:0:0:0:
64,192,63299,1,0,0:0:0:0:
320,192,63299,1,2,0:0:0:0:
448,192,63461,1,0,0:0:0:0:
192,192,63461,1,2,0:0:0:0:
64,192,63461,1,0,0:0:0:0:
320,192,63623,1,2,0:0:0:0:
448,192,63623,1,0,0:0:0:0:
64,192,63785,1,0,0:0:0:0:
192,192,63785,1,2,0:0:0:0:
64,192,63948,1,2,0:0:0:0:
448,192,63948,1,0,0:0:0:0:
320,192,64110,1,0,0:0:0:0:
192,192,64110,1,2,0:0:0:0:
64,192,64272,1,2,0:0:0:0:
448,192,64272,1,0,0:0:0:0:
320,192,64434,1,2,0:0:0:0:
192,192,64434,1,0,0:0:0:0:
448,192,64596,1,0,0:0:0:0:
64,192,64758,128,0,64921:0:0:0:0:
320,192,64758,128,0,64921:0:0:0:0:
448,192,64921,1,0,0:0:0:0:
448,192,65083,128,0,65245:0:0:0:0:
192,192,65083,128,8,65245:0:0:0:0:
320,192,65083,1,2,0:0:0:0:
64,192,65245,128,0,65407:0:0:0:0:
448,192,65407,128,2,65569:0:0:0:0:
320,192,65407,128,0,65569:0:0:0:0:
192,192,65569,128,0,65650:0:0:0:0:
64,192,65894,1,0,0:0:0:0:
192,192,65894,1,0,0:0:0:0:
320,192,65894,1,2,0:0:0:0:
448,192,66056,1,0,0:0:0:0:
320,192,66056,1,2,0:0:0:0:
64,192,66056,1,0,0:0:0:0:
448,192,66218,1,0,0:0:0:0:
192,192,66218,1,2,0:0:0:0:
64,192,66218,1,0,0:0:0:0:
320,192,66380,1,2,0:0:0:0:
448,192,66380,1,0,0:0:0:0:
192,192,66380,128,0,66704:0:0:0:0:
64,192,66704,1,0,0:0:0:0:
448,192,66704,128,0,67029:0:0:0:0:
320,192,67029,1,0,0:0:0:0:
192,192,67029,1,2,0:0:0:0:
64,192,67029,128,0,67677:0:0:0:0:
192,192,67515,128,0,68326:0:0:0:0:
320,192,67596,128,0,68326:0:0:0:0:
448,192,67677,128,0,68326:0:0:0:0:
64,192,68326,1,0,0:0:0:0:
64,192,68650,1,0,0:0:0:0:
320,192,68650,128,0,68812:0:0:0:0:
192,192,68812,128,0,68975:0:0:0:0:
448,192,68975,1,0,0:0:0:0:
64,192,68975,128,0,69137:0:0:0:0:
448,192,69299,128,0,69461:0:0:0:0:
192,192,69299,1,0,0:0:0:0:
320,192,69461,128,0,69623:0:0:0:0:
64,192,69623,128,0,69785:0:0:0:0:
448,192,69623,1,0,0:0:0:0:
192,192,69785,128,0,69948:0:0:0:0:
320,192,69948,128,0,70110:0:0:0:0:
64,192,69948,1,0,0:0:0:0:
448,192,70110,128,0,70272:0:0:0:0:
320,192,70272,1,0,0:0:0:0:
64,192,70272,128,0,70434:0:0:0:0:
192,192,70434,128,0,70596:0:0:0:0:
64,192,70596,1,0,0:0:0:0:
320,192,70596,128,0,70758:0:0:0:0:
448,192,70758,128,0,70921:0:0:0:0:
320,192,70921,1,0,0:0:0:0:
64,192,70921,128,0,71083:0:0:0:0:
192,192,71083,128,0,71245:0:0:0:0:
448,192,71245,1,0,0:0:0:0:
320,192,71245,128,0,71407:0:0:0:0:
64,192,71407,128,0,71569:0:0:0:0:
192,192,71569,1,0,0:0:0:0:
448,192,71569,128,0,71731:0:0:0:0:
320,192,71731,128,0,71894:0:0:0:0:
64,192,71894,1,0,0:0:0:0:
192,192,71894,128,0,72056:0:0:0:0:
448,192,72056,128,0,72218:0:0:0:0:
192,192,72218,1,0,0:0:0:0:
64,192,72218,128,0,72380:0:0:0:0:
320,192,72380,128,0,72542:0:0:0:0:
448,192,72542,128,0,72704:0:0:0:0:
192,192,72542,1,0,0:0:0:0:
64,192,72704,128,0,72866:0:0:0:0:
448,192,72866,1,0,0:0:0:0:
320,192,72866,128,0,73029:0:0:0:0:
192,192,73029,128,0,73191:0:0:0:0:
320,192,73191,1,0,0:0:0:0:
64,192,73191,128,0,73353:0:0:0:0:
448,192,73353,128,0,73515:0:0:0:0:
64,192,73515,1,0,0:0:0:0:
192,192,73515,128,0,73677:0:0:0:0:
320,192,73677,128,0,73839:0:0:0:0:
64,192,73839,1,0,0:0:0:0:
448,192,73839,128,0,74002:0:0:0:0:
192,192,74002,128,0,74164:0:0:0:0:
64,192,74164,1,0,0:0:0:0:
448,192,74164,128,0,74326:0:0:0:0:
320,192,74326,128,0,74488:0:0:0:0:
448,192,74488,1,0,0:0:0:0:
192,192,74488,128,0,74650:0:0:0:0:
320,192,74650,128,0,74812:0:0:0:0:
448,192,74812,1,0,0:0:0:0:
64,192,74812,128,0,74975:0:0:0:0:
192,192,74975,128,0,75137:0:0:0:0:
320,192,75137,1,0,0:0:0:0:
448,192,75137,128,0,75299:0:0:0:0:
64,192,75299,128,0,75461:0:0:0:0:
448,192,75461,1,0,0:0:0:0:
320,192,75461,128,0,75623:0:0:0:0:
192,192,75623,128,0,75785:0:0:0:0:
64,192,75785,1,0,0:0:0:0:
448,192,75785,128,0,75948:0:0:0:0:
192,192,75948,128,0,76110:0:0:0:0:
320,192,76110,1,0,0:0:0:0:
448,192,76110,1,0,0:0:0:0:
192,192,76191,1,0,0:0:0:0:
64,192,76191,1,0,0:0:0:0:
448,192,76272,1,0,0:0:0:0:
320,192,76272,1,0,0:0:0:0:
64,192,76434,1,0,0:0:0:0:
192,192,76434,1,0,0:0:0:0:
320,192,76515,1,0,0:0:0:0:
448,192,76515,1,0,0:0:0:0:
192,192,76596,1,0,0:0:0:0:
64,192,76596,1,0,0:0:0:0:
320,192,76758,1,0,0:0:0:0:
448,192,76758,1,0,0:0:0:0:
192,192,76839,1,0,0:0:0:0:
64,192,76839,1,0,0:0:0:0:
320,192,76921,1,0,0:0:0:0:
448,192,76921,1,0,0:0:0:0:
192,192,77002,1,0,0:0:0:0:
64,192,77002,1,0,0:0:0:0:
320,192,77083,1,0,0:0:0:0:
448,192,77083,1,0,0:0:0:0:
64,192,77407,1,2,0:0:0:0:
448,192,77407,1,0,0:0:0:0:
320,192,77515,1,0,0:0:0:0:
192,192,77623,1,0,0:0:0:0:
448,192,77731,1,2,0:0:0:0:
320,192,77731,1,0,0:0:0:0:
192,192,77839,1,0,0:0:0:0:
64,192,77948,1,0,0:0:0:0:
448,192,77948,1,2,0:0:0:0:
192,192,78056,1,2,0:0:0:0:
320,192,78056,1,8,0:0:0:0:
64,192,78164,1,0,0:0:0:0:
448,192,78272,1,0,0:0:0:0:
192,192,78272,1,0,0:0:0:0:
320,192,78380,1,0,0:0:0:0:
64,192,78380,1,2,0:0:0:0:
448,192,78488,1,0,0:0:0:0:
192,192,78596,1,0,0:0:0:0:
64,192,78596,1,0,0:0:0:0:
448,192,78704,1,2,0:0:0:0:
320,192,78704,1,0,0:0:0:0:
64,192,78812,1,0,0:0:0:0:
192,192,78921,1,0,0:0:0:0:
320,192,79029,1,0,0:0:0:0:
448,192,79029,1,2,0:0:0:0:
64,192,79137,1,0,0:0:0:0:
192,192,79245,1,0,0:0:0:0:
448,192,79245,1,2,0:0:0:0:
320,192,79353,1,8,0:0:0:0:
64,192,79353,1,2,0:0:0:0:
448,192,79461,1,0,0:0:0:0:
64,192,79569,1,0,0:0:0:0:
192,192,79569,1,0,0:0:0:0:
320,192,79677,1,0,0:0:0:0:
448,192,79677,1,2,0:0:0:0:
64,192,79785,1,0,0:0:0:0:
320,192,79894,1,0,0:0:0:0:
448,192,79894,1,0,0:0:0:0:
64,192,80002,1,2,0:0:0:0:
192,192,80002,1,0,0:0:0:0:
448,192,80110,1,0,0:0:0:0:
320,192,80218,1,0,0:0:0:0:
64,192,80326,1,0,0:0:0:0:
192,192,80326,1,2,0:0:0:0:
320,192,80434,1,0,0:0:0:0:
64,192,80542,1,0,0:0:0:0:
448,192,80542,1,2,0:0:0:0:
320,192,80650,1,8,0:0:0:0:
192,192,80650,1,2,0:0:0:0:
64,192,80758,1,0,0:0:0:0:
320,192,80866,1,0,0:0:0:0:
448,192,80866,1,0,0:0:0:0:
192,192,80975,1,2,0:0:0:0:
64,192,80975,1,0,0:0:0:0:
64,192,81191,1,0,0:0:0:0:
192,192,81299,1,0,0:0:0:0:
448,192,81299,1,2,0:0:0:0:
448,192,81515,1,0,0:0:0:0:
320,192,81515,1,0,0:0:0:0:
192,192,81623,1,0,0:0:0:0:
64,192,81623,1,2,0:0:0:0:
448,192,81839,1,2,0:0:0:0:
320,192,81839,1,0,0:0:0:0:
192,192,81948,1,8,0:0:0:0:
448,192,81948,1,2,0:0:0:0:
64,192,81948,1,0,0:0:0:0:
64,192,82164,1,2,0:0:0:0:
192,192,82164,1,0,0:0:0:0:
320,192,82272,1,0,0:0:0:0:
64,192,82272,1,2,0:0:0:0:
448,192,82272,1,0,0:0:0:0:
448,192,82488,1,0,0:0:0:0:
320,192,82488,1,2,0:0:0:0:
64,192,82596,1,0,0:0:0:0:
192,192,82596,1,2,0:0:0:0:
64,192,82812,1,0,0:0:0:0:
192,192,82812,1,2,0:0:0:0:
448,192,82921,1,0,0:0:0:0:
320,192,82921,1,2,0:0:0:0:
64,192,83137,1,0,0:0:0:0:
192,192,83137,1,2,0:0:0:0:
448,192,83245,1,2,0:0:0:0:
320,192,83245,1,8,0:0:0:0:
320,192,83461,1,2,0:0:0:0:
448,192,83461,1,0,0:0:0:0:
64,192,83569,1,0,0:0:0:0:
192,192,83569,1,2,0:0:0:0:
64,192,83785,1,0,0:0:0:0:
448,192,83785,1,2,0:0:0:0:
320,192,83894,1,2,0:0:0:0:
192,192,83894,1,0,0:0:0:0:
192,192,84110,1,2,0:0:0:0:
320,192,84110,1,0,0:0:0:0:
448,192,84218,1,0,0:0:0:0:
64,192,84218,1,2,0:0:0:0:
64,192,84434,1,0,0:0:0:0:
192,192,84434,1,2,0:0:0:0:
448,192,84542,1,8,0:0:0:0:
320,192,84542,1,2,0:0:0:0:
320,192,84758,1,2,0:0:0:0:
448,192,84758,1,0,0:0:0:0:
64,192,84866,1,0,0:0:0:0:
192,192,84866,1,2,0:0:0:0:
64,192,85083,1,0,0:0:0:0:
192,192,85083,1,2,0:0:0:0:
320,192,85191,1,2,0:0:0:0:
448,192,85191,1,0,0:0:0:0:
192,192,85299,1,2,0:0:0:0:
64,192,85299,1,0,0:0:0:0:
320,192,85407,1,2,0:0:0:0:
448,192,85407,1,0,0:0:0:0:
192,192,85515,1,2,0:0:0:0:
320,192,85515,1,0,0:0:0:0:
448,192,85623,1,2,0:0:0:0:
64,192,85623,1,0,0:0:0:0:
192,192,85731,1,0,0:0:0:0:
320,192,85731,1,2,0:0:0:0:
448,192,85839,1,2,0:0:0:0:
64,192,85839,1,0,0:0:0:0:
192,192,85948,1,2,0:0:0:0:
64,192,85948,1,0,0:0:0:0:
448,192,86056,1,0,0:0:0:0:
320,192,86056,1,2,0:0:0:0:
64,192,86164,1,0,0:0:0:0:
192,192,86164,1,2,0:0:0:0:
320,192,86272,1,2,0:0:0:0:
448,192,86272,1,0,0:0:0:0:
64,192,86380,1,0,0:0:0:0:
192,192,86380,1,2,0:0:0:0:
64,192,86488,1,0,0:0:0:0:
448,192,86488,1,2,0:0:0:0:
320,192,86488,1,8,0:0:0:0:
192,192,86704,1,2,0:0:0:0:
64,192,86704,1,0,0:0:0:0:
320,192,86812,1,2,0:0:0:0:
64,192,86812,1,8,0:0:0:0:
448,192,86812,1,0,0:0:0:0:
320,192,87029,1,0,0:0:0:0:
448,192,87029,1,2,0:0:0:0:
448,192,87137,1,2,0:0:0:0:
192,192,87137,1,0,0:0:0:0:
64,192,87137,1,8,0:0:0:0:
64,192,87353,1,0,0:0:0:0:
192,192,87353,1,2,0:0:0:0:
448,192,87461,1,2,0:0:0:0:
64,192,87461,1,0,0:0:0:0:
320,192,87461,1,8,0:0:0:0:
320,192,87677,1,2,0:0:0:0:
448,192,87677,1,0,0:0:0:0:
64,192,87785,128,0,89083:0:0:0:0:
192,192,87785,128,2,89083:0:0:0:0:
448,192,87785,1,4,0:0:0:0:
320,192,89083,128,0,89191:0:0:0:0:
448,192,89083,128,0,89191:0:0:0:0:
192,192,89299,128,0,89407:0:0:0:0:
320,192,89407,128,0,89515:0:0:0:0:
64,192,89407,128,0,89515:0:0:0:0:
192,192,89623,128,0,89731:0:0:0:0:
448,192,89623,128,0,89731:0:0:0:0:
320,192,89731,128,0,89839:0:0:0:0:
64,192,89731,1,0,0:0:0:0:
192,192,89839,128,0,89948:0:0:0:0:
448,192,89839,1,0,0:0:0:0:
320,192,89948,128,0,90056:0:0:0:0:
64,192,89948,1,0,0:0:0:0:
64,192,90056,1,8,0:0:0:0:
192,192,90056,1,0,0:0:0:0:
448,192,90056,1,0,0:0:0:0:
448,192,90380,1,4,0:0:0:0:
192,192,90380,1,8,0:0:0:0:
320,192,90380,1,2,0:0:0:0:
448,192,90596,1,0,0:0:0:0:
192,192,90704,1,0,0:0:0:0:
64,192,90704,1,2,0:0:0:0:
320,192,90704,1,8,0:0:0:0:
448,192,90812,1,0,0:0:0:0:
64,192,90921,1,0,0:0:0:0:
448,192,91029,1,2,0:0:0:0:
320,192,91029,1,0,0:0:0:0:
192,192,91137,1,0,0:0:0:0:
64,192,91245,1,0,0:0:0:0:
192,192,91353,1,0,0:0:0:0:
448,192,91353,1,2,0:0:0:0:
320,192,91353,1,8,0:0:0:0:
64,192,91461,1,0,0:0:0:0:
448,192,91569,1,0,0:0:0:0:
192,192,91677,1,0,0:0:0:0:
64,192,91677,1,2,0:0:0:0:
448,192,91785,1,0,0:0:0:0:
192,192,91894,1,0,0:0:0:0:
64,192,92002,1,0,0:0:0:0:
320,192,92002,1,2,0:0:0:0:
448,192,92002,1,8,0:0:0:0:
192,192,92110,1,0,0:0:0:0:
448,192,92218,1,0,0:0:0:0:
64,192,92326,1,0,0:0:0:0:
320,192,92326,1,2,0:0:0:0:
192,192,92434,1,0,0:0:0:0:
448,192,92542,1,0,0:0:0:25:bell.wav
64,192,92650,1,8,0:0:0:0:
192,192,92650,1,0,0:0:0:25:bell.wav
448,192,92704,1,0,0:0:0:25:bell.wav
320,192,92758,1,0,0:0:0:25:bell.wav
64,192,92812,1,0,0:0:0:25:bell.wav
192,192,92866,1,0,0:0:0:25:bell.wav
320,192,92921,1,0,0:0:0:25:bell.wav
64,192,92975,1,2,0:0:0:0:
448,192,92975,1,0,0:0:0:0:
192,192,93083,1,0,0:0:0:0:
320,192,93191,1,0,0:0:0:0:
192,192,93299,1,2,0:0:0:0:
64,192,93299,1,0,0:0:0:0:
448,192,93299,1,8,0:0:0:0:
320,192,93407,1,0,0:0:0:0:
448,192,93515,1,0,0:0:0:0:
320,192,93623,1,0,0:0:0:0:
64,192,93623,1,2,0:0:0:0:
192,192,93731,1,0,0:0:0:0:
320,192,93839,1,0,0:0:0:0:
448,192,93948,1,0,0:0:0:0:
192,192,93948,1,2,0:0:0:0:
64,192,93948,1,8,0:0:0:0:
320,192,94056,1,0,0:0:0:0:
192,192,94164,1,0,0:0:0:0:
64,192,94272,1,0,0:0:0:0:
448,192,94272,1,2,0:0:0:0:
320,192,94380,1,0,0:0:0:0:
192,192,94488,1,0,0:0:0:0:
320,192,94596,1,0,0:0:0:0:
64,192,94596,1,2,0:0:0:0:
448,192,94596,1,8,0:0:0:0:
192,192,94704,1,0,0:0:0:0:
64,192,94812,1,0,0:0:0:0:
320,192,94921,1,2,0:0:0:0:
448,192,94921,128,0,95029:0:0:0:0:
64,192,95029,1,0,0:0:0:0:
448,192,95137,128,0,95245:0:0:0:0:
64,192,95245,128,0,95569:0:0:0:0:
192,192,95245,1,2,0:0:0:0:
320,192,95245,1,8,0:0:0:0:
448,192,95353,1,0,0:0:0:0:
320,192,95461,1,0,0:0:0:0:
448,192,95569,1,2,0:0:0:0:
192,192,95569,1,0,0:0:0:0:
320,192,95677,1,0,0:0:0:0:
64,192,95785,1,0,0:0:0:0:
320,192,95894,1,2,0:0:0:0:
448,192,95894,1,8,0:0:0:0:
192,192,95894,1,0,0:0:0:0:
64,192,96002,1,0,0:0:0:0:
448,192,96110,1,0,0:0:0:0:
192,192,96218,1,2,0:0:0:0:
64,192,96218,1,0,0:0:0:0:
320,192,96326,1,0,0:0:0:0:
192,192,96434,1,0,0:0:0:0:
64,192,96542,1,0,0:0:0:0:
320,192,96542,1,2,0:0:0:0:
448,192,96542,1,8,0:0:0:0:
192,192,96650,1,0,0:0:0:0:
448,192,96758,1,0,0:0:0:0:
192,192,96866,1,2,0:0:0:0:
64,192,96866,1,0,0:0:0:0:
448,192,96975,1,0,0:0:0:0:
320,192,97083,1,0,0:0:0:0:
192,192,97191,1,2,0:0:0:0:
64,192,97191,1,8,0:0:0:0:
448,192,97191,1,0,0:0:0:0:
320,192,97299,1,0,0:0:0:0:
192,192,97407,1,0,0:0:0:0:
448,192,97515,1,2,0:0:0:0:
64,192,97515,1,0,0:0:0:0:
320,192,97623,1,0,0:0:0:0:
192,192,97731,1,0,0:0:0:0:
64,192,97731,1,2,0:0:0:0:
448,192,97839,1,8,0:0:0:0:
64,192,97839,1,0,0:0:0:0:
320,192,97839,1,2,0:0:0:0:
192,192,98056,1,0,0:0:0:0:
64,192,98056,1,0,0:0:0:0:
320,192,98164,1,2,0:0:0:0:
448,192,98164,1,0,0:0:0:0:
64,192,98272,1,0,0:0:0:0:
448,192,98380,1,0,0:0:0:0:
192,192,98488,1,8,0:0:0:0:
64,192,98488,128,2,99029:0:0:0:0:
320,192,98596,1,0,0:0:0:0:
448,192,98704,1,0,0:0:0:0:
192,192,98812,128,0,99029:0:0:0:0:
320,192,98812,1,2,0:0:0:0:
320,192,99029,128,0,99137:0:0:0:0:
448,192,99029,128,0,99137:0:0:0:0:
192,192,99137,128,0,99353:0:0:0:0:
64,192,99137,128,8,99353:0:0:0:0:
448,192,99353,1,0,0:0:0:0:
320,192,99353,1,2,0:0:0:0:
192,192,99461,1,2,0:0:0:0:
64,192,99461,1,0,0:0:0:0:
64,192,99677,1,0,0:0:0:0:
192,192,99677,1,2,0:0:0:0:
320,192,99785,1,2,0:0:0:0:
448,192,99785,1,0,0:0:0:0:
320,192,100002,128,0,100758:0:0:0:0:
64,192,100002,128,2,100434:0:0:0:0:
448,192,100434,128,0,100758:0:0:0:0:
192,192,100758,1,0,0:0:0:0:
64,192,100758,128,0,100866:0:0:0:0:
448,192,100866,128,0,100975:0:0:0:0:
320,192,100866,1,0,0:0:0:0:
64,192,100975,128,0,101083:0:0:0:0:
192,192,100975,1,0,0:0:0:0:
320,192,101083,1,8,0:0:0:0:
448,192,101083,1,4,0:0:0:0:
192,192,101083,1,2,0:0:0:0:
64,192,101407,1,2,0:0:0:0:
192,192,101407,1,8,0:0:0:0:
320,192,101407,1,4,0:0:0:0:
192,192,101731,1,2,0:0:0:0:
448,192,101731,1,8,0:0:0:0:
64,192,101731,1,0,0:0:0:0:
320,192,101839,1,0,0:0:0:0:
448,192,101948,1,0,0:0:0:0:
64,192,102056,128,0,102164:0:0:0:0:
320,192,102056,1,2,0:0:0:0:
192,192,102164,1,0,0:0:0:0:
320,192,102272,1,0,0:0:0:0:
192,192,102380,1,2,0:0:0:0:
448,192,102380,1,8,0:0:0:0:
64,192,102380,1,0,0:0:0:0:
320,192,102488,1,0,0:0:0:0:
192,192,102596,1,0,0:0:0:0:
448,192,102704,1,2,0:0:0:0:
64,192,102704,1,0,0:0:0:25:bell.wav
320,192,102812,1,0,0:0:0:0:
192,192,102921,1,0,0:0:0:25:bell.wav
448,192,103029,1,0,0:0:0:25:bell.wav
64,192,103029,1,8,0:0:0:0:
320,192,103083,1,0,0:0:0:25:bell.wav
192,192,103137,1,0,0:0:0:25:bell.wav
64,192,103191,1,0,0:0:0:25:bell.wav
448,192,103245,1,0,0:0:0:25:bell.wav
320,192,103299,1,0,0:0:0:25:bell.wav
192,192,103353,1,0,0:0:0:0:
64,192,103353,1,2,0:0:0:0:
448,192,103461,1,0,0:0:0:0:
64,192,103569,1,0,0:0:0:0:
320,192,103677,1,8,0:0:0:0:
448,192,103677,1,2,0:0:0:0:
192,192,103677,1,0,0:0:0:0:
64,192,103785,1,0,0:0:0:0:
448,192,103894,1,0,0:0:0:0:
192,192,104002,1,0,0:0:0:0:
64,192,104002,1,2,0:0:0:0:
320,192,104110,1,0,0:0:0:0:
192,192,104218,1,0,0:0:0:0:
320,192,104326,1,2,0:0:0:0:
64,192,104326,1,0,0:0:0:0:
448,192,104326,1,8,0:0:0:0:
192,192,104434,1,0,0:0:0:0:
320,192,104542,1,0,0:0:0:0:
64,192,104650,1,2,0:0:0:0:
448,192,104650,1,0,0:0:0:0:
192,192,104758,1,0,0:0:0:0:
320,192,104866,1,0,0:0:0:0:
448,192,104975,1,8,0:0:0:0:
192,192,104975,1,2,0:0:0:0:
64,192,104975,1,0,0:0:0:0:
320,192,105083,1,0,0:0:0:0:
448,192,105191,1,0,0:0:0:0:
64,192,105299,1,2,0:0:0:0:
192,192,105299,1,0,0:0:0:0:
448,192,105407,1,0,0:0:0:0:
320,192,105407,1,0,0:0:0:0:
192,192,105515,1,0,0:0:0:0:
64,192,105515,1,0,0:0:0:0:
320,192,105623,128,2,105948:0:0:0:0:
448,192,105623,128,8,105948:0:0:0:0:
64,192,105623,1,0,0:0:0:0:
192,192,105948,1,2,0:0:0:0:
64,192,105948,128,0,106164:0:0:0:0:
448,192,106164,1,0,0:0:0:0:
192,192,106164,1,0,0:0:0:0:
320,192,106272,1,2,0:0:0:0:
64,192,106272,128,0,106488:0:0:0:0:
192,192,106488,1,0,0:0:0:0:
320,192,106488,1,0,0:0:0:0:
64,192,106596,1,2,0:0:0:0:
448,192,106596,128,0,106812:0:0:0:0:
320,192,106812,1,0,0:0:0:0:
448,192,106921,1,0,0:0:0:0:
192,192,106921,1,2,0:0:0:0:
64,192,107029,1,0,0:0:0:0:
320,192,107137,1,0,0:0:0:0:
192,192,107137,1,0,0:0:0:0:
448,192,107245,1,2,0:0:0:0:
64,192,107245,128,0,107461:0:0:0:0:
192,192,107461,1,0,0:0:0:0:
320,192,107461,1,0,0:0:0:0:
64,192,107569,1,0,0:0:0:0:
448,192,107569,1,2,0:0:0:0:
320,192,107785,1,0,0:0:0:0:
64,192,107894,1,2,0:0:0:0:
448,192,107894,1,0,0:0:0:0:
192,192,108002,1,0,0:0:0:0:
448,192,108110,1,0,0:0:0:0:
320,192,108110,1,0,0:0:0:0:
192,192,108218,1,2,0:0:0:0:
64,192,108218,128,0,108434:0:0:0:0:
192,192,108434,1,0,0:0:0:0:
448,192,108434,1,0,0:0:0:0:
64,192,108542,128,0,108758:0:0:0:0:
320,192,108542,1,2,0:0:0:0:
192,192,108758,1,0,0:0:0:0:
320,192,108866,1,0,0:0:0:0:
448,192,108866,1,0,0:0:0:0:
320,192,109083,1,0,0:0:0:0:
192,192,109083,1,0,0:0:0:0:
448,192,109191,128,0,109353:0:0:0:0:
64,192,109191,1,8,0:0:0:0:
192,192,109191,1,2,0:0:0:0:
64,192,109407,1,0,0:0:0:0:
192,192,109407,1,0,0:0:0:0:
448,192,109515,1,2,0:0:0:0:
320,192,109515,1,0,0:0:0:0:
64,192,109623,1,0,0:0:0:0:
320,192,109731,1,0,0:0:0:0:
448,192,109731,128,0,109948:0:0:0:0:
64,192,110056,1,0,0:0:0:0:
192,192,110056,1,0,0:0:0:0:
448,192,110164,1,0,0:0:0:0:
320,192,110164,1,0,0:0:0:0:
320,192,110380,1,0,0:0:0:0:
64,192,110380,1,0,0:0:0:0:
448,192,110488,1,8,0:0:0:0:
192,192,110488,1,0,0:0:0:0:
192,192,110812,128,0,113083:0:0:0:0:
64,192,111137,128,2,112758:0:0:0:0:
320,192,111137,128,0,113407:0:0:0:0:
448,192,111137,128,4,113731:0:0:0:0:
