osu file format v14

[General]
AudioFilename: O.M. Keleus ft. Hatsune Miku - Oplosan.mp3
AudioLeadIn: 0
PreviewTime: 123257
Countdown: 0
SampleSet: Soft
StackLeniency: 0.7
Mode: 0
LetterboxInBreaks: 0
WidescreenStoryboard: 0

[Editor]
Bookmarks: 63257,83468,140310
DistanceSpacing: 1.3
BeatDivisor: 4
GridSize: 4
TimelineZoom: 1.399999

[Metadata]
Title:Oplosan
TitleUnicode:Oplosan
Artist:O.M. Keleus ft. Hatsune Miku
ArtistUnicode:O.M. Keleus ft. Hatsune Miku
Creator:puxtu
Version:Sulit
Source:
Tags:AncuL Ursa Fort Surono faiz007 guitaruz dangdut koplo bahasa indonesia indonesian indo javanese jawa wong jowo vocaloid Intel007 Mix Susu Stroberi Records nakedupsidedown mabok miras alcohol YKS soimah TransTV
BeatmapID:997522
BeatmapSetID:459502

[Difficulty]
HPDrainRate:5
CircleSize:4
OverallDifficulty:6
ApproachRate:7
SliderMultiplier:1.2
SliderTickRate:1

[Events]
//Background and Video events
0,0,"Miku osu.jpg",0,0
//Break Periods
//Storyboard Layer 0 (Background)
//Storyboard Layer 1 (Fail)
//Storyboard Layer 2 (Pass)
//Storyboard Layer 3 (Foreground)
//Storyboard Sound Samples

[TimingPoints]
100,315.789473684211,4,2,1,85,1,0
2626,-90.9090909090909,4,2,1,85,0,0
25363,-76.9230769230769,4,2,1,85,0,0
26468,-83.3333333333333,4,2,1,85,0,0
27573,-76.9230769230769,4,2,1,85,0,0
27889,-83.3333333333333,4,2,1,85,0,0
30415,-76.9230769230769,4,2,1,85,0,0
32942,-83.3333333333333,4,2,1,85,0,0
45573,-76.9230769230769,4,2,1,85,0,0
48100,-83.3333333333333,4,2,1,85,0,0
50626,-76.9230769230769,4,2,1,85,0,0
53152,-83.3333333333333,4,2,1,85,0,0
85994,-76.9230769230769,4,2,1,85,0,0
87415,-83.3333333333333,4,2,1,85,0,0
88205,-76.9230769230769,4,2,1,85,0,0
88521,-83.3333333333333,4,2,1,85,0,0
91047,-76.9230769230769,4,2,1,85,0,0
93573,-83.3333333333333,4,2,1,85,0,0
106205,-76.9230769230769,4,2,1,85,0,0
107468,-100,4,2,1,85,0,0
108415,-76.9230769230769,4,2,1,85,0,0
108731,-83.3333333333333,4,2,1,85,0,0
111257,-76.9230769230769,4,2,1,85,0,0
113784,-83.3333333333333,4,2,1,85,0,0
123889,-83.3333333333333,4,2,1,85,0,1
126415,-76.9230769230769,4,2,1,85,0,1
127836,-100,4,2,1,85,0,1
128626,-76.9230769230769,4,2,1,85,0,1
128942,-83.3333333333333,4,2,1,85,0,1
143468,-100,4,2,1,85,0,0
144100,-83.3333333333333,4,2,1,85,0,1
146626,-76.9230769230769,4,2,1,85,0,1
148047,-100,4,2,1,85,0,1
148836,-76.9230769230769,4,2,1,85,0,1
149152,-83.3333333333333,4,2,1,85,0,1
164310,-100,4,2,1,85,0,0

[HitObjects]
104,80,1363,6,0,P|132:128|208:144,1,120,0|0,0:0|0:0,0:0:0:0:
272,124,1836,2,0,P|320:112|396:128,1,120,0|0,0:0|0:0,0:0:0:0:
448,184,2310,2,0,P|460:224|456:256,1,60,0|0,0:0|0:0,0:0:0:0:
424,328,2626,6,0,P|388:348|284:336,1,132.00000402832,4|8,0:0|0:0,0:0:0:0:
224,300,3100,2,0,P|188:280|92:292,1,132.00000402832,2|2,0:0|0:0,0:0:0:0:
28,240,3573,2,0,P|20:196|24:148,1,66.0000020141602,8|0,0:0|0:0,0:0:0:0:
40,92,3889,6,0,L|188:100,1,132.00000402832,2|8,0:0|0:0,0:0:0:0:
216,172,4363,1,2,0:0:0:0:
288,216,4521,2,0,L|436:204,1,132.00000402832,0|8,0:0|0:0,0:0:0:0:
436,120,4994,1,0,0:0:0:0:
500,176,5152,6,0,P|508:248|496:320,1,132.00000402832,2|8,0:0|0:0,0:0:0:0:
420,344,5626,1,2,0:0:0:0:
336,328,5784,2,0,P|292:316|196:324,1,132.00000402832,0|8,0:0|0:0,0:0:0:0:
52,248,6415,6,0,P|52:200|80:104,1,132.00000402832,2|8,0:0|0:0,0:0:0:0:
124,52,6889,1,2,0:0:0:0:
208,32,7047,2,0,L|360:48,1,132.00000402832,0|8,0:0|0:0,0:0:0:0:
468,160,7678,6,0,P|412:184|332:192,1,132.00000402832,2|8,0:0|0:0,0:0:0:0:
264,160,8152,1,2,0:0:0:0:
180,180,8310,2,0,P|152:228|136:328,1,132.00000402832,0|8,0:0|0:0,0:0:0:0:
204,356,8784,1,0,0:0:0:0:
288,332,8942,6,0,P|344:304|432:304,1,132.00000402832,2|8,0:0|0:0,0:0:0:0:
476,244,9415,2,0,P|476:196|436:104,1,132.00000402832,2|2,0:0|0:0,0:0:0:0:
380,64,9889,1,8,0:0:0:0:
356,144,10047,1,0,0:0:0:0:
292,84,10205,6,0,P|256:68|148:64,1,132.00000402832,2|8,0:0|0:0,0:0:0:0:
84,88,10678,2,0,P|76:152|88:228,1,132.00000402832,2|2,0:0|0:0,0:0:0:0:
152,272,11152,2,0,P|168:320|160:364,1,66.0000020141602,8|0,0:0|0:0,0:0:0:0:
228,216,11468,6,0,P|288:236|380:240,1,132.00000402832,2|8,0:0|0:0,0:0:0:0:
436,212,11942,1,2,0:0:0:0:
392,136,12100,2,0,P|332:116|240:112,1,132.00000402832,0|8,0:0|0:0,0:0:0:0:
180,136,12573,1,0,0:0:0:0:
116,80,12731,6,0,P|72:64|24:48,1,66.0000020141602,2|0,0:0|0:0,0:0:0:0:
20,136,13047,2,0,P|64:156|112:168,1,66.0000020141602,8|2,0:0|0:0,0:0:0:0:
60,244,13363,2,0,P|128:248|204:232,1,132.00000402832,0|8,0:0|0:0,0:0:0:0:
268,204,13836,1,0,0:0:0:0:
324,136,13994,6,0,P|380:112|468:104,1,132.00000402832,2|8,0:0|0:0,0:0:0:0:
476,184,14468,1,2,0:0:0:0:
452,268,14626,2,0,P|392:268|356:260,1,66.0000020141602,0|2,0:0|0:0,0:0:0:0:
304,292,14942,2,0,P|252:308|224:320,1,66.0000020141602,8|0,0:0|0:0,0:0:0:0:
160,336,15257,6,0,P|140:300|132:184,1,132.00000402832,2|8,0:0|0:0,0:0:0:0:
132,124,15731,1,2,0:0:0:0:
180,52,15889,2,0,L|320:52,1,132.00000402832,0|8,0:0|0:0,0:0:0:0:
324,136,16363,1,0,0:0:0:0:
408,124,16521,6,0,P|420:164|424:204,1,66.0000020141602,2|0,0:0|0:0,0:0:0:0:
400,272,16836,2,0,P|368:312|340:324,1,66.0000020141602,8|2,0:0|0:0,0:0:0:0:
276,292,17152,2,0,P|240:276|208:248,1,66.0000020141602,0|2,0:0|0:0,0:0:0:0:
132,268,17468,2,0,P|124:224|124:180,1,66.0000020141602,8|0,0:0|0:0,0:0:0:0:
44,164,17784,6,0,P|68:116|160:64,1,132.00000402832,2|8,0:0|0:0,0:0:0:0:
204,116,18257,2,0,P|256:120|340:96,1,132.00000402832,2|2,0:0|0:0,0:0:0:0:
408,60,18731,1,8,0:0:0:0:
492,208,19047,6,0,P|448:200|360:220,1,132.00000402832,2|8,0:0|0:0,0:0:0:0:
308,284,19521,2,0,P|284:316|192:344,1,132.00000402832,2|2,0:0|0:0,0:0:0:0:
116,324,19994,1,8,0:0:0:0:
52,164,20310,6,0,L|36:80,2,66.0000020141602,2|0|8,0:0|0:0|0:0,0:0:0:0:
116,220,20784,2,0,P|168:232|208:228,1,66.0000020141602,2|0,0:0|0:0,0:0:0:0:
240,168,21100,1,2,0:0:0:0:
296,104,21257,1,8,0:0:0:0:
380,116,21415,1,0,0:0:0:0:
360,200,21573,6,0,B|332:212|324:236|324:236|340:272|316:300|316:300|268:244|224:276,2,198.000006042481,4|4|4,0:0|0:0|0:0,0:0:0:0:
408,272,22678,1,0,0:0:0:0:
368,348,22836,6,0,P|316:372|248:328,1,132.00000402832,4|8,0:0|0:0,0:0:0:0:
176,300,23310,2,0,P|132:296|88:304,1,66.0000020141602,2|0,0:0|0:0,0:0:0:0:
72,220,23626,2,0,P|44:184|40:152,2,66.0000020141602,2|8|0,0:0|0:0|0:0,0:0:0:0:
132,156,24100,5,2,0:0:0:0:
216,160,24257,1,0,0:0:0:0:
284,212,24415,1,8,0:0:0:0:
348,156,24573,2,0,L|356:76,1,66.0000020141602,2|0,0:0|0:0,0:0:0:0:
268,84,24889,2,0,L|248:12,2,66.0000020141602,2|8|0,0:0|0:0|0:0,0:0:0:0:
224,272,25363,6,0,P|176:284|80:228,3,155.999992858887,4|4|4|2,0:0|0:0|0:0|0:0,0:0:0:0:
44,152,26468,2,0,P|64:96|80:64,1,71.9999978027344,4|0,0:0|0:0,0:0:0:0:
164,76,26784,2,0,L|156:4,2,71.9999978027344,2|2|2,0:0|0:0|0:0,0:0:0:0:
192,164,27257,1,8,0:0:0:0:
184,188,27573,2,0,L|296:164,1,77.9999964294435,8|0,0:0|0:0,0:0:0:0:
304,88,27889,6,0,P|340:124|324:240,1,143.999995605469,6|8,0:0|0:0,0:0:0:0:
172,292,28521,2,0,L|68:288,2,71.9999978027344,0|2|8,0:0|0:0|0:0,0:0:0:0:
104,116,29152,6,0,P|140:80|256:96,1,143.999995605469,2|8,0:0|0:0,0:0:0:0:
280,256,29784,2,0,L|276:360,2,71.9999978027344,0|2|8,0:0|0:0|0:0,0:0:0:0:
420,108,30415,5,6,0:0:0:0:
420,108,30889,1,2,0:0:0:0:
420,108,31047,1,8,0:0:0:0:
420,108,31521,1,2,0:0:0:0:
420,108,31678,6,0,L|244:96,3,155.999992858887,8|8|8|8,0:0|0:0|0:0|0:0,0:0:0:0:
76,80,32942,6,0,P|56:140|68:224,1,143.999995605469,6|8,0:0|0:0,0:0:0:0:
132,288,33415,2,0,L|292:268,1,143.999995605469,2|2,0:0|0:0,0:0:0:0:
364,240,33889,2,0,P|396:268|412:316,1,71.9999978027344,8|0,0:0|0:0,0:0:0:0:
488,344,34205,6,0,P|500:288|464:184,1,143.999995605469,2|8,0:0|0:0,0:0:0:0:
408,144,34678,2,0,P|360:140|280:88,1,143.999995605469,2|2,0:0|0:0,0:0:0:0:
204,36,35152,2,0,P|148:36|124:48,1,71.9999978027344,8|0,0:0|0:0,0:0:0:0:
60,100,35468,6,0,L|84:256,1,143.999995605469,2|8,0:0|0:0,0:0:0:0:
236,352,36100,2,0,L|248:180,1,143.999995605469,0|8,0:0|0:0,0:0:0:0:
344,48,36731,5,2,0:0:0:0:
432,212,37047,1,8,0:0:0:0:
484,32,37363,1,0,0:0:0:0:
336,144,37678,1,8,0:0:0:0:
424,312,37994,6,0,P|312:336|272:336,1,143.999995605469,2|8,0:0|0:0,0:0:0:0:
196,300,38468,1,2,0:0:0:0:
108,328,38626,1,0,0:0:0:0:
64,144,38942,1,8,0:0:0:0:
208,28,39257,6,0,P|216:100|208:188,2,143.999995605469,2|8|0,0:0|0:0|0:0,0:0:0:0:
304,32,40047,1,2,0:0:0:0:
372,96,40205,2,0,P|352:140|336:164,1,71.9999978027344,8|0,0:0|0:0,0:0:0:0:
404,228,40521,6,0,P|344:264|244:280,1,143.999995605469,2|8,0:0|0:0,0:0:0:0:
184,256,40994,2,0,P|148:244|92:236,1,71.9999978027344,2|0,0:0|0:0,0:0:0:0:
112,144,41310,2,0,P|76:116|60:88,2,71.9999978027344,2|8|0,0:0|0:0|0:0,0:0:0:0:
204,164,41784,6,0,L|428:124,2,215.999993408203,4|4|4,0:0|0:0|0:0,0:0:0:0:
32,240,43047,6,0,P|36:304|96:364,1,143.999995605469,4|8,0:0|0:0,0:0:0:0:
184,360,43521,2,0,P|220:332|320:316,1,143.999995605469,2|2,0:0|0:0,0:0:0:0:
408,328,43994,2,0,P|440:308|464:264,1,71.9999978027344,8|0,0:0|0:0,0:0:0:0:
484,188,44310,6,0,P|480:152|428:44,1,143.999995605469,2|8,0:0|0:0,0:0:0:0:
344,36,44784,2,0,P|292:52|224:136,1,143.999995605469,2|2,0:0|0:0,0:0:0:0:
212,208,45257,2,0,L|232:292,1,71.9999978027344,8|0,0:0|0:0,0:0:0:0:
292,192,45573,6,0,L|124:224,3,155.999992858887,4|4|4|2,0:0|0:0|0:0|0:0,0:0:0:0:
56,164,46678,1,4,0:0:0:0:
56,164,46994,2,0,L|36:72,2,77.9999964294435,2|2|2,0:0|0:0|0:0,0:0:0:0:
40,264,47468,1,8,0:0:0:0:
40,264,47784,2,0,P|76:300|136:320,1,77.9999964294435,8|0,0:0|0:0,0:0:0:0:
192,324,48100,6,0,L|360:280,1,143.999995605469,6|8,0:0|0:0,0:0:0:0:
416,328,48573,2,0,P|432:272|444:172,1,143.999995605469,2|2,0:0|0:0,0:0:0:0:
412,100,49047,1,8,0:0:0:0:
232,44,49363,6,0,P|208:88|200:196,1,143.999995605469,2|8,0:0|0:0,0:0:0:0:
260,248,49836,1,2,0:0:0:0:
260,248,50152,1,2,0:0:0:0:
224,332,50310,2,0,P|180:348|136:348,1,71.9999978027344,8|0,0:0|0:0,0:0:0:0:
56,328,50626,5,6,0:0:0:0:
56,328,51100,1,2,0:0:0:0:
56,328,51257,1,8,0:0:0:0:
56,328,51731,1,2,0:0:0:0:
56,328,51889,6,0,P|60:276|140:180,1,155.999992858887,8|8,0:0|0:0,0:0:0:0:
117,192,52521,2,0,P|148:164|196:48,1,155.999992858887,8|8,0:0|0:0,0:0:0:0:
194,61,53152,6,0,P|220:100|320:132,1,143.999995605469,6|8,0:0|0:0,0:0:0:0:
400,116,53626,2,0,P|440:136|472:184,1,71.9999978027344,2|0,0:0|0:0,0:0:0:0:
452,248,53942,2,0,L|460:324,2,71.9999978027344,2|8|0,0:0|0:0|0:0,0:0:0:0:
364,216,54415,6,0,L|380:364,1,143.999995605469,2|8,0:0|0:0,0:0:0:0:
292,324,54889,2,0,P|240:340|208:336,1,71.9999978027344,2|0,0:0|0:0,0:0:0:0:
144,288,55205,2,0,P|120:244|112:192,2,71.9999978027344,2|8|0,0:0|0:0|0:0,0:0:0:0:
204,216,55678,6,0,P|212:172|212:56,2,143.999995605469,2|8|0,0:0|0:0|0:0,0:0:0:0:
296,228,56468,1,2,0:0:0:0:
328,140,56626,2,0,L|420:116,1,71.9999978027344,8|0,0:0|0:0,0:0:0:0:
480,164,56942,6,0,P|480:216|456:316,1,143.999995605469,2|8,0:0|0:0,0:0:0:0:
276,332,57573,2,0,L|116:316,1,143.999995605469,0|8,0:0|0:0,0:0:0:0:
184,240,58047,1,0,0:0:0:0:
132,317,58205,6,0,P|104:280|84:160,1,143.999995605469,2|8,0:0|0:0,0:0:0:0:
168,156,58678,1,2,0:0:0:0:
81,186,58836,2,0,P|92:128|152:52,1,143.999995605469,0|8,0:0|0:0,0:0:0:0:
52,36,59310,1,0,0:0:0:0:
141,60,59468,6,0,L|304:72,1,143.999995605469,2|8,0:0|0:0,0:0:0:0:
380,64,59942,2,0,L|428:236,1,143.999995605469,2|2,0:0|0:0,0:0:0:0:
468,284,60415,2,0,L|440:364,1,71.9999978027344,8|0,0:0|0:0,0:0:0:0:
356,320,60731,6,0,L|196:312,1,143.999995605469,2|8,0:0|0:0,0:0:0:0:
120,336,61205,1,2,0:0:0:0:
120,336,61521,1,2,0:0:0:0:
56,268,61678,2,0,P|48:224|48:172,1,71.9999978027344,8|0,0:0|0:0,0:0:0:0:
56,104,61994,6,0,P|84:76|208:64,1,143.999995605469,4|2,0:0|0:0,0:0:0:0:
264,104,62468,2,0,P|308:112|416:96,1,143.999995605469,4|2,0:0|0:0,0:0:0:0:
492,140,62942,2,0,P|492:184|488:224,1,71.9999978027344,4|0,0:0|0:0,0:0:0:0:
444,292,63257,6,0,P|400:328|184:264,2,287.999991210938,4|0|2,0:0|0:0|0:0,0:0:0:0:
372,120,64836,1,8,0:0:0:0:
188,160,65152,1,0,0:0:0:0:
364,220,65468,1,8,0:0:0:0:
492,84,65784,2,0,P|444:36|364:20,1,143.999995605469,2|8,0:0|0:0,0:0:0:0:
192,68,66415,6,0,P|136:80|48:64,2,143.999995605469,0|8|2,0:0|0:0|0:0,0:0:0:0:
368,128,67363,1,8,0:0:0:0:
428,200,67521,1,2,0:0:0:0:
392,288,67678,2,0,P|348:308|232:312,1,143.999995605469,0|8,0:0|0:0,0:0:0:0:
68,348,68310,6,0,P|56:288|76:48,2,287.999991210938,2|0|2,0:0|0:0|0:0,0:0:0:0:
212,228,69889,1,8,0:0:0:0:
360,340,70205,1,0,0:0:0:0:
408,160,70521,1,8,0:0:0:0:
276,292,70836,5,2,0:0:0:0:
452,232,71152,1,8,0:0:0:0:
296,128,71468,2,0,L|144:112,1,143.999995605469,0|8,0:0|0:0,0:0:0:0:
100,292,72100,2,0,L|243:276,2,143.999995605469,2|8|0,0:0|0:0|0:0,0:0:0:0:
28,120,73047,1,8,0:0:0:0:
184,20,73363,6,0,L|484:56,1,287.999991210938,2|0,0:0|0:0,0:0:0:0:
468,240,74310,1,8,0:0:0:0:
308,336,74626,6,0,L|292:176,1,143.999995605469,2|8,0:0|0:0,0:0:0:0:
124,268,75257,2,0,L|148:112,1,143.999995605469,0|8,0:0|0:0,0:0:0:0:
324,64,75889,6,0,P|380:104|428:200,1,143.999995605469,2|8,0:0|0:0,0:0:0:0:
344,340,76521,2,0,P|296:352|184:340,2,143.999995605469,0|8|2,0:0|0:0|0:0,0:0:0:0:
196,228,77468,2,0,P|267:219|337:233,2,143.999995605469,8|0|8,0:0|0:0|0:0,0:0:0:0:
104,232,78257,1,0,0:0:0:0:
36,164,78415,6,0,P|216:112|340:136,1,287.999991210938,2|0,0:0|0:0,0:0:0:0:
472,228,79363,1,8,0:0:0:0:
328,348,79678,2,0,P|252:364|172:360,1,143.999995605469,2|8,0:0|0:0,0:0:0:0:
92,376,80152,2,0,P|76:328|8:252,1,143.999995605469,2|2,0:0|0:0,0:0:0:0:
72,184,80626,2,0,P|60:132|56:80,1,71.9999978027344,8|0,0:0|0:0,0:0:0:0:
124,48,80942,6,0,L|216:40,1,71.9999978027344,2|0,0:0|0:0,0:0:0:0:
252,116,81257,1,8,0:0:0:0:
336,76,81415,2,0,L|492:64,1,143.999995605469,2|2,0:0|0:0,0:0:0:0:
464,160,81889,1,8,0:0:0:0:
384,328,82205,6,0,L|152:304,2,215.999993408203,4|4|4,0:0|0:0|0:0,0:0:0:0:
388,236,83310,1,0,0:0:0:0:
316,176,83468,6,0,P|244:200|156:204,1,143.999995605469,4|8,0:0|0:0,0:0:0:0:
84,208,83942,2,0,P|56:152|44:64,1,143.999995605469,2|2,0:0|0:0,0:0:0:0:
128,36,84415,2,0,P|196:32|232:44,1,71.9999978027344,8|0,0:0|0:0,0:0:0:0:
284,76,84731,6,0,P|348:92|444:80,1,143.999995605469,2|8,0:0|0:0,0:0:0:0:
492,152,85205,1,2,0:0:0:0:
492,152,85521,1,2,0:0:0:0:
452,236,85678,2,0,P|432:268|412:316,1,71.9999978027344,8|0,0:0|0:0,0:0:0:0:
300,208,85994,6,0,P|252:232|132:236,3,155.999992858887,4|4|4|2,0:0|0:0|0:0|0:0,0:0:0:0:
56,200,87100,1,4,0:0:0:0:
56,200,87415,2,0,P|48:156|48:96,2,71.9999978027344,2|2|2,0:0|0:0|0:0,0:0:0:0:
20,288,87889,1,8,0:0:0:0:
20,288,88205,2,0,P|68:308|100:332,1,77.9999964294435,8|0,0:0|0:0,0:0:0:0:
180,296,88521,6,0,P|224:320|336:312,1,143.999995605469,6|8,0:0|0:0,0:0:0:0:
380,252,88994,2,0,P|392:200|372:104,1,143.999995605469,2|2,0:0|0:0,0:0:0:0:
312,40,89468,1,8,0:0:0:0:
136,96,89784,6,0,P|112:140|120:252,1,143.999995605469,2|8,0:0|0:0,0:0:0:0:
180,296,90257,2,0,P|232:308|328:288,1,143.999995605469,2|2,0:0|0:0,0:0:0:0:
392,228,90731,1,8,0:0:0:0:
220,68,91047,5,6,0:0:0:0:
220,68,91521,1,2,0:0:0:0:
220,68,91678,1,8,0:0:0:0:
220,68,92152,1,2,0:0:0:0:
220,68,92310,6,0,L|64:88,2,155.999992858887,8|8|8,0:0|0:0|0:0,0:0:0:0:
336,88,93100,1,2,0:0:0:0:
452,108,93257,1,8,0:0:0:0:
452,108,93573,6,0,P|444:168|448:268,1,143.999995605469,6|8,0:0|0:0,0:0:0:0:
384,324,94047,2,0,P|352:344|232:348,1,143.999995605469,2|2,0:0|0:0,0:0:0:0:
176,292,94521,2,0,P|132:272|80:268,1,71.9999978027344,8|0,0:0|0:0,0:0:0:0:
144,180,94836,6,0,P|104:148|56:48,1,143.999995605469,2|8,0:0|0:0,0:0:0:0:
144,20,95310,1,2,0:0:0:0:
236,28,95468,2,0,P|264:88|268:188,1,143.999995605469,0|8,0:0|0:0,0:0:0:0:
280,260,95942,1,0,0:0:0:0:
372,244,96100,6,0,P|396:192|404:72,2,143.999995605469,2|8|0,0:0|0:0|0:0,0:0:0:0:
452,292,96889,1,2,0:0:0:0:
368,336,97047,1,8,0:0:0:0:
368,336,97363,6,0,B|324:352|284:348|284:348|228:336|200:344,1,143.999995605469,2|8,0:0|0:0,0:0:0:0:
136,316,97836,1,2,0:0:0:0:
80,240,97994,2,0,P|72:196|88:84,1,143.999995605469,0|8,0:0|0:0,0:0:0:0:
256,24,98626,6,0,P|280:92|284:188,1,143.999995605469,2|8,0:0|0:0,0:0:0:0:
260,252,99100,2,0,P|280:288|392:296,1,143.999995605469,2|2,0:0|0:0,0:0:0:0:
436,236,99573,1,8,0:0:0:0:
388,56,99889,2,0,L|220:76,1,143.999995605469,2|8,0:0|0:0,0:0:0:0:
180,140,100363,2,0,L|20:132,1,143.999995605469,2|2,0:0|0:0,0:0:0:0:
68,220,100836,1,8,0:0:0:0:
192,360,101152,6,0,P|196:308|264:224,1,143.999995605469,2|8,0:0|0:0,0:0:0:0:
336,200,101626,2,0,P|344:140|304:52,1,143.999995605469,2|2,0:0|0:0,0:0:0:0:
220,48,102100,2,0,P|164:40|136:40,1,71.9999978027344,8|0,0:0|0:0,0:0:0:0:
260,136,102415,6,0,L|488:116,2,215.999993408203,4|4|4,0:0|0:0|0:0,0:0:0:0:
180,188,103521,1,0,0:0:0:0:
100,240,103678,6,0,P|136:272|240:256,1,143.999995605469,4|8,0:0|0:0,0:0:0:0:
316,240,104152,2,0,L|472:248,1,143.999995605469,2|2,0:0|0:0,0:0:0:0:
428,160,104626,1,8,0:0:0:0:
404,68,104784,1,0,0:0:0:0:
320,24,104942,6,0,P|276:44|192:108,1,143.999995605469,2|8,0:0|0:0,0:0:0:0:
108,76,105415,2,0,P|108:136|120:232,1,143.999995605469,2|2,0:0|0:0,0:0:0:0:
156,304,105889,1,8,0:0:0:0:
388,340,106205,6,0,P|404:280|396:172,3,155.999992858887,4|4|4|2,0:0|0:0|0:0|0:0,0:0:0:0:
344,104,107310,1,4,0:0:0:0:
344,104,107626,2,0,P|364:64|372:24,2,60,2|2|2,0:0|0:0|0:0,0:0:0:0:
276,140,108100,1,8,0:0:0:0:
276,140,108415,6,0,L|172:140,1,77.9999964294435,8|0,0:0|0:0,0:0:0:0:
108,108,108731,6,0,P|100:156|184:236,1,143.999995605469,6|8,0:0|0:0,0:0:0:0:
204,308,109205,2,0,L|356:272,1,143.999995605469,2|2,0:0|0:0,0:0:0:0:
432,308,109678,1,8,0:0:0:0:
500,132,109994,6,0,L|324:104,1,143.999995605469,2|8,0:0|0:0,0:0:0:0:
268,76,110468,1,2,0:0:0:0:
188,44,110626,2,0,L|36:80,1,143.999995605469,0|8,0:0|0:0,0:0:0:0:
36,280,111257,5,6,0:0:0:0:
36,280,111731,1,2,0:0:0:0:
36,280,111889,1,8,0:0:0:0:
36,280,112363,1,2,0:0:0:0:
36,280,112521,6,0,L|196:268,1,155.999992858887,8|8,0:0|0:0,0:0:0:0:
191,268,113152,2,0,L|360:292,1,155.999992858887,8|8,0:0|0:0,0:0:0:0:
345,289,113784,6,0,P|380:256|416:144,1,143.999995605469,6|8,0:0|0:0,0:0:0:0:
376,84,114257,2,0,P|348:56|240:36,1,143.999995605469,2|2,0:0|0:0,0:0:0:0:
160,68,114731,2,0,P|140:120|136:168,1,71.9999978027344,8|0,0:0|0:0,0:0:0:0:
44,116,115047,6,0,P|44:160|132:232,1,143.999995605469,2|8,0:0|0:0,0:0:0:0:
144,316,115521,1,2,0:0:0:0:
212,252,115678,2,0,P|248:224|364:212,1,143.999995605469,0|8,0:0|0:0,0:0:0:0:
428,248,116152,1,0,0:0:0:0:
488,176,116310,6,0,L|500:16,2,143.999995605469,2|8|0,0:0|0:0|0:0,0:0:0:0:
428,248,117100,1,2,0:0:0:0:
384,168,117257,2,0,L|352:76,1,71.9999978027344,8|0,0:0|0:0,0:0:0:0:
412,20,117573,6,0,P|372:64|272:72,1,143.999995605469,2|8,0:0|0:0,0:0:0:0:
200,56,118047,2,0,P|144:56|44:116,1,143.999995605469,2|2,0:0|0:0,0:0:0:0:
28,180,118521,2,0,P|24:232|32:272,1,71.9999978027344,8|0,0:0|0:0,0:0:0:0:
112,292,118836,6,0,P|88:328|36:356,2,71.9999978027344,2|0|8,0:0|0:0|0:0,0:0:0:0:
132,200,119310,1,2,0:0:0:0:
220,172,119468,2,0,P|268:168|320:184,1,71.9999978027344,0|2,0:0|0:0,0:0:0:0:
332,256,119784,2,0,P|380:264|424:256,1,71.9999978027344,8|0,0:0|0:0,0:0:0:0:
472,196,120100,6,0,P|476:152|424:40,1,143.999995605469,2|8,0:0|0:0,0:0:0:0:
256,40,120731,2,0,L|100:64,1,143.999995605469,0|8,0:0|0:0,0:0:0:0:
24,228,121363,2,0,P|60:280|148:332,2,143.999995605469,2|8|0,0:0|0:0|0:0,0:0:0:0:
52,140,122152,1,2,0:0:0:0:
52,140,122310,1,8,0:0:0:0:
212,236,122626,6,0,P|228:196|228:8,2,215.999993408203,4|4|4,0:0|0:0|0:0,0:0:0:0:
292,284,123731,1,0,0:0:0:0:
212,332,123889,6,0,P|156:344|56:332,2,143.999995605469,4|0|8,0:0|0:0|0:0,0:0:0:0:
360,216,124836,1,8,0:0:0:0:
360,216,125152,6,0,P|356:164|328:52,1,143.999995605469,4|0,0:0|0:0,0:0:0:0:
252,32,125626,1,2,0:0:0:0:
160,48,125784,2,0,P|120:112|88:208,1,143.999995605469,8|8,0:0|0:0,0:0:0:0:
184,212,126257,1,0,0:0:0:0:
148,308,126415,5,8,0:0:0:0:
148,308,126731,1,8,0:0:0:0:
148,308,127047,2,0,P|196:328|304:300,1,155.999992858887,8|2,0:0|0:0,0:0:0:0:
396,316,127521,2,0,L|384:220,1,77.9999964294435,4|0,0:0|0:0,0:0:0:0:
352,168,127836,2,0,L|368:92,2,60,2|2|2,0:0|0:0|0:0,0:0:0:0:
276,192,128310,1,2,0:0:0:0:
104,84,128626,2,0,P|148:52|184:36,1,77.9999964294435,8|0,0:0|0:0,0:0:0:0:
88,172,128942,6,0,P|80:224|84:336,1,143.999995605469,4|8,0:0|0:0,0:0:0:0:
172,344,129415,1,2,0:0:0:0:
232,272,129573,2,0,L|380:276,1,143.999995605469,0|8,0:0|0:0,0:0:0:0:
392,88,130205,6,0,L|244:84,1,143.999995605469,2|8,0:0|0:0,0:0:0:0:
192,160,130678,1,2,0:0:0:0:
112,112,130836,2,0,P|88:64|72:24,2,71.9999978027344,0|2|8,0:0|0:0|0:0,0:0:0:0:
84,200,131310,1,0,0:0:0:0:
164,244,131468,6,0,L|148:328,2,71.9999978027344,8|8|8,0:0|0:0|0:0,0:0:0:0:
260,84,132100,2,0,L|248:8,2,71.9999978027344,8|0|8,0:0|0:0|0:0,0:0:0:0:
292,268,132731,6,0,L|276:352,2,71.9999978027344,8|8|8,0:0|0:0|0:0,0:0:0:0:
388,108,133363,2,0,L|376:32,2,71.9999978027344,8|8|8,0:0|0:0|0:0,0:0:0:0:
224,196,133994,6,0,P|264:172|368:212,1,143.999995605469,2|8,0:0|0:0,0:0:0:0:
356,288,134468,2,0,P|316:312|212:272,1,143.999995605469,2|2,0:0|0:0,0:0:0:0:
140,256,134942,2,0,P|112:224|76:212,1,71.9999978027344,8|0,0:0|0:0,0:0:0:0:
44,128,135257,6,0,L|192:80,1,143.999995605469,2|8,0:0|0:0,0:0:0:0:
368,96,135889,2,0,P|380:56|388:0,2,71.9999978027344,0|2|8,0:0|0:0|0:0,0:0:0:0:
440,156,136363,1,0,0:0:0:0:
460,248,136521,6,0,P|420:228|308:248,1,143.999995605469,2|8,0:0|0:0,0:0:0:0:
260,304,136994,2,0,P|224:324|112:324,1,143.999995605469,2|2,0:0|0:0,0:0:0:0:
36,296,137468,1,8,0:0:0:0:
52,108,137784,6,0,P|100:88|208:88,1,143.999995605469,2|8,0:0|0:0,0:0:0:0:
276,124,138257,2,0,P|304:100|328:56,2,71.9999978027344,2|0|2,0:0|0:0|0:0,0:0:0:0:
204,188,138731,1,8,0:0:0:0:
328,328,139047,6,0,P|344:280|440:220,1,143.999995605469,2|8,0:0|0:0,0:0:0:0:
472,148,139521,1,2,0:0:0:0:
452,56,139678,2,0,L|296:36,1,143.999995605469,0|8,0:0|0:0,0:0:0:0:
256,192,140310,12,2,141573,0:0:0:0:
216,240,141889,6,0,P|192:196|100:152,2,143.999995605469,8|0|8,0:0|0:0|0:0,0:0:0:0:
216,240,142836,2,0,P|116:260|20:356,2,215.999993408203,2|2|8,0:0|0:0|0:0,0:0:0:0:
216,240,144100,6,0,P|256:264|360:264,1,143.999995605469,4|0,0:0|0:0,0:0:0:0:
404,192,144573,1,2,0:0:0:0:
364,108,144731,2,0,P|324:104|216:136,1,143.999995605469,8|8,0:0|0:0,0:0:0:0:
56,52,145363,6,0,P|44:104|44:208,1,143.999995605469,6|0,0:0|0:0,0:0:0:0:
84,276,145836,1,2,0:0:0:0:
148,344,145994,2,0,L|312:328,1,143.999995605469,8|8,0:0|0:0,0:0:0:0:
240,148,146626,6,0,L|404:160,3,155.999992858887,8|8|8|8,0:0|0:0|0:0|0:0,0:0:0:0:
488,172,147731,1,4,0:0:0:0:
384,272,148047,2,0,L|392:344,2,60,2|2|2,0:0|0:0|0:0,0:0:0:0:
312,256,148521,1,2,0:0:0:0:
312,256,148836,2,0,L|204:240,1,77.9999964294435,4|0,0:0|0:0,0:0:0:0:
176,308,149152,6,0,L|16:284,1,143.999995605469,4|8,0:0|0:0,0:0:0:0:
80,212,149626,2,0,L|56:68,1,143.999995605469,2|2,0:0|0:0,0:0:0:0:
144,68,150100,2,0,L|216:56,1,71.9999978027344,8|0,0:0|0:0,0:0:0:0:
252,136,150415,6,0,L|404:104,1,143.999995605469,2|8,0:0|0:0,0:0:0:0:
476,128,150889,1,2,0:0:0:0:
468,216,151047,2,0,L|452:364,1,143.999995605469,0|8,0:0|0:0,0:0:0:0:
312,260,151678,6,0,L|384:236,2,71.9999978027344,4|4|4,0:0|0:0|0:0,0:0:0:0:
152,192,152310,2,0,L|80:216,2,71.9999978027344,4|4|4,0:0|0:0|0:0,0:0:0:0:
316,136,152942,6,0,L|388:112,2,71.9999978027344,4|4|4,0:0|0:0|0:0,0:0:0:0:
156,68,153574,2,0,L|84:92,2,71.9999978027344,4|4|4,0:0|0:0|0:0,0:0:0:0:
220,128,154047,1,0,0:0:0:0:
236,212,154205,6,0,B|224:256|188:276|188:276|176:324|184:360,1,143.999995605469,6|8,0:0|0:0,0:0:0:0:
268,328,154678,1,2,0:0:0:0:
352,344,154836,2,0,P|352:308|324:264,1,71.9999978027344,0|2,0:0|0:0,0:0:0:0:
352,192,155152,2,0,P|336:160|320:116,1,71.9999978027344,8|0,0:0|0:0,0:0:0:0:
288,48,155468,6,0,L|444:32,2,143.999995605469,2|8|0,0:0|0:0|0:0,0:0:0:0:
224,104,156257,1,2,0:0:0:0:
152,56,156415,2,0,L|60:36,1,71.9999978027344,8|0,0:0|0:0,0:0:0:0:
16,96,156731,6,0,P|8:148|20:256,1,143.999995605469,2|8,0:0|0:0,0:0:0:0:
24,324,157205,2,0,P|76:320|180:296,1,143.999995605469,2|2,0:0|0:0,0:0:0:0:
252,320,157678,2,0,P|256:264|248:224,1,71.9999978027344,10|0,0:0|0:0,0:0:0:0:
304,180,157994,6,0,P|304:120|324:16,1,143.999995605469,2|8,0:0|0:0,0:0:0:0:
404,28,158468,1,2,0:0:0:0:
444,104,158626,2,0,P|440:152|416:256,1,143.999995605469,0|10,0:0|0:0,0:0:0:0:
248,240,159257,6,0,L|76:228,1,143.999995605469,2|8,0:0|0:0,0:0:0:0:
52,160,159731,2,0,P|36:124|32:88,2,71.9999978027344,2|0|2,0:0|0:0|0:0,0:0:0:0:
116,100,160205,2,0,P|128:60|148:28,1,71.9999978027344,8|0,0:0|0:0,0:0:0:0:
204,96,160521,6,0,P|236:72|344:64,1,143.999995605469,2|8,0:0|0:0,0:0:0:0:
404,116,160994,1,2,0:0:0:0:
448,192,161152,2,0,L|440:276,2,71.9999978027344,0|2|8,0:0|0:0|0:0,0:0:0:0:
336,324,161784,6,0,L|316:168,1,143.999995605469,6|8,0:0|0:0,0:0:0:0:
236,208,162257,2,0,L|236:116,2,71.9999978027344,2|0|2,0:0|0:0|0:0,0:0:0:0:
180,276,162731,2,0,P|136:308|104:320,1,71.9999978027344,8|0,0:0|0:0,0:0:0:0:
100,232,163047,6,0,P|68:228|24:64,2,215.999993408203,6|6|12,0:0|0:0|0:0,0:0:0:0:
180,112,164310,1,4,0:0:0:0:
