osu file format v14

[General]
AudioFilename: O.M. Keleus ft. Hatsune Miku - Oplosan.mp3
AudioLeadIn: 0
PreviewTime: 123257
Countdown: 0
SampleSet: None
StackLeniency: 1
Mode: 2
LetterboxInBreaks: 0
WidescreenStoryboard: 1

[Editor]
Bookmarks: 63257
DistanceSpacing: 0.8
BeatDivisor: 2
GridSize: 8
TimelineZoom: 1.9

[Metadata]
Title:Oplosan
TitleUnicode:Oplosan
Artist:O.M. Keleus ft. Hatsune Miku
ArtistUnicode:O.M. Keleus ft. Hatsune Miku
Creator:puxtu
Version:Rain
Source:
Tags:AncuL Ursa Fort Surono faiz007 guitaruz dangdut koplo bahasa indonesia indonesian indo javanese jawa wong jowo vocaloid Intel007 Mix Susu Stroberi Records nakedupsidedown mabok miras alcohol YKS soimah TransTV
BeatmapID:1002766
BeatmapSetID:459502

[Difficulty]
HPDrainRate:7
CircleSize:4
OverallDifficulty:9
ApproachRate:9
SliderMultiplier:1.8
SliderTickRate:1

[Events]
//Background and Video events
0,0,"Miku osu.jpg",0,0
//Break Periods
//Storyboard Layer 0 (Background)
//Storyboard Layer 1 (Fail)
//Storyboard Layer 2 (Pass)
//Storyboard Layer 3 (Foreground)
//Storyboard Sound Samples

[TimingPoints]
100,315.789473684211,4,2,1,50,1,0
123889,-100,4,2,1,50,0,1
143468,-100,4,2,1,50,0,0
144100,-100,4,2,1,50,0,1
164310,-100,4,2,1,50,0,0

[Colours]
Combo1 : 0,0,255
Combo2 : 255,0,0

[HitObjects]
192,304,100,6,0,P|120:288|88:144,1,180
256,184,731,1,0,0:0:0:0:
360,136,1047,1,0,0:0:0:0:
48,96,1363,1,0,0:0:0:0:
128,56,1521,1,0,0:0:0:0:
216,56,1678,1,0,0:0:0:0:
448,96,1836,1,0,0:0:0:0:
392,160,1994,1,0,0:0:0:0:
288,176,2152,1,0,0:0:0:0:
48,192,2310,1,0,0:0:0:0:
88,256,2468,1,0,0:0:0:0:
408,304,2626,5,0,0:0:0:0:
224,264,2784,1,0,0:0:0:0:
352,240,2942,1,0,0:0:0:0:
296,160,3100,1,0,0:0:0:0:
384,128,3257,1,0,0:0:0:0:
136,48,3415,1,0,0:0:0:0:
208,88,3573,1,0,0:0:0:0:
136,136,3731,1,0,0:0:0:0:
240,120,3889,5,0,0:0:0:0:
304,176,4047,1,0,0:0:0:0:
216,200,4205,1,0,0:0:0:0:
120,232,4363,1,0,0:0:0:0:
48,304,4521,1,0,0:0:0:0:
264,336,4678,1,0,0:0:0:0:
192,296,4836,1,0,0:0:0:0:
264,248,4994,1,0,0:0:0:0:
160,208,5152,5,0,0:0:0:0:
96,144,5310,1,0,0:0:0:0:
192,128,5468,1,0,0:0:0:0:
296,88,5626,1,0,0:0:0:0:
384,48,5784,1,0,0:0:0:0:
240,128,5942,5,0,0:0:0:0:
312,168,6100,1,0,0:0:0:0:
240,216,6258,1,0,0:0:0:0:
368,240,6415,5,0,0:0:0:0:
424,288,6573,1,0,0:0:0:0:
152,248,6731,1,0,0:0:0:0:
80,296,6889,1,0,0:0:0:0:
296,280,7047,5,0,0:0:0:0:
328,224,7205,1,0,0:0:0:0:
232,176,7363,1,0,0:0:0:0:
144,112,7521,1,0,0:0:0:0:
432,48,7678,5,0,0:0:0:0:
488,104,7836,1,0,0:0:0:0:
344,160,7994,1,0,0:0:0:0:
416,208,8152,1,0,0:0:0:0:
352,272,8310,1,0,0:0:0:0:
96,288,8468,1,0,0:0:0:0:
48,216,8626,1,0,0:0:0:0:
120,144,8784,1,0,0:0:0:0:
384,56,8942,5,0,0:0:0:0:
464,104,9100,1,0,0:0:0:0:
288,120,9257,1,0,0:0:0:0:
400,168,9415,1,0,0:0:0:0:
448,240,9573,1,0,0:0:0:0:
168,328,9731,5,0,0:0:0:0:
256,272,9889,1,0,0:0:0:0:
176,224,10047,1,0,0:0:0:0:
304,216,10205,5,0,0:0:0:0:
232,176,10363,1,0,0:0:0:0:
144,144,10521,1,0,0:0:0:0:
88,80,10678,1,0,0:0:0:0:
184,56,10836,1,0,0:0:0:0:
392,48,10994,5,0,0:0:0:0:
312,104,11152,1,0,0:0:0:0:
416,144,11310,1,0,0:0:0:0:
272,208,11468,6,0,L|144:256,1,90
320,272,11784,2,0,L|400:336,1,90
128,208,12100,2,0,L|240:176,1,90
456,272,12415,2,0,L|360:208,1,90
152,72,12731,5,0,0:0:0:0:
80,112,12889,1,0,0:0:0:0:
40,176,13047,1,0,0:0:0:0:
80,240,13205,1,0,0:0:0:0:
144,280,13363,1,0,0:0:0:0:
352,296,13521,5,0,0:0:0:0:
424,232,13678,1,0,0:0:0:0:
320,200,13836,1,0,0:0:0:0:
144,192,13994,5,0,0:0:0:0:
200,128,14152,1,0,0:0:0:0:
264,104,14310,1,0,0:0:0:0:
328,80,14468,1,0,0:0:0:0:
232,32,14626,1,0,0:0:0:0:
448,64,14784,1,0,0:0:0:0:
496,128,14942,1,0,0:0:0:0:
448,200,15100,1,0,0:0:0:0:
240,240,15257,5,0,0:0:0:0:
128,280,15415,1,0,0:0:0:0:
168,216,15573,1,0,0:0:0:0:
96,144,15731,1,0,0:0:0:0:
304,88,15889,6,0,L|424:40,1,90
408,112,16205,1,0,0:0:0:0:
488,144,16363,1,0,0:0:0:0:
264,336,16521,2,0,L|136:296,1,90
248,256,16836,1,0,0:0:0:0:
152,176,16994,1,0,0:0:0:0:
384,72,17152,5,0,0:0:0:0:
440,120,17310,1,0,0:0:0:0:
464,176,17468,1,0,0:0:0:0:
432,240,17626,1,0,0:0:0:0:
160,64,17784,1,0,0:0:0:0:
80,104,17942,1,0,0:0:0:0:
144,160,18100,1,0,0:0:0:0:
224,200,18257,1,0,0:0:0:0:
416,328,18415,5,0,0:0:0:0:
456,264,18573,1,0,0:0:0:0:
448,192,18731,1,0,0:0:0:0:
400,144,18889,1,0,0:0:0:0:
112,320,19047,1,0,0:0:0:0:
96,248,19205,1,0,0:0:0:0:
128,184,19363,1,0,0:0:0:0:
184,128,19521,1,0,0:0:0:0:
456,48,19678,6,0,L|376:160,1,90
64,72,19994,2,0,L|176:152,1,90
416,312,20310,2,0,L|296:208,1,90
96,312,20626,1,0,0:0:0:0:
136,232,20942,1,0,0:0:0:0:
392,192,21257,1,0,0:0:0:0:
120,96,21573,6,0,L|248:40,2,90
360,128,22047,2,0,L|248:192,2,90
128,224,22521,2,0,L|232:272,1,90
432,312,22836,5,0,0:0:0:0:
480,232,22994,1,0,0:0:0:0:
416,168,23152,1,0,0:0:0:0:
320,136,23310,1,0,0:0:0:0:
96,56,23468,1,0,0:0:0:0:
40,120,23626,1,0,0:0:0:0:
176,144,23784,1,0,0:0:0:0:
136,224,23942,1,0,0:0:0:0:
400,48,24100,5,0,0:0:0:0:
456,120,24257,1,0,0:0:0:0:
360,152,24415,1,0,0:0:0:0:
272,184,24573,1,0,0:0:0:0:
400,208,24731,1,0,0:0:0:0:
456,272,24889,1,0,0:0:0:0:
328,248,25047,1,0,0:0:0:0:
224,296,25205,1,0,0:0:0:0:
480,64,25363,5,0,0:0:0:0:
56,104,25678,1,0,0:0:0:0:
296,176,25994,1,0,0:0:0:0:
80,160,26310,2,0,L|200:216,1,90
320,240,26626,5,0,0:0:0:0:
240,312,26784,1,0,0:0:0:0:
112,312,26942,1,0,0:0:0:0:
32,240,27100,1,0,0:0:0:0:
80,160,27257,1,0,0:0:0:0:
464,64,27573,1,0,0:0:0:0:
256,64,27889,5,0,0:0:0:0:
176,112,28047,1,0,0:0:0:0:
264,152,28205,1,0,0:0:0:0:
336,200,28363,1,0,0:0:0:0:
392,256,28521,1,0,0:0:0:0:
96,312,28678,1,0,0:0:0:0:
144,240,28836,1,0,0:0:0:0:
216,200,28994,1,0,0:0:0:0:
456,288,29152,5,0,0:0:0:0:
480,208,29310,1,0,0:0:0:0:
408,136,29468,1,0,0:0:0:0:
320,88,29626,1,0,0:0:0:0:
200,80,29784,1,0,0:0:0:0:
424,96,29942,1,0,0:0:0:0:
488,160,30100,1,0,0:0:0:0:
432,240,30257,1,0,0:0:0:0:
72,312,30415,1,0,0:0:0:0:
328,264,30889,5,0,0:0:0:0:
112,200,31047,1,0,0:0:0:0:
304,184,31363,1,0,0:0:0:0:
496,152,31521,1,0,0:0:0:0:
416,112,31678,2,0,L|280:104,1,90
200,136,31993,2,0,L|312:168,1,90
376,240,32309,2,0,L|272:256,1,90
16,224,32625,2,0,L|112:280,1,90
328,312,32942,5,0,0:0:0:0:
392,264,33100,1,0,0:0:0:0:
320,232,33257,1,0,0:0:0:0:
232,192,33415,1,0,0:0:0:0:
136,144,33573,1,0,0:0:0:0:
296,144,33731,1,0,0:0:0:0:
224,88,33889,1,0,0:0:0:0:
128,48,34047,1,0,0:0:0:0:
384,64,34205,5,0,0:0:0:0:
464,104,34363,1,0,0:0:0:0:
400,160,34521,1,0,0:0:0:0:
312,192,34678,1,0,0:0:0:0:
176,224,34836,1,0,0:0:0:0:
408,232,34994,1,0,0:0:0:0:
336,272,35152,1,0,0:0:0:0:
240,296,35310,1,0,0:0:0:0:
56,224,35468,5,0,0:0:0:0:
8,152,35626,1,0,0:0:0:0:
88,112,35784,1,0,0:0:0:0:
176,88,35942,1,0,0:0:0:0:
400,64,36100,1,0,0:0:0:0:
320,104,36257,1,0,0:0:0:0:
248,160,36415,1,0,0:0:0:0:
192,224,36573,1,0,0:0:0:0:
424,184,36731,6,0,L|320:232,1,90
104,224,37047,2,0,L|216:264,1,90
416,304,37363,1,0,0:0:0:0:
352,240,37521,1,0,0:0:0:0:
424,184,37678,1,0,0:0:0:0:
480,112,37836,1,0,0:0:0:0:
248,96,37994,5,0,0:0:0:0:
176,136,38152,1,0,0:0:0:0:
128,208,38310,1,0,0:0:0:0:
168,272,38468,1,0,0:0:0:0:
432,336,38626,1,0,0:0:0:0:
472,256,38784,1,0,0:0:0:0:
432,184,38942,1,0,0:0:0:0:
328,144,39100,1,0,0:0:0:0:
96,88,39257,5,0,0:0:0:0:
24,144,39415,1,0,0:0:0:0:
88,200,39573,1,0,0:0:0:0:
304,248,39731,1,0,0:0:0:0:
88,304,39889,1,0,0:0:0:0:
48,208,40047,1,0,0:0:0:0:
128,152,40205,1,0,0:0:0:0:
216,112,40363,1,0,0:0:0:0:
432,48,40521,5,0,0:0:0:0:
480,104,40678,1,0,0:0:0:0:
408,144,40836,1,0,0:0:0:0:
320,192,40994,1,0,0:0:0:0:
104,320,41152,1,0,0:0:0:0:
208,304,41310,1,0,0:0:0:0:
152,240,41468,1,0,0:0:0:0:
80,176,41626,1,0,0:0:0:0:
328,104,41784,6,0,L|408:232,1,90
88,192,42257,1,0,0:0:0:0:
464,120,42573,1,0,0:0:0:0:
240,168,42731,1,0,0:0:0:0:
144,216,42889,1,0,0:0:0:0:
408,304,43047,5,0,0:0:0:0:
336,256,43205,1,0,0:0:0:0:
416,216,43363,1,0,0:0:0:0:
472,144,43521,1,0,0:0:0:0:
168,160,43678,1,0,0:0:0:0:
240,96,43836,1,0,0:0:0:0:
160,72,43994,1,0,0:0:0:0:
72,64,44152,1,0,0:0:0:0:
328,112,44310,5,0,0:0:0:0:
432,160,44468,1,0,0:0:0:0:
360,208,44626,1,0,0:0:0:0:
432,272,44784,1,0,0:0:0:0:
184,304,44942,1,0,0:0:0:0:
104,304,45100,1,0,0:0:0:0:
24,264,45257,1,0,0:0:0:0:
88,200,45415,1,0,0:0:0:0:
456,56,45573,5,0,0:0:0:0:
248,112,45889,1,0,0:0:0:0:
464,232,46205,1,0,0:0:0:0:
192,272,46521,1,0,0:0:0:0:
432,152,46678,2,0,L|464:64,1,90
336,48,46994,5,0,0:0:0:0:
248,72,47152,1,0,0:0:0:0:
208,144,47310,1,0,0:0:0:0:
296,200,47468,1,0,0:0:0:0:
72,272,47784,1,0,0:0:0:0:
424,272,48100,5,0,0:0:0:0:
352,240,48257,1,0,0:0:0:0:
232,224,48415,1,0,0:0:0:0:
304,176,48573,1,0,0:0:0:0:
376,120,48731,1,0,0:0:0:0:
208,56,48889,1,0,0:0:0:0:
112,104,49047,1,0,0:0:0:0:
216,144,49205,1,0,0:0:0:0:
376,136,49363,5,0,0:0:0:0:
448,200,49521,1,0,0:0:0:0:
264,176,49678,1,0,0:0:0:0:
336,224,49836,1,0,0:0:0:0:
416,264,49994,1,0,0:0:0:0:
232,288,50152,1,0,0:0:0:0:
136,272,50310,1,0,0:0:0:0:
64,208,50468,1,0,0:0:0:0:
400,120,50626,1,0,0:0:0:0:
168,96,50942,5,0,0:0:0:0:
88,144,51100,1,0,0:0:0:0:
416,160,51257,1,0,0:0:0:0:
304,200,51573,1,0,0:0:0:0:
424,248,51731,1,0,0:0:0:0:
128,256,51889,1,0,0:0:0:0:
56,296,52047,1,0,0:0:0:0:
288,184,52205,5,0,0:0:0:0:
360,224,52363,1,0,0:0:0:0:
144,96,52521,1,0,0:0:0:0:
80,128,52678,1,0,0:0:0:0:
320,80,52836,1,0,0:0:0:0:
392,104,52994,1,0,0:0:0:0:
136,40,53152,5,0,0:0:0:0:
64,88,53310,1,0,0:0:0:0:
104,168,53468,1,0,0:0:0:0:
248,144,53626,1,0,0:0:0:0:
176,216,53784,1,0,0:0:0:0:
360,144,53942,1,0,0:0:0:0:
416,208,54100,1,0,0:0:0:0:
472,272,54257,1,0,0:0:0:0:
224,312,54415,5,0,0:0:0:0:
160,256,54573,1,0,0:0:0:0:
240,216,54731,1,0,0:0:0:0:
56,176,54889,1,0,0:0:0:0:
88,104,55047,1,0,0:0:0:0:
304,48,55205,1,0,0:0:0:0:
376,72,55363,1,0,0:0:0:0:
440,112,55521,1,0,0:0:0:0:
256,104,55678,6,0,L|136:152,1,90
336,176,55994,2,0,L|368:288,1,90
160,200,56310,2,0,L|64:224,1,90
296,224,56626,2,0,L|320:320,1,90
64,192,56942,5,0,0:0:0:0:
24,120,57100,1,0,0:0:0:0:
88,80,57257,1,0,0:0:0:0:
144,64,57415,1,0,0:0:0:0:
400,56,57573,1,0,0:0:0:0:
320,144,57731,1,0,0:0:0:0:
392,176,57889,1,0,0:0:0:0:
440,232,58047,1,0,0:0:0:0:
200,304,58205,5,0,0:0:0:0:
128,272,58363,1,0,0:0:0:0:
72,208,58521,1,0,0:0:0:0:
144,160,58678,1,0,0:0:0:0:
368,104,58836,1,0,0:0:0:0:
320,160,58994,1,0,0:0:0:0:
80,80,59152,1,0,0:0:0:0:
152,136,59310,1,0,0:0:0:0:
376,320,59468,5,0,0:0:0:0:
448,272,59626,1,0,0:0:0:0:
488,200,59784,1,0,0:0:0:0:
416,160,59942,1,0,0:0:0:0:
240,32,60100,1,0,0:0:0:0:
168,80,60258,1,0,0:0:0:0:
128,152,60416,1,0,0:0:0:0:
200,192,60574,1,0,0:0:0:0:
376,224,60731,5,0,0:0:0:0:
464,264,60889,1,0,0:0:0:0:
120,312,61047,1,0,0:0:0:0:
232,280,61205,1,0,0:0:0:0:
320,192,61363,1,0,0:0:0:0:
96,232,61521,1,0,0:0:0:0:
176,176,61678,1,0,0:0:0:0:
104,104,61836,1,0,0:0:0:0:
416,32,61994,5,0,0:0:0:0:
344,64,62152,1,0,0:0:0:0:
264,80,62310,1,0,0:0:0:0:
88,104,62468,1,0,0:0:0:0:
160,160,62626,1,0,0:0:0:0:
240,192,62784,1,0,0:0:0:0:
464,232,62942,1,0,0:0:0:0:
384,272,63100,1,0,0:0:0:0:
112,296,63257,5,0,0:0:0:0:
56,224,63415,1,0,0:0:0:0:
128,176,63573,1,0,0:0:0:0:
216,144,63731,1,0,0:0:0:0:
328,104,63889,1,0,0:0:0:0:
104,72,64047,1,0,0:0:0:0:
56,144,64205,1,0,0:0:0:0:
48,224,64363,1,0,0:0:0:0:
224,328,64521,5,0,0:0:0:0:
304,304,64678,1,0,0:0:0:0:
376,248,64836,1,0,0:0:0:0:
304,176,64994,1,0,0:0:0:0:
152,128,65152,1,0,0:0:0:0:
392,72,65310,1,0,0:0:0:0:
456,120,65468,1,0,0:0:0:0:
480,192,65626,1,0,0:0:0:0:
272,304,65784,5,0,0:0:0:0:
192,280,65942,1,0,0:0:0:0:
264,224,66100,1,0,0:0:0:0:
336,176,66257,1,0,0:0:0:0:
144,168,66415,1,0,0:0:0:0:
72,128,66573,1,0,0:0:0:0:
264,144,66731,1,0,0:0:0:0:
216,72,66889,1,0,0:0:0:0:
368,48,67047,5,0,0:0:0:0:
432,96,67205,1,0,0:0:0:0:
472,176,67363,1,0,0:0:0:0:
408,232,67521,1,0,0:0:0:0:
144,288,67678,1,0,0:0:0:0:
56,320,67836,1,0,0:0:0:0:
224,208,67994,1,0,0:0:0:0:
160,152,68152,1,0,0:0:0:0:
328,40,68310,5,0,0:0:0:0:
416,80,68468,1,0,0:0:0:0:
456,160,68626,1,0,0:0:0:0:
384,208,68784,1,0,0:0:0:0:
112,224,68942,1,0,0:0:0:0:
336,56,69100,1,0,0:0:0:0:
272,96,69257,1,0,0:0:0:0:
344,144,69415,1,0,0:0:0:0:
112,80,69573,5,0,0:0:0:0:
48,136,69731,1,0,0:0:0:0:
112,184,69889,1,0,0:0:0:0:
192,232,70047,1,0,0:0:0:0:
408,288,70205,1,0,0:0:0:0:
480,328,70363,1,0,0:0:0:0:
296,144,70521,1,0,0:0:0:0:
248,224,70678,1,0,0:0:0:0:
408,224,70836,5,0,0:0:0:0:
456,152,70994,1,0,0:0:0:0:
408,80,71152,1,0,0:0:0:0:
312,40,71310,1,0,0:0:0:0:
56,64,71468,1,0,0:0:0:0:
168,96,71626,1,0,0:0:0:0:
104,152,71784,1,0,0:0:0:0:
64,216,71942,1,0,0:0:0:0:
256,168,72100,6,0,L|192:256,1,90
360,192,72415,2,0,L|416:304,1,90
144,120,72731,2,0,L|200:192,1,90
416,120,73047,2,0,L|352:192,1,90
112,48,73363,5,0,0:0:0:0:
56,112,73521,1,0,0:0:0:0:
96,184,73678,1,0,0:0:0:0:
336,224,73836,1,0,0:0:0:0:
104,336,73994,1,0,0:0:0:0:
48,272,74152,1,0,0:0:0:0:
128,224,74310,1,0,0:0:0:0:
216,184,74468,1,0,0:0:0:0:
408,32,74626,5,0,0:0:0:0:
328,80,74784,1,0,0:0:0:0:
400,144,74942,1,0,0:0:0:0:
128,144,75100,1,0,0:0:0:0:
352,192,75257,1,0,0:0:0:0:
416,256,75415,1,0,0:0:0:0:
328,312,75573,1,0,0:0:0:0:
224,328,75731,1,0,0:0:0:0:
48,48,75889,5,0,0:0:0:0:
128,80,76047,1,0,0:0:0:0:
168,160,76205,1,0,0:0:0:0:
88,216,76363,1,0,0:0:0:0:
304,272,76521,2,0,L|400:296,1,90
480,232,76836,2,0,L|376:200,1,90
168,72,77152,6,0,L|264:96,1,90
128,152,77468,2,0,L|-8:112,1,90
232,208,77784,2,0,L|392:272,1,90
96,232,78100,2,0,L|48:344,1,90
296,296,78415,5,0,0:0:0:0:
472,272,78573,1,0,0:0:0:0:
368,256,78731,1,0,0:0:0:0:
424,184,78889,1,0,0:0:0:0:
184,192,79047,1,0,0:0:0:0:
104,160,79205,1,0,0:0:0:0:
48,96,79363,1,0,0:0:0:0:
128,72,79521,1,0,0:0:0:0:
360,64,79678,5,0,0:0:0:0:
456,56,79836,1,0,0:0:0:0:
400,128,79994,1,0,0:0:0:0:
464,192,80152,1,0,0:0:0:0:
224,208,80310,6,0,L|112:248,1,90
264,272,80626,2,0,L|352:288,1,90
112,304,80942,5,0,0:0:0:0:
40,256,81100,1,0,0:0:0:0:
80,184,81257,1,0,0:0:0:0:
144,136,81415,1,0,0:0:0:0:
376,40,81573,1,0,0:0:0:0:
464,80,81731,1,0,0:0:0:0:
416,160,81889,1,0,0:0:0:0:
336,216,82047,1,0,0:0:0:0:
80,336,82205,5,0,0:0:0:0:
160,304,82363,1,0,0:0:0:0:
256,304,82521,1,0,0:0:0:0:
48,256,82678,1,0,0:0:0:0:
136,192,82836,1,0,0:0:0:0:
80,120,82994,1,0,0:0:0:0:
304,40,83152,1,0,0:0:0:0:
264,104,83310,1,0,0:0:0:0:
80,232,83468,5,0,0:0:0:0:
40,312,83626,1,0,0:0:0:0:
128,336,83784,1,0,0:0:0:0:
200,296,83942,1,0,0:0:0:0:
432,304,84100,2,0,L|480:216,1,90
304,224,84415,2,0,L|264:104,1,90
472,192,84731,5,0,0:0:0:0:
384,152,84889,1,0,0:0:0:0:
440,96,85047,1,0,0:0:0:0:
328,56,85205,1,0,0:0:0:0:
88,48,85363,1,0,0:0:0:0:
40,120,85521,1,0,0:0:0:0:
80,192,85678,1,0,0:0:0:0:
160,232,85836,1,0,0:0:0:0:
416,312,85994,5,0,0:0:0:0:
96,280,86310,1,0,0:0:0:0:
360,200,86626,1,0,0:0:0:0:
128,144,86942,1,0,0:0:0:0:
424,72,87100,1,0,0:0:0:0:
352,120,87257,1,0,0:0:0:0:
184,176,87415,1,0,0:0:0:0:
112,240,87573,1,0,0:0:0:0:
184,288,87731,1,0,0:0:0:0:
400,304,87889,1,0,0:0:0:0:
64,176,88205,1,0,0:0:0:0:
264,328,88521,5,0,0:0:0:0:
352,256,88678,1,0,0:0:0:0:
232,224,88836,1,0,0:0:0:0:
128,160,88994,1,0,0:0:0:0:
312,40,89152,1,0,0:0:0:0:
416,56,89310,1,0,0:0:0:0:
336,128,89468,1,0,0:0:0:0:
424,200,89626,1,0,0:0:0:0:
192,320,89784,5,0,0:0:0:0:
112,248,89942,1,0,0:0:0:0:
224,224,90100,1,0,0:0:0:0:
312,168,90257,1,0,0:0:0:0:
128,64,90415,1,0,0:0:0:0:
40,112,90573,1,0,0:0:0:0:
120,160,90731,1,0,0:0:0:0:
56,240,90889,1,0,0:0:0:0:
392,296,91047,5,0,0:0:0:0:
168,256,91363,1,0,0:0:0:0:
112,176,91521,1,0,0:0:0:0:
360,128,91678,1,0,0:0:0:0:
88,176,91994,1,0,0:0:0:0:
48,88,92152,1,0,0:0:0:0:
368,96,92310,6,0,L|488:128,1,90
248,144,92626,2,0,L|176:256,1,90
416,200,92942,2,0,L|480:272,1,90
200,208,93257,2,0,L|160:296,1,90
376,336,93573,5,0,0:0:0:0:
440,280,93731,1,0,0:0:0:0:
376,216,93889,1,0,0:0:0:0:
472,136,94047,1,0,0:0:0:0:
224,88,94205,1,0,0:0:0:0:
136,136,94363,1,0,0:0:0:0:
224,160,94521,1,0,0:0:0:0:
304,208,94678,1,0,0:0:0:0:
48,344,94836,5,0,0:0:0:0:
128,288,94994,1,0,0:0:0:0:
56,248,95152,1,0,0:0:0:0:
144,176,95310,1,0,0:0:0:0:
376,56,95468,1,0,0:0:0:0:
448,88,95626,1,0,0:0:0:0:
480,168,95784,1,0,0:0:0:0:
408,216,95942,1,0,0:0:0:0:
160,184,96100,5,0,0:0:0:0:
64,232,96257,1,0,0:0:0:0:
152,264,96415,1,0,0:0:0:0:
232,312,96573,1,0,0:0:0:0:
472,56,96731,2,0,L|440:176,1,90
200,128,97047,1,0,0:0:0:0:
128,184,97205,1,0,0:0:0:0:
384,144,97363,5,0,0:0:0:0:
304,224,97521,1,0,0:0:0:0:
432,248,97678,1,0,0:0:0:0:
384,328,97836,1,0,0:0:0:0:
112,320,97994,1,0,0:0:0:0:
56,256,98152,1,0,0:0:0:0:
104,192,98310,1,0,0:0:0:0:
176,144,98468,1,0,0:0:0:0:
440,56,98626,5,0,0:0:0:0:
376,120,98784,1,0,0:0:0:0:
352,192,98942,1,0,0:0:0:0:
432,224,99100,1,0,0:0:0:0:
112,184,99257,1,0,0:0:0:0:
216,192,99415,1,0,0:0:0:0:
152,264,99573,1,0,0:0:0:0:
80,320,99731,1,0,0:0:0:0:
336,288,99889,5,0,0:0:0:0:
440,264,100047,1,0,0:0:0:0:
376,192,100205,1,0,0:0:0:0:
472,120,100363,1,0,0:0:0:0:
216,64,100521,1,0,0:0:0:0:
128,56,100678,1,0,0:0:0:0:
176,136,100836,1,0,0:0:0:0:
264,168,100994,1,0,0:0:0:0:
32,208,101152,6,0,L|72:304,1,90
184,296,101468,1,0,0:0:0:0:
304,320,101626,1,0,0:0:0:0:
168,208,101784,1,0,0:0:0:0:
88,128,101942,1,0,0:0:0:0:
144,56,102100,1,0,0:0:0:0:
240,48,102257,1,0,0:0:0:0:
472,136,102415,5,0,0:0:0:0:
424,208,102573,1,0,0:0:0:0:
48,224,102889,1,0,0:0:0:0:
296,304,103205,1,0,0:0:0:0:
216,248,103363,1,0,0:0:0:0:
144,168,103521,1,0,0:0:0:0:
400,72,103678,5,0,0:0:0:0:
464,128,103836,1,0,0:0:0:0:
360,176,103994,1,0,0:0:0:0:
104,192,104152,1,0,0:0:0:0:
176,232,104310,1,0,0:0:0:0:
400,304,104468,1,0,0:0:0:0:
320,256,104626,1,0,0:0:0:0:
392,208,104784,1,0,0:0:0:0:
144,320,104942,5,0,0:0:0:0:
64,272,105100,1,0,0:0:0:0:
32,176,105257,1,0,0:0:0:0:
128,200,105415,1,0,0:0:0:0:
344,264,105573,2,0,L|464:280,1,90
320,192,105889,2,0,L|232:144,1,90
72,80,106205,5,0,0:0:0:0:
336,72,106521,1,0,0:0:0:0:
208,176,106836,1,0,0:0:0:0:
400,208,107152,1,0,0:0:0:0:
120,280,107310,1,0,0:0:0:0:
296,288,107468,5,0,0:0:0:0:
216,232,107626,1,0,0:0:0:0:
176,160,107784,1,0,0:0:0:0:
288,144,107942,1,0,0:0:0:0:
384,88,108100,1,0,0:0:0:0:
48,104,108415,1,0,0:0:0:0:
344,56,108731,5,0,0:0:0:0:
432,88,108889,1,0,0:0:0:0:
472,160,109047,1,0,0:0:0:0:
376,208,109205,1,0,0:0:0:0:
160,312,109363,1,0,0:0:0:0:
64,264,109521,1,0,0:0:0:0:
160,232,109678,1,0,0:0:0:0:
96,160,109836,1,0,0:0:0:0:
328,72,109994,5,0,0:0:0:0:
424,64,110152,1,0,0:0:0:0:
368,136,110310,1,0,0:0:0:0:
288,176,110468,1,0,0:0:0:0:
72,280,110626,1,0,0:0:0:0:
184,240,110784,1,0,0:0:0:0:
112,192,110942,1,0,0:0:0:0:
56,120,111100,1,0,0:0:0:0:
392,88,111257,1,0,0:0:0:0:
344,264,111573,5,0,0:0:0:0:
400,192,111731,1,0,0:0:0:0:
152,152,111889,1,0,0:0:0:0:
408,224,112205,1,0,0:0:0:0:
440,168,112363,1,0,0:0:0:0:
120,104,112521,6,0,L|24:144,1,90
192,160,112836,2,0,L|288:224,1,90
96,208,113152,2,0,L|24:264,1,90
184,240,113468,2,0,L|288:288,1,90
472,328,113784,5,0,0:0:0:0:
416,272,113942,1,0,0:0:0:0:
328,248,114100,1,0,0:0:0:0:
384,184,114257,1,0,0:0:0:0:
128,216,114415,1,0,0:0:0:0:
72,152,114573,1,0,0:0:0:0:
32,72,114731,1,0,0:0:0:0:
112,48,114889,1,0,0:0:0:0:
328,56,115047,6,0,L|440:80,1,90
224,104,115363,2,0,L|240:200,1,90
408,192,115678,2,0,L|336:264,1,90
112,200,115994,2,0,L|64:304,1,90
256,328,116310,5,0,0:0:0:0:
360,288,116468,1,0,0:0:0:0:
272,240,116626,1,0,0:0:0:0:
184,184,116784,1,0,0:0:0:0:
416,208,116942,1,0,0:0:0:0:
480,136,117100,1,0,0:0:0:0:
408,64,117257,1,0,0:0:0:0:
312,48,117415,1,0,0:0:0:0:
56,80,117573,5,0,0:0:0:0:
152,128,117731,1,0,0:0:0:0:
80,168,117889,1,0,0:0:0:0:
24,232,118047,1,0,0:0:0:0:
216,328,118205,1,0,0:0:0:0:
304,296,118363,1,0,0:0:0:0:
352,248,118521,1,0,0:0:0:0:
232,208,118678,1,0,0:0:0:0:
112,168,118836,1,0,0:0:0:0:
256,192,119152,12,0,122626,0:0:0:0:
128,328,123257,6,0,B|248:336|400:312|448:184,1,360
312,184,124047,1,0,0:0:0:0:
248,112,124205,1,0,0:0:0:0:
328,64,124363,1,0,0:0:0:0:
88,56,124521,1,0,0:0:0:0:
40,112,124678,1,0,0:0:0:0:
312,176,124836,1,0,0:0:0:0:
56,248,125152,1,0,0:0:0:0:
256,280,125468,5,0,0:0:0:0:
176,240,125626,1,0,0:0:0:0:
112,176,125784,1,0,0:0:0:0:
272,112,126100,1,0,0:0:0:0:
72,96,126415,5,0,0:0:0:0:
464,192,126731,1,0,0:0:0:0:
48,288,127047,1,0,0:0:0:0:
264,320,127363,6,0,L|400:304,1,90
136,256,127678,1,0,0:0:0:0:
64,176,127836,1,0,0:0:0:0:
128,112,127994,1,0,0:0:0:0:
208,88,128152,1,0,0:0:0:0:
424,88,128310,1,0,0:0:0:0:
120,88,128626,1,0,0:0:0:0:
248,96,128942,6,0,L|368:120,1,90
192,168,129257,2,0,L|88:232,1,90
328,320,129573,5,0,0:0:0:0:
464,296,129731,1,0,0:0:0:0:
392,248,129889,1,0,0:0:0:0:
480,176,130047,1,0,0:0:0:0:
240,208,130205,5,0,0:0:0:0:
184,152,130363,1,0,0:0:0:0:
264,112,130521,1,0,0:0:0:0:
336,64,130678,1,0,0:0:0:0:
96,48,130836,6,0,L|0:184,1,90
176,120,131152,2,0,L|328:208,1,90
424,160,131468,5,0,0:0:0:0:
320,224,131626,1,0,0:0:0:0:
424,288,131784,1,0,0:0:0:0:
128,80,132100,1,0,0:0:0:0:
224,152,132258,1,0,0:0:0:0:
120,216,132416,1,0,0:0:0:0:
384,64,132731,5,0,0:0:0:0:
256,96,132889,1,0,0:0:0:0:
128,144,133047,1,0,0:0:0:0:
128,328,133363,1,0,0:0:0:0:
256,296,133521,1,0,0:0:0:0:
384,248,133679,1,0,0:0:0:0:
152,72,133994,6,0,L|64:136,1,90
216,160,134310,2,0,L|328:216,1,90
104,192,134626,1,0,0:0:0:0:
240,240,134784,1,0,0:0:0:0:
128,272,134942,1,0,0:0:0:0:
184,328,135100,1,0,0:0:0:0:
448,336,135257,6,0,L|488:240,1,90
336,224,135573,2,0,L|240:184,1,90
432,56,135889,1,0,0:0:0:0:
480,128,136047,1,0,0:0:0:0:
312,128,136205,1,0,0:0:0:0:
352,208,136363,1,0,0:0:0:0:
120,336,136521,5,0,0:0:0:0:
56,272,136678,1,0,0:0:0:0:
152,240,136836,1,0,0:0:0:0:
256,208,136994,1,0,0:0:0:0:
80,168,137152,1,0,0:0:0:0:
240,136,137310,1,0,0:0:0:0:
104,88,137468,1,0,0:0:0:0:
192,40,137626,1,0,0:0:0:0:
328,64,137784,6,0,L|448:80,1,90
240,128,138100,2,0,L|152:176,1,90
360,168,138415,1,0,0:0:0:0:
224,232,138573,1,0,0:0:0:0:
336,240,138731,1,0,0:0:0:0:
448,288,138889,1,0,0:0:0:0:
192,320,139047,5,0,0:0:0:0:
80,272,139205,1,0,0:0:0:0:
160,216,139363,1,0,0:0:0:0:
264,176,139521,1,0,0:0:0:0:
32,152,139678,2,0,L|64:48,1,90
192,64,139994,1,0,0:0:0:0:
104,120,140152,1,0,0:0:0:0:
336,72,140310,5,0,0:0:0:0:
440,112,140468,1,0,0:0:0:0:
352,152,140626,1,0,0:0:0:0:
248,216,140784,1,0,0:0:0:0:
368,232,140942,2,0,L|424:336,1,90
168,304,141257,1,0,0:0:0:0:
96,240,141415,1,0,0:0:0:0:
304,56,141573,6,0,P|424:72|512:112,1,180
328,144,142047,2,0,L|224:160,2,90
168,216,142521,1,0,0:0:0:0:
88,272,142678,1,0,0:0:0:0:
368,320,142836,6,0,L|264:280,2,90
131,224,143310,2,0,L|216:192,2,90
384,128,143784,1,0,0:0:0:0:
312,80,143942,1,0,0:0:0:0:
96,64,144100,5,0,0:0:0:0:
40,136,144257,1,0,0:0:0:0:
80,224,144415,1,0,0:0:0:0:
152,272,144573,1,0,0:0:0:0:
384,272,144731,1,0,0:0:0:0:
296,288,144889,1,0,0:0:0:0:
72,304,145047,1,0,0:0:0:0:
256,200,145363,1,0,0:0:0:0:
120,160,145678,5,0,0:0:0:0:
208,112,145836,1,0,0:0:0:0:
304,80,145994,1,0,0:0:0:0:
72,48,146310,1,0,0:0:0:0:
464,136,146626,5,0,0:0:0:0:
64,232,146942,1,0,0:0:0:0:
360,296,147257,1,0,0:0:0:0:
176,272,147573,1,0,0:0:0:0:
440,104,147731,1,0,0:0:0:0:
264,72,147889,5,0,0:0:0:0:
320,144,148047,1,0,0:0:0:0:
248,200,148205,1,0,0:0:0:0:
168,232,148363,1,0,0:0:0:0:
352,288,148521,1,0,0:0:0:0:
80,312,148836,1,0,0:0:0:0:
240,216,149152,6,0,L|360:192,1,90
464,80,149468,2,0,L|368:96,1,90
72,48,149784,1,0,0:0:0:0:
232,80,149942,1,0,0:0:0:0:
152,128,150100,1,0,0:0:0:0:
208,192,150257,1,0,0:0:0:0:
400,256,150415,5,0,0:0:0:0:
464,320,150573,1,0,0:0:0:0:
352,336,150731,1,0,0:0:0:0:
248,312,150889,1,0,0:0:0:0:
56,200,151047,1,0,0:0:0:0:
240,184,151205,1,0,0:0:0:0:
160,136,151363,1,0,0:0:0:0:
232,80,151521,1,0,0:0:0:0:
384,56,151678,5,0,0:0:0:0:
96,64,151836,1,0,0:0:0:0:
200,128,151994,1,0,0:0:0:0:
64,216,152310,1,0,0:0:0:0:
416,168,152468,1,0,0:0:0:0:
336,256,152626,1,0,0:0:0:0:
448,296,152942,5,0,0:0:0:0:
136,320,153100,1,0,0:0:0:0:
240,224,153258,1,0,0:0:0:0:
72,176,153573,1,0,0:0:0:0:
352,56,153731,1,0,0:0:0:0:
464,64,153889,1,0,0:0:0:0:
224,128,154205,5,0,0:0:0:0:
144,176,154363,1,0,0:0:0:0:
216,200,154521,1,0,0:0:0:0:
304,232,154678,1,0,0:0:0:0:
128,312,154836,1,0,0:0:0:0:
320,320,154994,1,0,0:0:0:0:
256,256,155152,1,0,0:0:0:0:
384,208,155310,1,0,0:0:0:0:
112,72,155468,5,0,0:0:0:0:
192,120,155626,1,0,0:0:0:0:
96,160,155784,1,0,0:0:0:0:
16,232,155942,1,0,0:0:0:0:
328,320,156100,1,0,0:0:0:0:
384,248,156257,1,0,0:0:0:0:
288,224,156415,1,0,0:0:0:0:
208,192,156573,1,0,0:0:0:0:
424,56,156731,5,0,0:0:0:0:
464,120,156889,1,0,0:0:0:0:
384,168,157047,1,0,0:0:0:0:
272,208,157205,1,0,0:0:0:0:
72,216,157363,2,0,L|168:296,1,90
392,224,157678,2,0,L|288:272,1,90
80,80,157994,5,0,0:0:0:0:
168,96,158152,1,0,0:0:0:0:
104,176,158310,1,0,0:0:0:0:
64,256,158468,1,0,0:0:0:0:
328,320,158626,1,0,0:0:0:0:
416,272,158784,1,0,0:0:0:0:
328,232,158942,1,0,0:0:0:0:
160,200,159100,1,0,0:0:0:0:
352,112,159257,5,0,0:0:0:0:
440,64,159415,1,0,0:0:0:0:
352,32,159573,1,0,0:0:0:0:
248,48,159731,1,0,0:0:0:0:
56,120,159889,1,0,0:0:0:0:
232,168,160047,1,0,0:0:0:0:
160,200,160205,1,0,0:0:0:0:
96,280,160363,1,0,0:0:0:0:
368,320,160521,5,0,0:0:0:0:
424,248,160678,1,0,0:0:0:0:
360,176,160836,1,0,0:0:0:0:
288,144,160994,1,0,0:0:0:0:
56,80,161152,1,0,0:0:0:0:
104,152,161310,1,0,0:0:0:0:
160,208,161468,1,0,0:0:0:0:
96,264,161626,1,0,0:0:0:0:
440,72,161784,5,0,0:0:0:0:
168,80,162100,1,0,0:0:0:0:
256,144,162257,1,0,0:0:0:0:
168,184,162415,1,0,0:0:0:0:
312,232,162573,1,0,0:0:0:0:
104,200,162731,1,0,0:0:0:0:
40,256,162889,1,0,0:0:0:0:
200,336,163047,5,0,0:0:0:0:
304,288,163205,1,0,0:0:0:0:
416,296,163363,1,0,0:0:0:0:
208,192,163521,1,0,0:0:0:0:
128,144,163678,1,0,0:0:0:0:
40,120,163836,1,0,0:0:0:0:
328,88,163994,1,0,0:0:0:0:
416,64,164152,1,0,0:0:0:0:
144,48,164310,1,0,0:0:0:0:
