osu file format v14

[General]
AudioFilename: O.M. Keleus ft. Hatsune Miku - Oplosan.mp3
AudioLeadIn: 0
PreviewTime: 123257
Countdown: 0
SampleSet: None
StackLeniency: 1
Mode: 2
LetterboxInBreaks: 0
WidescreenStoryboard: 1

[Editor]
Bookmarks: 63257
DistanceSpacing: 0.9
BeatDivisor: 4
GridSize: 8
TimelineZoom: 1.9

[Metadata]
Title:Oplosan
TitleUnicode:Oplosan
Artist:O.M. Keleus ft. Hatsune Miku
ArtistUnicode:O.M. Keleus ft. Hatsune Miku
Creator:puxtu
Version:Platter
Source:
Tags:AncuL Ursa Fort Surono faiz007 guitaruz dangdut koplo bahasa indonesia indonesian indo javanese jawa wong jowo vocaloid Intel007 Mix Susu Stroberi Records nakedupsidedown mabok miras alcohol YKS soimah TransTV
BeatmapID:1013459
BeatmapSetID:459502

[Difficulty]
HPDrainRate:6
CircleSize:4
OverallDifficulty:8
ApproachRate:8
SliderMultiplier:1.6
SliderTickRate:1

[Events]
//Background and Video events
0,0,"Miku osu.jpg",0,0
//Break Periods
//Storyboard Layer 0 (Background)
//Storyboard Layer 1 (Fail)
//Storyboard Layer 2 (Pass)
//Storyboard Layer 3 (Foreground)
//Storyboard Sound Samples

[TimingPoints]
100,315.789473684211,4,2,1,50,1,0
123889,-100,4,2,1,50,0,1
143468,-100,4,2,1,50,0,0
144100,-100,4,2,1,50,0,1
164310,-100,4,2,1,50,0,0

[Colours]
Combo1 : 0,0,255
Combo2 : 255,0,0

[HitObjects]
232,56,100,6,0,P|128:64|72:104,1,160
248,112,731,1,0,0:0:0:0:
320,168,1047,1,0,0:0:0:0:
96,168,1363,6,0,P|32:248|32:320,1,160
232,304,1836,2,0,P|312:272|368:160,1,160
96,168,2310,2,0,L|24:88,1,80
208,48,2626,6,0,P|304:48|384:88,1,160
280,112,3100,1,0,0:0:0:0:
368,152,3257,2,0,P|448:200|488:272,1,160
320,288,3731,1,0,0:0:0:0:
184,312,3889,6,0,P|112:248|104:160,1,160
208,160,4363,1,0,0:0:0:0:
88,112,4521,2,0,P|160:56|272:64,1,160
320,72,4994,1,0,0:0:0:0:
448,96,5152,6,0,P|416:176|296:192,1,160
240,216,5626,1,0,0:0:0:0:
112,216,5784,2,0,P|48:152|48:80,1,160
152,64,6257,1,0,0:0:0:0:
56,88,6415,6,0,P|120:184|192:192,1,160
240,224,6889,1,0,0:0:0:0:
104,288,7047,1,0,0:0:0:0:
488,304,7363,1,0,0:0:0:0:
368,264,7678,6,0,P|392:192|472:144,1,160
352,88,8152,1,0,0:0:0:0:
464,120,8310,2,0,P|384:168|280:184,1,160
112,56,8784,1,0,0:0:0:0:
216,80,8942,6,0,P|144:152|56:160,1,160
200,208,9415,1,0,0:0:0:0:
80,224,9573,2,0,P|144:296|240:320,1,160
320,296,10047,1,0,0:0:0:0:
192,304,10205,6,0,P|160:208|88:192,1,160
248,152,10678,1,0,0:0:0:0:
344,192,10836,2,0,P|384:112|464:96,1,160
344,72,11310,1,0,0:0:0:0:
208,64,11468,6,0,P|104:88|32:128,1,160
216,152,12100,2,0,P|296:192|432:192,1,160
176,192,12731,6,0,P|96:240|64:296,1,160
200,320,13205,1,0,0:0:0:0:
360,312,13363,2,0,P|264:248|224:192,1,160
400,168,13836,1,0,0:0:0:0:
264,168,13994,6,0,P|328:96|448:80,1,160
240,48,14468,1,0,0:0:0:0:
112,64,14626,2,0,P|176:152|248:184,1,160
352,216,15100,1,0,0:0:0:0:
464,256,15257,6,0,P|368:304|272:296,1,160
184,272,15731,1,0,0:0:0:0:
48,216,15889,6,0,P|128:152|208:128,1,160
424,128,16521,2,0,P|312:72|256:64,1,160
40,104,17152,2,0,P|152:168|216:192,1,160
408,216,17784,6,0,P|480:304|448:352,1,160
304,272,18257,1,0,0:0:0:0:
144,312,18415,2,0,P|112:232|176:176,1,160
256,144,18889,1,0,0:0:0:0:
360,152,19047,6,0,P|344:72|448:56,1,160
224,40,19521,1,0,0:0:0:0:
48,48,19678,2,0,P|109:90|90:163,1,160
192,216,20152,1,0,0:0:0:0:
320,256,20310,1,0,0:0:0:0:
72,256,20626,2,0,L|32:344,1,80
200,312,21100,1,0,0:0:0:0:
360,200,21415,5,0,0:0:0:0:
200,208,21573,2,0,P|120:168|80:96,1,160
216,40,22047,2,0,P|320:48|384:80,1,160
176,144,22521,2,0,P|88:208|80:296,1,160
272,320,23152,5,0,0:0:0:0:
368,312,23310,2,0,P|448:256|456:128,1,160
304,200,23784,1,0,0:0:0:0:
352,128,23942,1,0,0:0:0:0:
152,304,24100,6,0,P|80:240|56:168,1,160
168,200,24573,2,0,P|264:152|328:80,1,160
168,88,25047,1,0,0:0:0:0:
392,64,25363,5,0,0:0:0:0:
472,112,25678,1,0,0:0:0:0:
256,160,25994,1,0,0:0:0:0:
408,176,26310,2,0,L|464:280,1,80
160,304,26784,1,0,0:0:0:0:
48,256,26942,1,0,0:0:0:0:
104,184,27100,1,0,0:0:0:0:
184,160,27257,1,0,0:0:0:0:
440,208,27573,1,0,0:0:0:0:
192,80,27889,6,0,P|120:136|88:224,1,160
256,160,28363,2,0,P|296:248|224:320,1,160
432,224,28836,2,0,L|384:304,1,80
216,320,29152,6,0,P|128:248|136:184,1,160
264,216,29626,2,0,P|256:112|184:104,1,160
48,120,30100,2,0,L|104:56,1,80
424,72,30415,5,0,0:0:0:0:
136,152,30889,1,0,0:0:0:0:
56,168,31047,1,0,0:0:0:0:
336,96,31363,1,0,0:0:0:0:
400,136,31521,1,0,0:0:0:0:
472,176,31678,1,0,0:0:0:0:
304,208,31994,5,0,0:0:0:0:
424,296,32310,1,0,0:0:0:0:
48,328,32626,1,0,0:0:0:0:
224,304,32942,2,0,P|312:256|376:160,1,160
176,224,33415,2,0,P|96:176|104:96,1,160
264,72,33889,2,0,L|360:48,1,80
184,128,34205,6,0,P|112:200|88:280,1,160
272,184,34678,2,0,P|352:248|392:312,1,160
176,312,35152,2,0,L|72:328,1,80
232,264,35468,6,0,P|160:224|104:144,1,160
264,176,35942,2,0,P|256:88|184:64,1,160
368,96,36415,2,0,L|296:48,1,80
88,80,36731,6,0,P|168:136|272:144,1,160
432,152,37205,2,0,P|352:224|272:256,1,160
112,320,37678,2,0,L|216:312,1,80
360,320,37994,6,0,P|448:224|464:192,1,160
280,208,38468,2,0,P|216:128|240:48,1,160
80,120,38942,2,0,L|144:40,1,80
360,48,39257,6,0,P|448:96|464:184,1,160
224,104,39731,2,0,P|176:192|248:272,1,160
48,224,40205,2,0,L|120:304,1,80
248,328,40521,6,0,P|304:272|360:192,1,160
184,232,40994,2,0,P|128:160|96:80,1,160
240,128,41468,2,0,L|192:64,1,80
416,80,41784,6,0,L|488:168,1,80
296,208,42257,1,0,0:0:0:0:
160,192,42573,1,0,0:0:0:0:
80,128,42731,1,0,0:0:0:0:
200,64,43047,6,0,P|304:120|312:192,1,160
144,176,43521,2,0,P|56:208|24:288,1,160
192,264,43994,2,0,L|120:320,1,80
272,344,44310,6,0,P|360:320|376:216,1,160
248,248,44784,2,0,P|192:184|224:112,1,160
80,112,45257,2,0,L|144:48,1,80
456,56,45573,5,0,0:0:0:0:
248,112,45889,1,0,0:0:0:0:
464,232,46205,1,0,0:0:0:0:
192,280,46521,1,0,0:0:0:0:
112,248,46678,6,0,P|64:152|72:64,1,160
296,64,47152,1,0,0:0:0:0:
376,120,47310,1,0,0:0:0:0:
312,176,47468,1,0,0:0:0:0:
440,256,47784,1,0,0:0:0:0:
168,80,48100,6,0,P|80:136|32:192,1,160
296,104,48573,2,0,P|368:208|368:312,1,160
272,264,49047,1,0,0:0:0:0:
176,272,49205,1,0,0:0:0:0:
304,240,49363,6,0,P|224:152|160:120,1,160
376,176,49836,2,0,P|456:88|456:32,1,160
368,56,50310,1,0,0:0:0:0:
288,72,50468,1,0,0:0:0:0:
72,160,50626,1,0,0:0:0:0:
320,96,51100,5,0,0:0:0:0:
416,160,51257,1,0,0:0:0:0:
152,184,51731,1,0,0:0:0:0:
72,232,51889,1,0,0:0:0:0:
216,224,52047,5,0,0:0:0:0:
272,280,52205,1,0,0:0:0:0:
104,160,52363,1,0,0:0:0:0:
48,224,52521,1,0,0:0:0:0:
280,184,52678,1,0,0:0:0:0:
352,240,52836,1,0,0:0:0:0:
376,320,52994,1,0,0:0:0:0:
120,312,53152,6,0,P|32:232|24:168,1,160
184,192,53626,2,0,P|280:152|360:80,1,160
224,80,54100,2,0,L|128:72,1,80
360,72,54415,6,0,P|440:160|472:240,1,160
232,168,54889,2,0,P|176:256|176:360,1,160
42,282,55363,2,0,L|72:208,1,80
312,40,55678,6,0,P|232:120|168:200,1,160
96,176,56152,1,0,0:0:0:0:
248,200,56310,2,0,P|328:272|432:312,1,160
240,320,56784,1,0,0:0:0:0:
368,296,56942,2,0,P|448:208|440:104,1,160
336,136,57415,5,0,0:0:0:0:
224,88,57573,2,0,P|144:64|48:96,1,160
168,144,58047,1,0,0:0:0:0:
48,176,58205,6,0,P|104:272|192:320,1,160
288,336,58678,2,0,P|368:272|400:160,1,160
256,200,59152,2,0,L|160:216,1,80
320,168,59468,6,0,P|240:96|160:104,1,160
360,64,59942,2,0,P|440:112|464:232,1,160
328,192,60415,2,0,L|216:208,1,80
72,56,60731,5,0,0:0:0:0:
208,56,61047,2,0,L|128:136,1,80
344,88,61521,1,0,0:0:0:0:
416,144,61678,1,0,0:0:0:0:
464,208,61836,1,0,0:0:0:0:
296,168,61994,6,0,P|192:192|136:232,1,160
304,296,62468,2,0,P|392:280|448:208,1,160
216,80,62942,2,0,P|120:152|104:224,1,160
288,160,63573,6,0,L|416:208,1,80
256,248,63889,2,0,P|144:296|32:280,1,160
192,208,64363,1,0,0:0:0:0:
80,200,64521,6,0,P|88:96|192:64,1,160
232,48,64994,1,0,0:0:0:0:
368,48,65152,2,0,P|424:93|384:189,1,160
312,184,65626,1,0,0:0:0:0:
408,171,65784,6,0,P|400:251|296:259,1,160
216,272,66257,1,0,0:0:0:0:
64,232,66415,2,0,P|64:136|176:104,1,160
272,64,66889,1,0,0:0:0:0:
144,96,67047,6,0,P|216:184|280:200,1,160
376,216,67521,1,0,0:0:0:0:
472,288,67678,1,0,0:0:0:0:
200,320,67994,1,0,0:0:0:0:
432,296,68310,6,0,P|384:208|280:184,1,160
224,176,68784,1,0,0:0:0:0:
72,176,68942,2,0,P|152:80|216:88,1,160
304,72,69415,1,0,0:0:0:0:
456,88,69573,6,0,P|376:160|288:176,1,160
216,200,70047,1,0,0:0:0:0:
368,120,70205,2,0,P|456:192|464:264,1,160
360,240,70678,1,0,0:0:0:0:
104,128,70836,6,0,P|64:240|88:304,1,160
192,304,71310,1,0,0:0:0:0:
288,272,71468,2,0,P|328:176|272:96,1,160
232,104,71942,1,0,0:0:0:0:
112,48,72100,6,0,P|88:144|32:192,1,160
344,120,72731,2,0,P|376:256|432:312,1,160
112,296,73363,6,0,P|64:200|80:144,1,160
192,120,73836,1,0,0:0:0:0:
312,56,73994,2,0,P|360:144|336:216,1,160
448,256,74468,1,0,0:0:0:0:
296,320,74626,6,0,P|288:200|368:168,1,160
152,176,75100,1,0,0:0:0:0:
272,168,75257,2,0,P|280:80|224:56,1,160
88,72,75731,1,0,0:0:0:0:
192,120,75889,6,0,P|168:200|200:328,1,160
272,304,76363,1,0,0:0:0:0:
112,320,76521,2,0,P|88:216|120:120,1,160
216,120,76994,1,0,0:0:0:0:
400,96,77152,6,0,P|409:174|385:250,1,160
128,312,77784,2,0,P|104:200|136:96,1,160
320,64,78415,6,0,P|392:152|400:232,1,160
312,240,78889,1,0,0:0:0:0:
128,344,79047,2,0,P|200:240|200:160,1,160
120,168,79521,1,0,0:0:0:0:
288,48,79678,6,0,P|344:112|416:160,1,160
320,208,80152,1,0,0:0:0:0:
144,344,80310,2,0,P|80:264|48:192,1,160
136,176,80784,1,0,0:0:0:0:
360,40,80942,6,0,P|464:136|464:144,1,160
392,192,81415,1,0,0:0:0:0:
224,152,81731,1,0,0:0:0:0:
88,224,82047,1,0,0:0:0:0:
200,256,82205,6,0,P|280:312|376:304,1,160
480,256,82678,2,0,P|400:216|320:224,1,160
232,248,83152,2,0,L|120:216,1,80
400,192,83468,6,0,B|432:176|480:104|488:56,1,160
184,48,83942,2,0,P|136:112|152:224,1,160
304,216,84415,2,0,L|392:240,1,80
208,272,84731,6,0,P|120:296|56:256,1,160
208,176,85205,2,0,P|264:160|376:192,1,160
208,296,85678,2,0,L|276:254,1,80
488,120,85994,5,0,0:0:0:0:
312,144,86310,1,0,0:0:0:0:
440,232,86626,1,0,0:0:0:0:
208,264,86942,2,0,L|136:304,1,80
352,280,87415,5,0,0:0:0:0:
408,208,87573,1,0,0:0:0:0:
344,136,87731,1,0,0:0:0:0:
232,96,87889,1,0,0:0:0:0:
440,48,88205,1,0,0:0:0:0:
200,72,88521,6,0,P|112:136|64:208,1,160
256,184,88994,2,0,P|224:296|248:344,1,160
72,264,89468,2,0,L|112:344,1,80
344,328,89784,6,0,P|416:280|456:192,1,160
320,200,90257,2,0,P|288:144|200:80,1,160
376,104,90731,2,0,L|320:40,1,80
72,88,91047,1,0,0:0:0:0:
272,136,91521,5,0,0:0:0:0:
344,184,91678,1,0,0:0:0:0:
104,184,92152,1,0,0:0:0:0:
64,248,92310,1,0,0:0:0:0:
224,184,92468,5,0,0:0:0:0:
272,240,92626,1,0,0:0:0:0:
152,248,92784,1,0,0:0:0:0:
112,320,92942,1,0,0:0:0:0:
368,192,93100,1,0,0:0:0:0:
432,248,93257,1,0,0:0:0:0:
152,248,93415,1,0,0:0:0:0:
72,208,93573,6,0,P|48:144|112:56,1,160
264,32,94047,2,0,P|296:80|240:176,1,160
72,208,94521,2,0,L|136:280,1,80
336,336,94836,6,0,P|376:264|352:176,1,160
200,264,95310,2,0,P|176:200|224:120,1,160
362,190,95784,2,0,L|298:110,1,80
56,48,96100,6,0,P|112:104|192:112,1,160
368,88,96573,2,0,P|312:152|232:168,1,160
112,200,97047,2,0,L|192:256,1,80
432,320,97363,6,0,P|352:256|272:240,1,160
120,232,97836,2,0,P|200:176|280:168,1,160
96,112,98310,2,0,L|160:64,1,80
392,40,98626,6,0,P|456:96|448:168,1,160
296,184,99100,2,0,P|360:224|408:304,1,160
264,320,99573,2,0,L|160:328,1,80
304,248,99889,6,0,P|392:208|416:144,1,160
168,176,100363,2,0,P|232:112|264:24,1,160
128,80,100836,2,0,L|40:104,1,80
176,160,101152,6,0,P|216:192|320:232,1,160
200,280,101626,2,0,P|144:304|32:296,1,160
128,224,102100,2,0,L|32:176,1,80
272,120,102415,5,0,0:0:0:0:
344,72,102573,1,0,0:0:0:0:
64,88,102889,1,0,0:0:0:0:
272,184,103205,1,0,0:0:0:0:
192,248,103363,1,0,0:0:0:0:
376,320,103678,6,0,P|440:272|472:168,1,160
272,192,104152,2,0,P|192:128|160:48,1,160
336,64,104626,2,0,L|258:79,1,80
48,120,104942,6,0,P|56:200|136:256,1,160
272,336,105415,2,0,P|368:296|400:224,1,160
264,216,105889,2,0,L|160:168,1,80
360,128,106205,5,0,0:0:0:0:
168,144,106521,1,0,0:0:0:0:
352,232,106836,1,0,0:0:0:0:
56,224,107152,1,0,0:0:0:0:
32,304,107310,1,0,0:0:0:0:
376,48,107626,5,0,0:0:0:0:
288,96,107784,1,0,0:0:0:0:
344,160,107942,1,0,0:0:0:0:
432,200,108100,1,0,0:0:0:0:
152,296,108415,1,0,0:0:0:0:
320,296,108731,6,0,P|264:232|240:152,1,160
376,200,109205,2,0,P|448:168|496:64,1,160
321,93,109678,2,0,L|400:80,1,80
176,104,109994,6,0,P|248:176|328:224,1,160
136,208,110468,2,0,P|96:256|64:360,1,160
240,312,110942,2,0,L|163:335,1,80
400,296,111257,5,0,0:0:0:0:
184,224,111731,1,0,0:0:0:0:
104,192,111889,1,0,0:0:0:0:
384,120,112363,5,0,0:0:0:0:
456,176,112521,1,0,0:0:0:0:
304,176,112678,1,0,0:0:0:0:
232,232,112836,1,0,0:0:0:0:
424,304,112994,5,0,0:0:0:0:
360,248,113152,1,0,0:0:0:0:
304,200,113310,1,0,0:0:0:0:
152,208,113468,1,0,0:0:0:0:
216,144,113626,1,0,0:0:0:0:
344,72,113784,6,0,P|256:48|176:80,1,160
80,128,114257,2,0,P|128:160|232:160,1,160
88,240,114731,2,0,L|48:328,1,80
328,320,115047,6,0,P|424:304|448:248,1,160
264,224,115521,2,0,P|304:176|400:168,1,160
234,76,115994,2,0,L|312:96,1,80
176,120,116310,6,0,P|120:120|40:208,1,160
224,192,116784,2,0,P|152:224|128:296,1,160
264,304,117257,2,0,L|368:328,1,80
136,240,117573,6,0,P|88:192|48:96,1,160
256,208,118047,2,0,P|336:176|400:88,1,160
232,80,118521,2,0,L|120:104,1,80
280,160,118836,1,0,0:0:0:0:
256,192,119152,12,0,122626,0:0:0:0:
88,312,123257,6,0,P|272:312|408:216,1,320
144,224,124205,1,0,0:0:0:0:
88,160,124363,1,0,0:0:0:0:
64,88,124521,1,0,0:0:0:0:
320,64,124836,1,0,0:0:0:0:
72,272,125152,1,0,0:0:0:0:
272,280,125468,5,0,0:0:0:0:
336,216,125626,1,0,0:0:0:0:
384,144,125784,1,0,0:0:0:0:
144,152,126100,1,0,0:0:0:0:
424,40,126415,5,0,0:0:0:0:
344,104,126731,1,0,0:0:0:0:
64,152,127047,1,0,0:0:0:0:
336,256,127363,5,0,0:0:0:0:
408,296,127521,1,0,0:0:0:0:
128,272,127836,1,0,0:0:0:0:
72,208,127994,1,0,0:0:0:0:
144,152,128152,1,0,0:0:0:0:
368,104,128310,1,0,0:0:0:0:
120,56,128626,1,0,0:0:0:0:
272,72,128942,6,0,P|368:104|432:168,1,160
243,173,129415,2,0,P|168:201|104:248,1,160
272,248,129889,2,0,L|320:328,1,80
48,192,130205,6,0,P|61:270|109:333,1,160
304,208,130678,2,0,P|288:128|224:80,1,160
88,112,131152,2,0,L|152:176,1,80
376,304,131468,5,0,0:0:0:0:
432,256,131626,1,0,0:0:0:0:
472,184,131784,1,0,0:0:0:0:
184,64,132100,5,0,0:0:0:0:
128,112,132258,1,0,0:0:0:0:
88,184,132416,1,0,0:0:0:0:
392,192,132731,5,0,0:0:0:0:
352,120,132889,1,0,0:0:0:0:
296,72,133047,1,0,0:0:0:0:
72,192,133363,5,0,0:0:0:0:
112,264,133521,1,0,0:0:0:0:
168,312,133679,1,0,0:0:0:0:
416,272,133994,6,0,P|336:248|280:184,1,160
416,168,134468,2,0,P|464:48|448:32,1,160
368,48,134942,2,0,L|272:64,1,80
64,56,135257,6,0,P|137:87|203:132,1,160
48,152,135731,2,0,P|56:216|160:256,1,160
224,272,136205,2,0,L|160:336,1,80
392,320,136521,6,0,P|464:280|472:192,1,160
352,200,136994,2,0,P|416:136|472:96,1,160
352,64,137468,2,0,L|248:56,1,80
48,56,137784,6,0,P|112:136|184:160,1,160
280,184,138257,2,0,P|232:232|112:240,1,160
32,304,138731,2,0,L|112:336,1,80
352,320,139047,6,0,P|304:272|248:176,1,160
392,216,139521,2,0,P|472:152|480:88,1,160
392,72,139994,2,0,L|312:80,1,80
64,96,140310,6,0,P|96:176|184:208,1,160
272,200,140784,2,0,P|200:296|144:304,1,160
304,312,141257,2,0,L|400:344,1,80
184,272,141573,6,0,P|128:216|72:144,1,160
320,224,142205,2,0,P|384:176|440:80,1,160
104,72,142836,1,0,0:0:0:0:
280,72,143152,1,0,0:0:0:0:
400,144,143310,1,0,0:0:0:0:
144,216,143626,1,0,0:0:0:0:
40,296,143784,1,0,0:0:0:0:
432,304,144100,5,0,0:0:0:0:
264,280,144415,1,0,0:0:0:0:
192,224,144573,1,0,0:0:0:0:
120,152,144731,1,0,0:0:0:0:
360,120,145047,1,0,0:0:0:0:
64,56,145363,1,0,0:0:0:0:
224,96,145678,5,0,0:0:0:0:
296,152,145836,1,0,0:0:0:0:
368,224,145994,1,0,0:0:0:0:
64,304,146310,1,0,0:0:0:0:
264,304,146626,5,0,0:0:0:0:
192,248,146942,1,0,0:0:0:0:
464,184,147257,1,0,0:0:0:0:
88,56,147573,1,0,0:0:0:0:
48,128,147731,1,0,0:0:0:0:
320,144,148047,5,0,0:0:0:0:
248,200,148205,1,0,0:0:0:0:
168,232,148363,1,0,0:0:0:0:
80,248,148521,1,0,0:0:0:0:
352,328,148836,1,0,0:0:0:0:
120,80,149152,6,0,P|48:152|32:232,1,160
200,136,149626,2,0,P|264:192|312:288,1,160
112,248,150100,2,0,L|168:312,1,80
384,304,150415,6,0,P|336:256|288:160,1,160
448,136,150889,2,0,P|392:96|304:80,1,160
176,96,151363,2,0,L|72:128,1,80
392,128,151678,5,0,0:0:0:0:
480,240,151836,1,0,0:0:0:0:
392,288,151994,1,0,0:0:0:0:
192,240,152310,1,0,0:0:0:0:
128,144,152468,1,0,0:0:0:0:
216,96,152626,1,0,0:0:0:0:
448,176,152942,5,0,0:0:0:0:
416,248,153100,1,0,0:0:0:0:
352,296,153257,1,0,0:0:0:0:
88,144,153573,1,0,0:0:0:0:
120,216,153731,1,0,0:0:0:0:
184,264,153888,1,0,0:0:0:0:
384,64,154205,6,0,P|312:136|256:152,1,160
120,176,154678,2,0,P|184:232|264:280,1,160
392,264,155152,2,0,L|320:228,1,80
88,64,155468,6,0,P|176:128|248:152,1,160
376,160,155942,2,0,P|312:200|224:216,1,160
78,294,156415,2,0,L|152:264,1,80
368,72,156731,6,0,P|448:136|472:216,1,160
296,128,157205,2,0,P|232:176|224:256,1,160
368,264,157678,2,0,L|447:248,1,80
144,80,157994,6,0,P|64:152|48:208,1,160
240,184,158468,2,0,P|160:240|136:320,1,160
272,304,158942,2,0,L|360:328,1,80
48,192,159257,6,0,P|96:104|184:72,1,160
376,120,159731,2,0,P|344:192|277:234,1,160
152,272,160205,2,0,L|248:320,1,80
440,312,160521,6,0,P|384:216|336:184,1,160
88,192,160994,2,0,P|144:96|216:88,1,160
416,72,161468,2,0,L|504:120,1,80
248,176,161784,6,0,P|160:224|128:272,1,160
384,320,162415,2,0,P|432:256|424:152,1,160
112,88,163047,5,0,0:0:0:0:
328,112,163363,1,0,0:0:0:0:
416,160,163521,1,0,0:0:0:0:
152,168,163836,1,0,0:0:0:0:
80,232,163994,1,0,0:0:0:0:
408,320,164310,1,0,0:0:0:0:
