osu file format v14

[General]
AudioFilename: O.M. Keleus ft. Hatsune Miku - Oplosan.mp3
AudioLeadIn: 0
PreviewTime: 123257
Countdown: 0
SampleSet: Normal
StackLeniency: 1
Mode: 1
LetterboxInBreaks: 0
WidescreenStoryboard: 0

[Editor]
Bookmarks: 63257
DistanceSpacing: 0.8
BeatDivisor: 4
GridSize: 32
TimelineZoom: 2.699999

[Metadata]
Title:Oplosan
TitleUnicode:Oplosan
Artist:O.M. Keleus ft. Hatsune Miku
ArtistUnicode:O.M. Keleus ft. Hatsune Miku
Creator:puxtu
Version:Muzukashii
Source:
Tags:AncuL Ursa Fort Surono faiz007 guitaruz dangdut koplo bahasa indonesia indonesian indo javanese jawa wong jowo vocaloid Intel007 Mix Susu Stroberi Records nakedupsidedown mabok miras alcohol YKS soimah TransTV
BeatmapID:997521
BeatmapSetID:459502

[Difficulty]
HPDrainRate:7
CircleSize:2
OverallDifficulty:4.5
ApproachRate:10
SliderMultiplier:1.4
SliderTickRate:1

[Events]
//Background and Video events
0,0,"Miku osu.jpg",0,0
//Break Periods
//Storyboard Layer 0 (Background)
//Storyboard Layer 1 (Fail)
//Storyboard Layer 2 (Pass)
//Storyboard Layer 3 (Foreground)
//Storyboard Sound Samples

[TimingPoints]
100,315.789473684211,4,1,0,85,1,0
123889,-100,4,1,0,85,0,1
143468,-100,4,1,0,85,0,0
144100,-100,4,1,0,85,0,1
164310,-100,4,1,0,85,0,0

[HitObjects]
256,192,100,5,0,0:0:0:0:
256,192,415,1,8,0:0:0:0:
256,192,731,1,8,0:0:0:0:
256,192,1047,1,0,0:0:0:0:
256,192,1363,1,8,0:0:0:0:
256,192,1521,1,0,0:0:0:0:
256,192,1836,1,8,0:0:0:0:
256,192,1994,1,8,0:0:0:0:
256,192,2310,1,8,0:0:0:0:
256,192,2468,1,0,0:0:0:0:
256,192,2626,1,4,0:0:0:0:
256,192,2942,1,8,0:0:0:0:
256,192,3100,1,0,0:0:0:0:
256,192,3415,1,0,0:0:0:0:
256,192,3573,1,8,0:0:0:0:
256,192,3731,1,0,0:0:0:0:
256,192,3889,1,0,0:0:0:0:
256,192,4205,1,8,0:0:0:0:
256,192,4363,1,0,0:0:0:0:
256,192,4678,1,0,0:0:0:0:
256,192,4836,1,8,0:0:0:0:
256,192,4994,1,0,0:0:0:0:
256,192,5152,1,8,0:0:0:0:
256,192,5468,1,8,0:0:0:0:
256,192,5784,1,8,0:0:0:0:
256,192,5942,1,0,0:0:0:0:
256,192,6100,1,8,0:0:0:0:
256,192,6257,1,0,0:0:0:0:
256,192,6415,1,0,0:0:0:0:
256,192,6731,1,8,0:0:0:0:
256,192,7047,1,0,0:0:0:0:
256,192,7205,1,0,0:0:0:0:
256,192,7363,1,8,0:0:0:0:
256,192,7521,1,0,0:0:0:0:
256,192,7678,1,8,0:0:0:0:
256,192,7994,1,8,0:0:0:0:
256,192,8152,1,0,0:0:0:0:
256,192,8468,1,0,0:0:0:0:
256,192,8626,1,8,0:0:0:0:
256,192,8784,1,0,0:0:0:0:
256,192,8942,1,0,0:0:0:0:
256,192,9257,1,8,0:0:0:0:
256,192,9573,1,8,0:0:0:0:
256,192,9731,1,0,0:0:0:0:
256,192,9889,1,8,0:0:0:0:
256,192,10047,1,8,0:0:0:0:
256,192,10205,1,0,0:0:0:0:
256,192,10521,1,8,0:0:0:0:
256,192,10678,1,0,0:0:0:0:
256,192,10994,1,0,0:0:0:0:
256,192,11152,1,8,0:0:0:0:
256,192,11310,1,0,0:0:0:0:
256,192,11468,1,8,0:0:0:0:
256,192,11784,1,8,0:0:0:0:
256,192,12100,1,8,0:0:0:0:
256,192,12257,1,0,0:0:0:0:
256,192,12415,1,8,0:0:0:0:
256,192,12573,1,0,0:0:0:0:
256,192,12731,1,0,0:0:0:0:
256,192,13047,1,8,0:0:0:0:
256,192,13205,1,0,0:0:0:0:
256,192,13521,1,0,0:0:0:0:
256,192,13678,1,8,0:0:0:0:
256,192,13836,1,0,0:0:0:0:
256,192,13994,1,8,0:0:0:0:
256,192,14310,1,8,0:0:0:0:
256,192,14468,1,0,0:0:0:0:
256,192,14626,1,8,0:0:0:0:
256,192,14942,1,8,0:0:0:0:
256,192,15100,1,0,0:0:0:0:
256,192,15257,1,0,0:0:0:0:
256,192,15573,1,8,0:0:0:0:
256,192,15889,1,0,0:0:0:0:
256,192,16047,1,0,0:0:0:0:
256,192,16205,1,8,0:0:0:0:
256,192,16363,1,0,0:0:0:0:
256,192,16521,1,0,0:0:0:0:
256,192,16836,1,8,0:0:0:0:
256,192,17152,1,8,0:0:0:0:
256,192,17310,1,0,0:0:0:0:
256,192,17468,1,8,0:0:0:0:
256,192,17626,1,0,0:0:0:0:
256,192,17784,1,0,0:0:0:0:
256,192,18100,1,8,0:0:0:0:
256,192,18257,1,0,0:0:0:0:
256,192,18415,1,8,0:0:0:0:
256,192,18731,1,8,0:0:0:0:
256,192,18889,1,0,0:0:0:0:
256,192,19047,1,0,0:0:0:0:
256,192,19363,1,8,0:0:0:0:
256,192,19678,1,0,0:0:0:0:
256,192,19836,1,0,0:0:0:0:
256,192,19994,1,8,0:0:0:0:
256,192,20152,1,0,0:0:0:0:
256,192,20310,1,0,0:0:0:0:
256,192,20626,1,8,0:0:0:0:
256,192,20784,1,0,0:0:0:0:
256,192,20942,1,0,0:0:0:0:
256,192,21257,1,8,0:0:0:0:
256,192,21415,1,0,0:0:0:0:
256,192,21573,1,8,0:0:0:0:
256,192,21889,1,0,0:0:0:0:
256,192,22047,1,8,0:0:0:0:
256,192,22363,1,0,0:0:0:0:
256,192,22521,1,8,0:0:0:0:
256,192,22678,1,8,0:0:0:0:
256,192,22836,1,4,0:0:0:0:
256,192,23152,1,8,0:0:0:0:
256,192,23310,1,0,0:0:0:0:
256,192,23626,1,0,0:0:0:0:
256,192,23784,1,8,0:0:0:0:
256,192,23942,1,0,0:0:0:0:
256,192,24100,1,0,0:0:0:0:
256,192,24415,1,8,0:0:0:0:
256,192,24573,1,0,0:0:0:0:
256,192,24731,1,0,0:0:0:0:
256,192,25047,1,8,0:0:0:0:
256,192,25205,1,0,0:0:0:0:
256,192,25363,1,8,0:0:0:0:
256,192,25678,1,8,0:0:0:0:
256,192,25994,1,8,0:0:0:0:
256,192,26310,1,0,0:0:0:0:
256,192,26468,1,12,0:0:0:0:
256,192,26784,1,0,0:0:0:0:
256,192,26942,1,0,0:0:0:0:
256,192,27257,1,8,0:0:0:0:
256,192,27573,1,4,0:0:0:0:
256,192,27889,1,0,0:0:0:0:
256,192,28205,1,8,0:0:0:0:
256,192,28363,1,0,0:0:0:0:
256,192,28678,1,0,0:0:0:0:
256,192,28836,1,8,0:0:0:0:
256,192,28994,1,0,0:0:0:0:
256,192,29152,1,8,0:0:0:0:
256,192,29468,1,8,0:0:0:0:
256,192,29626,1,0,0:0:0:0:
256,192,29784,1,0,0:0:0:0:
256,192,30100,1,8,0:0:0:0:
256,192,30257,1,0,0:0:0:0:
256,192,30415,1,8,0:0:0:0:
256,192,30889,1,0,0:0:0:0:
256,192,31047,1,8,0:0:0:0:
256,192,31521,1,0,0:0:0:0:
256,192,31678,1,8,0:0:0:0:
256,192,31994,1,8,0:0:0:0:
256,192,32152,1,0,0:0:0:0:
256,192,32310,1,8,0:0:0:0:
256,192,32626,1,8,0:0:0:0:
256,192,32784,1,0,0:0:0:0:
256,192,32942,1,4,0:0:0:0:
256,192,33257,1,8,0:0:0:0:
256,192,33415,1,0,0:0:0:0:
256,192,33731,1,0,0:0:0:0:
256,192,33889,1,8,0:0:0:0:
256,192,34047,1,8,0:0:0:0:
256,192,34205,1,0,0:0:0:0:
256,192,34521,1,8,0:0:0:0:
256,192,34836,1,0,0:0:0:0:
256,192,35152,1,8,0:0:0:0:
256,192,35310,1,0,0:0:0:0:
256,192,35468,1,0,0:0:0:0:
256,192,35784,1,8,0:0:0:0:
256,192,35942,1,0,0:0:0:0:
256,192,36100,1,0,0:0:0:0:
256,192,36415,1,8,0:0:0:0:
256,192,36573,1,0,0:0:0:0:
256,192,36731,1,0,0:0:0:0:
256,192,37047,1,8,0:0:0:0:
256,192,37205,1,8,0:0:0:0:
256,192,37363,1,0,0:0:0:0:
256,192,37678,1,8,0:0:0:0:
256,192,37836,1,0,0:0:0:0:
256,192,37994,1,0,0:0:0:0:
256,192,38310,1,8,0:0:0:0:
256,192,38468,1,8,0:0:0:0:
256,192,38626,1,0,0:0:0:0:
256,192,38784,1,0,0:0:0:0:
256,192,38942,1,8,0:0:0:0:
256,192,39257,1,8,0:0:0:0:
256,192,39573,1,8,0:0:0:0:
256,192,39731,1,0,0:0:0:0:
256,192,39889,1,8,0:0:0:0:
256,192,40047,1,0,0:0:0:0:
256,192,40205,1,8,0:0:0:0:
256,192,40521,1,0,0:0:0:0:
256,192,40836,1,8,0:0:0:0:
256,192,40994,1,0,0:0:0:0:
256,192,41152,1,0,0:0:0:0:
256,192,41468,1,8,0:0:0:0:
256,192,41626,1,0,0:0:0:0:
256,192,41784,1,8,0:0:0:0:
256,192,41942,1,8,0:0:0:0:
256,192,42257,1,8,0:0:0:0:
256,192,42573,1,0,0:0:0:0:
256,192,42731,1,8,0:0:0:0:
256,192,42889,1,0,0:0:0:0:
256,192,43047,1,4,0:0:0:0:
256,192,43363,1,8,0:0:0:0:
256,192,43521,1,0,0:0:0:0:
256,192,43836,1,0,0:0:0:0:
256,192,43994,1,8,0:0:0:0:
256,192,44152,1,0,0:0:0:0:
256,192,44310,1,0,0:0:0:0:
256,192,44626,1,8,0:0:0:0:
256,192,44784,1,0,0:0:0:0:
256,192,44942,1,8,0:0:0:0:
256,192,45257,1,8,0:0:0:0:
256,192,45415,1,0,0:0:0:0:
256,192,45573,1,8,0:0:0:0:
256,192,45889,1,8,0:0:0:0:
256,192,46205,1,8,0:0:0:0:
256,192,46521,1,0,0:0:0:0:
256,192,46678,1,12,0:0:0:0:
256,192,46994,1,0,0:0:0:0:
256,192,47152,1,0,0:0:0:0:
256,192,47468,1,8,0:0:0:0:
256,192,47784,1,4,0:0:0:0:
256,192,48100,1,0,0:0:0:0:
256,192,48415,1,8,0:0:0:0:
256,192,48573,1,0,0:0:0:0:
256,192,48889,1,0,0:0:0:0:
256,192,49047,1,8,0:0:0:0:
256,192,49205,1,0,0:0:0:0:
256,192,49363,1,0,0:0:0:0:
256,192,49678,1,8,0:0:0:0:
256,192,49836,1,0,0:0:0:0:
256,192,49994,1,8,0:0:0:0:
256,192,50310,1,8,0:0:0:0:
256,192,50468,1,0,0:0:0:0:
256,192,50626,1,8,0:0:0:0:
256,192,51100,1,0,0:0:0:0:
256,192,51257,1,8,0:0:0:0:
256,192,51731,1,0,0:0:0:0:
256,192,51889,1,8,0:0:0:0:
256,192,52205,1,8,0:0:0:0:
256,192,52363,1,0,0:0:0:0:
256,192,52521,1,8,0:0:0:0:
256,192,52836,1,8,0:0:0:0:
256,192,52994,1,0,0:0:0:0:
256,192,53152,1,4,0:0:0:0:
256,192,53468,1,8,0:0:0:0:
256,192,53626,1,0,0:0:0:0:
256,192,53942,1,0,0:0:0:0:
256,192,54100,1,8,0:0:0:0:
256,192,54257,1,8,0:0:0:0:
256,192,54415,1,0,0:0:0:0:
256,192,54731,1,8,0:0:0:0:
256,192,54889,1,8,0:0:0:0:
256,192,55047,1,0,0:0:0:0:
256,192,55363,1,8,0:0:0:0:
256,192,55521,1,0,0:0:0:0:
256,192,55678,1,8,0:0:0:0:
256,192,55836,1,8,0:0:0:0:
256,192,56152,1,0,0:0:0:0:
256,192,56310,1,8,0:0:0:0:
256,192,56626,1,8,0:0:0:0:
256,192,56784,1,0,0:0:0:0:
256,192,56942,1,0,0:0:0:0:
256,192,57100,1,0,0:0:0:0:
256,192,57415,1,8,0:0:0:0:
256,192,57573,1,0,0:0:0:0:
256,192,57889,1,8,0:0:0:0:
256,192,58205,1,0,0:0:0:0:
256,192,58521,1,8,0:0:0:0:
256,192,58678,1,0,0:0:0:0:
256,192,58836,1,0,0:0:0:0:
256,192,58994,1,0,0:0:0:0:
256,192,59152,1,8,0:0:0:0:
256,192,59468,1,0,0:0:0:0:
256,192,59784,1,8,0:0:0:0:
256,192,59942,1,0,0:0:0:0:
256,192,60100,1,0,0:0:0:0:
256,192,60415,1,8,0:0:0:0:
256,192,60573,1,0,0:0:0:0:
256,192,60731,1,0,0:0:0:0:
256,192,61047,1,8,0:0:0:0:
256,192,61205,1,0,0:0:0:0:
256,192,61363,1,8,0:0:0:0:
256,192,61678,1,8,0:0:0:0:
256,192,61836,1,0,0:0:0:0:
256,192,61994,1,8,0:0:0:0:
256,192,62152,1,0,0:0:0:0:
256,192,62468,1,8,0:0:0:0:
256,192,62626,1,8,0:0:0:0:
256,192,62942,1,8,0:0:0:0:
256,192,63100,1,0,0:0:0:0:
256,192,63257,1,12,0:0:0:0:
256,192,63573,1,8,0:0:0:0:
256,192,63889,1,8,0:0:0:0:
256,192,64047,1,0,0:0:0:0:
256,192,64205,1,0,0:0:0:0:
256,192,64284,1,0,0:0:0:0:
256,192,64363,1,0,0:0:0:0:
256,192,64521,1,0,0:0:0:0:
256,192,64836,1,8,0:0:0:0:
256,192,65152,1,8,0:0:0:0:
256,192,65310,1,0,0:0:0:0:
256,192,65468,1,0,0:0:0:0:
256,192,65547,1,0,0:0:0:0:
256,192,65626,1,0,0:0:0:0:
256,192,65784,1,8,0:0:0:0:
256,192,66100,1,8,0:0:0:0:
256,192,66415,1,8,0:0:0:0:
256,192,66573,1,0,0:0:0:0:
256,192,66731,1,8,0:0:0:0:
256,192,66810,1,8,0:0:0:0:
256,192,66889,1,8,0:0:0:0:
256,192,67047,1,0,0:0:0:0:
256,192,67363,1,8,0:0:0:0:
256,192,67678,1,0,0:0:0:0:
256,192,67836,1,0,0:0:0:0:
256,192,67994,1,8,0:0:0:0:
256,192,68152,1,0,0:0:0:0:
256,192,68309,1,8,0:0:0:0:
256,192,68625,1,8,0:0:0:0:
256,192,68783,1,0,0:0:0:0:
256,192,69099,1,0,0:0:0:0:
256,192,69257,1,8,0:0:0:0:
256,192,69415,1,0,0:0:0:0:
256,192,69573,1,0,0:0:0:0:
256,192,69888,1,8,0:0:0:0:
256,192,70204,1,8,0:0:0:0:
256,192,70362,1,0,0:0:0:0:
256,192,70520,1,8,0:0:0:0:
256,192,70678,1,8,0:0:0:0:
256,192,70836,1,0,0:0:0:0:
256,192,71152,1,8,0:0:0:0:
256,192,71309,1,0,0:0:0:0:
256,192,71625,1,0,0:0:0:0:
256,192,71783,1,8,0:0:0:0:
256,192,71941,1,0,0:0:0:0:
256,192,72099,1,8,0:0:0:0:
256,192,72415,1,8,0:0:0:0:
256,192,72731,1,8,0:0:0:0:
256,192,72888,1,0,0:0:0:0:
256,192,73046,1,8,0:0:0:0:
256,192,73204,1,0,0:0:0:0:
256,192,73362,1,0,0:0:0:0:
256,192,73678,1,8,0:0:0:0:
256,192,73836,1,0,0:0:0:0:
256,192,74152,1,0,0:0:0:0:
256,192,74309,1,8,0:0:0:0:
256,192,74467,1,0,0:0:0:0:
256,192,74625,1,8,0:0:0:0:
256,192,74941,1,8,0:0:0:0:
256,192,75099,1,0,0:0:0:0:
256,192,75257,1,8,0:0:0:0:
256,192,75573,1,8,0:0:0:0:
256,192,75731,1,0,0:0:0:0:
256,192,75888,1,0,0:0:0:0:
256,192,76204,1,8,0:0:0:0:
256,192,76520,1,0,0:0:0:0:
256,192,76678,1,0,0:0:0:0:
256,192,76836,1,8,0:0:0:0:
256,192,76994,1,0,0:0:0:0:
256,192,77152,1,0,0:0:0:0:
256,192,77467,1,8,0:0:0:0:
256,192,77783,1,8,0:0:0:0:
256,192,77941,1,0,0:0:0:0:
256,192,78099,1,8,0:0:0:0:
256,192,78257,1,0,0:0:0:0:
256,192,78415,1,0,0:0:0:0:
256,192,78731,1,8,0:0:0:0:
256,192,78888,1,0,0:0:0:0:
256,192,79046,1,8,0:0:0:0:
256,192,79362,1,8,0:0:0:0:
256,192,79520,1,0,0:0:0:0:
256,192,79678,1,0,0:0:0:0:
256,192,79994,1,8,0:0:0:0:
256,192,80309,1,0,0:0:0:0:
256,192,80467,1,0,0:0:0:0:
256,192,80625,1,8,0:0:0:0:
256,192,80783,1,0,0:0:0:0:
256,192,80941,1,0,0:0:0:0:
256,192,81257,1,8,0:0:0:0:
256,192,81415,1,0,0:0:0:0:
256,192,81573,1,0,0:0:0:0:
256,192,81888,1,8,0:0:0:0:
256,192,82046,1,0,0:0:0:0:
256,192,82204,1,8,0:0:0:0:
256,192,82520,1,0,0:0:0:0:
256,192,82678,1,8,0:0:0:0:
256,192,82994,1,0,0:0:0:0:
256,192,83152,1,8,0:0:0:0:
256,192,83309,1,8,0:0:0:0:
256,192,83467,5,4,0:0:0:0:
256,192,83784,5,8,0:0:0:0:
256,192,83942,1,0,0:0:0:0:
256,192,84100,1,8,0:0:0:0:
256,192,84415,1,8,0:0:0:0:
256,192,84731,1,8,0:0:0:0:
256,192,84889,1,0,0:0:0:0:
256,192,85047,1,8,0:0:0:0:
256,192,85205,1,0,0:0:0:0:
256,192,85363,1,0,0:0:0:0:
256,192,85678,1,8,0:0:0:0:
256,192,85836,1,0,0:0:0:0:
256,192,85994,1,8,0:0:0:0:
256,192,86310,1,8,0:0:0:0:
256,192,86626,1,8,0:0:0:0:
256,192,86942,1,0,0:0:0:0:
256,192,87100,1,12,0:0:0:0:
256,192,87415,1,0,0:0:0:0:
256,192,87573,1,0,0:0:0:0:
256,192,87889,1,8,0:0:0:0:
256,192,88205,1,4,0:0:0:0:
256,192,88521,1,0,0:0:0:0:
256,192,88836,1,8,0:0:0:0:
256,192,88994,1,0,0:0:0:0:
256,192,89310,1,0,0:0:0:0:
256,192,89468,1,8,0:0:0:0:
256,192,89626,1,0,0:0:0:0:
256,192,89784,1,8,0:0:0:0:
256,192,90100,1,8,0:0:0:0:
256,192,90257,1,8,0:0:0:0:
256,192,90415,1,0,0:0:0:0:
256,192,90731,1,8,0:0:0:0:
256,192,90889,1,0,0:0:0:0:
256,192,91047,1,8,0:0:0:0:
256,192,91521,1,0,0:0:0:0:
256,192,91678,1,8,0:0:0:0:
256,192,92152,1,0,0:0:0:0:
256,192,92310,1,8,0:0:0:0:
256,192,92626,1,8,0:0:0:0:
256,192,92784,1,0,0:0:0:0:
256,192,92942,1,8,0:0:0:0:
256,192,93257,1,8,0:0:0:0:
256,192,93415,1,0,0:0:0:0:
256,192,93573,1,4,0:0:0:0:
256,192,93889,1,8,0:0:0:0:
256,192,94047,1,0,0:0:0:0:
256,192,94363,1,0,0:0:0:0:
256,192,94521,1,8,0:0:0:0:
256,192,94678,1,8,0:0:0:0:
256,192,94836,1,8,0:0:0:0:
256,192,95152,1,8,0:0:0:0:
256,192,95310,1,0,0:0:0:0:
256,192,95468,1,0,0:0:0:0:
256,192,95784,1,8,0:0:0:0:
256,192,95942,1,0,0:0:0:0:
256,192,96100,1,0,0:0:0:0:
256,192,96415,1,8,0:0:0:0:
256,192,96573,1,0,0:0:0:0:
256,192,96731,1,8,0:0:0:0:
256,192,97047,1,8,0:0:0:0:
256,192,97205,1,8,0:0:0:0:
256,192,97363,1,0,0:0:0:0:
256,192,97678,1,8,0:0:0:0:
256,192,97836,1,0,0:0:0:0:
256,192,97994,1,8,0:0:0:0:
256,192,98152,1,0,0:0:0:0:
256,192,98310,1,8,0:0:0:0:
256,192,98626,1,0,0:0:0:0:
256,192,98942,1,8,0:0:0:0:
256,192,99100,1,8,0:0:0:0:
256,192,99257,1,0,0:0:0:0:
256,192,99415,1,0,0:0:0:0:
256,192,99573,1,8,0:0:0:0:
256,192,99889,1,0,0:0:0:0:
256,192,100205,1,8,0:0:0:0:
256,192,100363,1,0,0:0:0:0:
256,192,100678,1,0,0:0:0:0:
256,192,100836,1,8,0:0:0:0:
256,192,101152,1,0,0:0:0:0:
256,192,101468,1,8,0:0:0:0:
256,192,101626,1,0,0:0:0:0:
256,192,101784,1,0,0:0:0:0:
256,192,102100,1,8,0:0:0:0:
256,192,102257,1,0,0:0:0:0:
256,192,102415,1,8,0:0:0:0:
256,192,102573,1,8,0:0:0:0:
256,192,102889,1,8,0:0:0:0:
256,192,103205,1,0,0:0:0:0:
256,192,103363,1,8,0:0:0:0:
256,192,103521,1,0,0:0:0:0:
256,192,103678,1,4,0:0:0:0:
256,192,103994,1,8,0:0:0:0:
256,192,104152,1,0,0:0:0:0:
256,192,104468,1,0,0:0:0:0:
256,192,104626,1,8,0:0:0:0:
256,192,104784,1,0,0:0:0:0:
256,192,104942,1,0,0:0:0:0:
256,192,105257,1,8,0:0:0:0:
256,192,105415,1,0,0:0:0:0:
256,192,105573,1,0,0:0:0:0:
256,192,105889,1,8,0:0:0:0:
256,192,106047,1,0,0:0:0:0:
256,192,106205,1,8,0:0:0:0:
256,192,106521,1,8,0:0:0:0:
256,192,106836,1,8,0:0:0:0:
256,192,107152,1,0,0:0:0:0:
256,192,107310,1,12,0:0:0:0:
256,192,107626,1,0,0:0:0:0:
256,192,107784,1,0,0:0:0:0:
256,192,108100,1,8,0:0:0:0:
256,192,108415,1,4,0:0:0:0:
256,192,108731,1,0,0:0:0:0:
256,192,109047,1,8,0:0:0:0:
256,192,109205,1,0,0:0:0:0:
256,192,109521,1,0,0:0:0:0:
256,192,109678,1,8,0:0:0:0:
256,192,109836,1,0,0:0:0:0:
256,192,109994,1,0,0:0:0:0:
256,192,110310,1,8,0:0:0:0:
256,192,110468,1,0,0:0:0:0:
256,192,110626,1,8,0:0:0:0:
256,192,110942,1,8,0:0:0:0:
256,192,111100,1,0,0:0:0:0:
256,192,111257,1,8,0:0:0:0:
256,192,111731,1,0,0:0:0:0:
256,192,111889,1,8,0:0:0:0:
256,192,112363,1,0,0:0:0:0:
256,192,112521,1,8,0:0:0:0:
256,192,112836,1,8,0:0:0:0:
256,192,112994,1,0,0:0:0:0:
256,192,113152,1,8,0:0:0:0:
256,192,113468,1,8,0:0:0:0:
256,192,113626,1,0,0:0:0:0:
256,192,113784,1,4,0:0:0:0:
256,192,114100,1,8,0:0:0:0:
256,192,114257,1,0,0:0:0:0:
256,192,114573,1,0,0:0:0:0:
256,192,114731,1,8,0:0:0:0:
256,192,114889,1,0,0:0:0:0:
256,192,115047,1,0,0:0:0:0:
256,192,115363,1,8,0:0:0:0:
256,192,115521,1,8,0:0:0:0:
256,192,115678,1,0,0:0:0:0:
256,192,115994,1,8,0:0:0:0:
256,192,116152,1,0,0:0:0:0:
256,192,116310,1,8,0:0:0:0:
256,192,116626,1,8,0:0:0:0:
256,192,116784,1,0,0:0:0:0:
256,192,116942,1,0,0:0:0:0:
256,192,117257,1,8,0:0:0:0:
256,192,117415,1,0,0:0:0:0:
256,192,117573,1,0,0:0:0:0:
256,192,117889,1,8,0:0:0:0:
256,192,118047,1,8,0:0:0:0:
256,192,118205,1,0,0:0:0:0:
256,192,118363,1,0,0:0:0:0:
256,192,118521,1,8,0:0:0:0:
256,192,118836,1,0,0:0:0:0:
256,192,119152,1,8,0:0:0:0:
256,192,119310,1,0,0:0:0:0:
256,192,119468,1,0,0:0:0:0:
256,192,119626,1,0,0:0:0:0:
256,192,119784,1,8,0:0:0:0:
256,192,119942,1,0,0:0:0:0:
256,192,120100,1,0,0:0:0:0:
256,192,120415,1,8,0:0:0:0:
256,192,120573,1,0,0:0:0:0:
256,192,120731,1,0,0:0:0:0:
256,192,121047,1,8,0:0:0:0:
256,192,121205,1,0,0:0:0:0:
256,192,121363,1,0,0:0:0:0:
256,192,121678,1,8,0:0:0:0:
256,192,121836,1,0,0:0:0:0:
256,192,121994,1,8,0:0:0:0:
256,192,122310,1,8,0:0:0:0:
256,192,122468,1,0,0:0:0:0:
256,192,122626,1,8,0:0:0:0:
256,192,122784,1,0,0:0:0:0:
256,192,123100,1,8,0:0:0:0:
256,192,123257,1,0,0:0:0:0:
256,192,123573,1,8,0:0:0:0:
256,192,123731,1,0,0:0:0:0:
256,192,123889,1,12,0:0:0:0:
256,192,124363,1,0,0:0:0:0:
256,192,124521,1,8,0:0:0:0:
256,192,124836,1,0,0:0:0:0:
256,192,124994,1,0,0:0:0:0:
256,192,125152,1,12,0:0:0:0:
256,192,125626,1,0,0:0:0:0:
256,192,125784,1,8,0:0:0:0:
256,192,126100,1,0,0:0:0:0:
256,192,126257,1,0,0:0:0:0:
256,192,126415,1,8,0:0:0:0:
256,192,126731,1,8,0:0:0:0:
256,192,127047,1,8,0:0:0:0:
256,192,127363,1,0,0:0:0:0:
256,192,127521,1,12,0:0:0:0:
256,192,127836,1,8,0:0:0:0:
256,192,127994,1,0,0:0:0:0:
256,192,128310,1,8,0:0:0:0:
256,192,128626,1,12,0:0:0:0:
256,192,128942,1,0,0:0:0:0:
256,192,129257,1,8,0:0:0:0:
256,192,129415,1,0,0:0:0:0:
256,192,129573,1,8,0:0:0:0:
256,192,129889,1,8,0:0:0:0:
256,192,130047,1,0,0:0:0:0:
256,192,130205,1,0,0:0:0:0:
256,192,130521,1,8,0:0:0:0:
256,192,130678,1,0,0:0:0:0:
256,192,130836,1,8,0:0:0:0:
256,192,130994,1,0,0:0:0:0:
256,192,131152,1,8,0:0:0:0:
256,192,131468,1,12,0:0:0:0:
256,192,131626,1,12,0:0:0:0:
256,192,131784,1,12,0:0:0:0:
256,192,132100,1,4,0:0:0:0:
256,192,132257,1,4,0:0:0:0:
256,192,132415,1,4,0:0:0:0:
256,192,132731,1,12,0:0:0:0:
256,192,132889,1,12,0:0:0:0:
256,192,133047,1,4,0:0:0:0:
256,192,133363,1,4,0:0:0:0:
256,192,133521,1,4,0:0:0:0:
256,192,133678,1,12,0:0:0:0:
256,192,133994,1,4,0:0:0:0:
256,192,134310,1,8,0:0:0:0:
256,192,134468,1,0,0:0:0:0:
256,192,134626,1,8,0:0:0:0:
256,192,134705,1,8,0:0:0:0:
256,192,134784,1,8,0:0:0:0:
256,192,134942,1,0,0:0:0:0:
256,192,135100,1,8,0:0:0:0:
256,192,135257,1,0,0:0:0:0:
256,192,135573,1,8,0:0:0:0:
256,192,135889,1,8,0:0:0:0:
256,192,136047,1,0,0:0:0:0:
256,192,136205,1,8,0:0:0:0:
256,192,136363,1,8,0:0:0:0:
256,192,136521,1,0,0:0:0:0:
256,192,136836,1,0,0:0:0:0:
256,192,136994,1,8,0:0:0:0:
256,192,137152,1,0,0:0:0:0:
256,192,137231,1,0,0:0:0:0:
256,192,137310,1,0,0:0:0:0:
256,192,137468,1,8,0:0:0:0:
256,192,137626,1,0,0:0:0:0:
256,192,137784,1,8,0:0:0:0:
256,192,138100,1,8,0:0:0:0:
256,192,138257,1,8,0:0:0:0:
256,192,138415,1,0,0:0:0:0:
256,192,138731,1,8,0:0:0:0:
256,192,139047,1,0,0:0:0:0:
256,192,139205,1,0,0:0:0:0:
256,192,139363,1,8,0:0:0:0:
256,192,139678,1,0,0:0:0:0:
256,192,139836,1,0,0:0:0:0:
256,192,139994,1,8,0:0:0:0:
256,192,140152,1,8,0:0:0:0:
256,192,140310,1,0,0:0:0:0:
256,192,140626,1,8,0:0:0:0:
256,192,140784,1,0,0:0:0:0:
256,192,140942,1,8,0:0:0:0:
256,192,141257,1,8,0:0:0:0:
256,192,141415,1,0,0:0:0:0:
256,192,141573,1,8,0:0:0:0:
256,192,141889,1,8,0:0:0:0:
256,192,142047,1,0,0:0:0:0:
256,192,142363,1,0,0:0:0:0:
256,192,142521,1,8,0:0:0:0:
256,192,142678,1,0,0:0:0:0:
256,192,142836,1,8,0:0:0:0:
256,192,143152,1,0,0:0:0:0:
256,192,143310,1,8,0:0:0:0:
256,192,143626,1,0,0:0:0:0:
256,192,143784,1,8,0:0:0:0:
256,192,143942,1,0,0:0:0:0:
256,192,144100,1,12,0:0:0:0:
256,192,144573,1,0,0:0:0:0:
256,192,144731,1,8,0:0:0:0:
256,192,145047,1,0,0:0:0:0:
256,192,145205,1,0,0:0:0:0:
256,192,145363,1,12,0:0:0:0:
256,192,145836,1,0,0:0:0:0:
256,192,145994,1,8,0:0:0:0:
256,192,146310,1,0,0:0:0:0:
256,192,146468,1,0,0:0:0:0:
256,192,146626,1,8,0:0:0:0:
256,192,146942,1,8,0:0:0:0:
256,192,147257,1,8,0:0:0:0:
256,192,147573,1,0,0:0:0:0:
256,192,147731,1,12,0:0:0:0:
256,192,148047,1,8,0:0:0:0:
256,192,148205,1,0,0:0:0:0:
256,192,148521,1,8,0:0:0:0:
256,192,148836,1,12,0:0:0:0:
256,192,149152,1,0,0:0:0:0:
256,192,149468,1,8,0:0:0:0:
256,192,149626,1,0,0:0:0:0:
256,192,149784,1,8,0:0:0:0:
256,192,150100,1,8,0:0:0:0:
256,192,150257,1,0,0:0:0:0:
256,192,150415,1,0,0:0:0:0:
256,192,150731,1,8,0:0:0:0:
256,192,150889,1,0,0:0:0:0:
256,192,151047,1,8,0:0:0:0:
256,192,151205,1,0,0:0:0:0:
256,192,151363,1,8,0:0:0:0:
256,192,151678,1,12,0:0:0:0:
256,192,151836,1,12,0:0:0:0:
256,192,151994,1,12,0:0:0:0:
256,192,152310,1,4,0:0:0:0:
256,192,152468,1,4,0:0:0:0:
256,192,152626,1,4,0:0:0:0:
256,192,152942,1,12,0:0:0:0:
256,192,153100,1,12,0:0:0:0:
256,192,153257,1,4,0:0:0:0:
256,192,153573,1,4,0:0:0:0:
256,192,153731,1,4,0:0:0:0:
256,192,153889,1,12,0:0:0:0:
256,192,154205,1,4,0:0:0:0:
256,192,154521,1,8,0:0:0:0:
256,192,154678,1,0,0:0:0:0:
256,192,154836,1,8,0:0:0:0:
256,192,154915,1,8,0:0:0:0:
256,192,154994,1,8,0:0:0:0:
256,192,155152,1,0,0:0:0:0:
256,192,155310,1,8,0:0:0:0:
256,192,155468,1,0,0:0:0:0:
256,192,155784,1,8,0:0:0:0:
256,192,156100,1,8,0:0:0:0:
256,192,156257,1,0,0:0:0:0:
256,192,156415,1,8,0:0:0:0:
256,192,156573,1,8,0:0:0:0:
256,192,156731,1,0,0:0:0:0:
256,192,157047,1,0,0:0:0:0:
256,192,157205,1,8,0:0:0:0:
256,192,157363,1,0,0:0:0:0:
256,192,157442,1,0,0:0:0:0:
256,192,157521,1,0,0:0:0:0:
256,192,157678,1,8,0:0:0:0:
256,192,157836,1,0,0:0:0:0:
256,192,157994,1,8,0:0:0:0:
256,192,158310,1,8,0:0:0:0:
256,192,158468,1,8,0:0:0:0:
256,192,158626,1,0,0:0:0:0:
256,192,158942,1,8,0:0:0:0:
256,192,159257,1,0,0:0:0:0:
256,192,159415,1,0,0:0:0:0:
256,192,159573,1,8,0:0:0:0:
256,192,159889,1,0,0:0:0:0:
256,192,160047,1,0,0:0:0:0:
256,192,160205,1,8,0:0:0:0:
256,192,160363,1,8,0:0:0:0:
256,192,160521,1,0,0:0:0:0:
256,192,160836,1,8,0:0:0:0:
256,192,160994,1,0,0:0:0:0:
256,192,161152,1,8,0:0:0:0:
256,192,161468,1,8,0:0:0:0:
256,192,161626,1,0,0:0:0:0:
256,192,161784,1,8,0:0:0:0:
256,192,162100,1,8,0:0:0:0:
256,192,162257,1,0,0:0:0:0:
256,192,162573,1,0,0:0:0:0:
256,192,162731,1,8,0:0:0:0:
256,192,163047,1,8,0:0:0:0:
256,192,163205,1,8,0:0:0:0:
256,192,163521,1,8,0:0:0:0:
256,192,163678,1,0,0:0:0:0:
256,192,163994,1,8,0:0:0:0:
256,192,164310,1,4,0:0:0:0:
