osu file format v14

[General]
AudioFilename: O.M. Keleus ft. Hatsune Miku - Oplosan.mp3
AudioLeadIn: 0
PreviewTime: 123257
Countdown: 0
SampleSet: Soft
StackLeniency: 0.7
Mode: 0
LetterboxInBreaks: 0
WidescreenStoryboard: 0

[Editor]
Bookmarks: 63257,83468
DistanceSpacing: 1.2
BeatDivisor: 4
GridSize: 4
TimelineZoom: 2.699999

[Metadata]
Title:Oplosan
TitleUnicode:Oplosan
Artist:O.M. Keleus ft. Hatsune Miku
ArtistUnicode:O.M. Keleus ft. Hatsune Miku
Creator:puxtu
Version:Gila
Source:
Tags:AncuL Ursa Fort Surono faiz007 guitaruz dangdut koplo bahasa indonesia indonesian indo javanese jawa wong jowo vocaloid Intel007 Mix Susu Stroberi Records nakedupsidedown mabok miras alcohol YKS soimah TransTV
BeatmapID:984956
BeatmapSetID:459502

[Difficulty]
HPDrainRate:7
CircleSize:4
OverallDifficulty:8
ApproachRate:9
SliderMultiplier:1.4
SliderTickRate:1

[Events]
//Background and Video events
0,0,"Miku osu.jpg",0,0
//Break Periods
//Storyboard Layer 0 (Background)
//Storyboard Layer 1 (Fail)
//Storyboard Layer 2 (Pass)
//Storyboard Layer 3 (Foreground)
//Storyboard Sound Samples

[TimingPoints]
100,315.789473684211,4,2,1,85,1,0
2626,-83.3333333333333,4,2,1,85,0,0
25363,-76.9230769230769,4,2,1,85,0,0
26468,-83.3333333333333,4,2,1,85,0,0
27573,-76.9230769230769,4,2,1,85,0,0
27889,-83.3333333333333,4,2,1,85,0,0
30415,-76.9230769230769,4,2,1,85,0,0
32942,-83.3333333333333,4,2,1,85,0,0
45573,-76.9230769230769,4,2,1,85,0,0
48100,-83.3333333333333,4,2,1,85,0,0
50626,-76.9230769230769,4,2,1,85,0,0
53152,-83.3333333333333,4,2,1,85,0,0
85994,-66.6666666666667,4,2,1,85,0,0
87415,-83.3333333333333,4,2,1,85,0,0
88205,-66.6666666666667,4,2,1,85,0,0
88521,-83.3333333333333,4,2,1,85,0,0
91047,-66.6666666666667,4,2,1,85,0,0
93573,-83.3333333333333,4,2,1,85,0,0
106205,-66.6666666666667,4,2,1,85,0,0
107468,-100,4,2,1,85,0,0
108415,-66.6666666666667,4,2,1,85,0,0
108731,-83.3333333333333,4,2,1,85,0,0
111257,-66.6666666666667,4,2,1,85,0,0
113784,-83.3333333333333,4,2,1,85,0,0
123889,-76.9230769230769,4,2,1,85,0,1
126415,-66.6666666666667,4,2,1,85,0,1
127836,-100,4,2,1,85,0,1
128626,-66.6666666666667,4,2,1,85,0,1
128942,-76.9230769230769,4,2,1,85,0,1
143468,-100,4,2,1,85,0,0
144100,-76.9230769230769,4,2,1,85,0,1
146626,-66.6666666666667,4,2,1,85,0,1
148047,-100,4,2,1,85,0,1
148836,-66.6666666666667,4,2,1,85,0,1
149152,-76.9230769230769,4,2,1,85,0,1
164310,-100,4,2,1,85,0,0

[HitObjects]
168,136,1363,6,0,P|180:188|184:228,1,70,0|0,0:0|0:0,0:0:0:0:
180,288,1678,1,0,0:0:0:0:
176,112,1836,2,0,P|208:152|224:252,1,140,0|0,0:0|0:0,0:0:0:0:
88,180,2310,2,0,P|80:136|80:96,1,70,0|0,0:0|0:0,0:0:0:0:
152,276,2626,6,0,L|48:268,1,83.9999974365235,4|0,0:0|0:0,0:0:0:0:
256,332,2942,2,0,L|344:312,1,83.9999974365235,8|2,0:0|0:0,0:0:0:0:
312,216,3257,2,0,L|364:148,1,83.9999974365235,0|2,0:0|0:0,0:0:0:0:
272,108,3573,2,0,L|288:16,1,83.9999974365235,8|0,0:0|0:0,0:0:0:0:
388,40,3889,5,2,0:0:0:0:
208,168,4047,2,0,P|192:128|180:0,1,167.999994873047,0|2,0:0|0:0,0:0:0:0:
336,176,4521,2,0,P|332:224|316:276,1,83.9999974365235,0|2,0:0|0:0,0:0:0:0:
232,336,4836,2,0,P|221:295|218:253,1,83.9999974365235,8|0,0:0|0:0,0:0:0:0:
400,120,5152,6,0,P|424:172|432:296,1,167.999994873047,2|8,0:0|0:0,0:0:0:0:
391,372,5626,2,0,P|339:344|227:336,1,167.999994873047,2|2,0:0|0:0,0:0:0:0:
136,360,6100,1,8,0:0:0:0:
128,176,6257,1,0,0:0:0:0:
88,268,6415,6,0,P|48:236|28:196,1,83.9999974365235,2|0,0:0|0:0,0:0:0:0:
160,84,6731,2,0,P|200:116|220:156,1,83.9999974365235,8|2,0:0|0:0,0:0:0:0:
72,88,7047,2,0,P|36:64|8:24,1,83.9999974365235,0|2,0:0|0:0,0:0:0:0:
215,143,7363,2,0,P|179:167|151:207,1,83.9999974365235,8|0,0:0|0:0,0:0:0:0:
392,108,7678,6,0,P|344:104|236:24,1,167.999994873047,2|8,0:0|0:0,0:0:0:0:
344,12,8152,1,2,0:0:0:0:
336,196,8310,2,0,B|336:236|336:236|328:300,1,83.9999974365235,0|2,0:0|0:0,0:0:0:0:
196,260,8626,2,0,B|196:220|196:220|204:156,1,83.9999974365235,8|0,0:0|0:0,0:0:0:0:
116,20,8942,6,0,P|116:72|96:124,1,83.9999974365235,2|0,0:0|0:0,0:0:0:0:
68,196,9257,1,8,0:0:0:0:
92,296,9415,1,2,0:0:0:0:
68,196,9573,2,0,P|24:168|0:128,1,83.9999974365235,0|2,0:0|0:0,0:0:0:0:
92,296,9889,2,0,P|136:324|160:364,1,83.9999974365235,8|0,0:0|0:0,0:0:0:0:
12,264,10205,6,0,P|48:216|176:200,1,167.999994873047,2|8,0:0|0:0,0:0:0:0:
236,240,10678,2,0,P|284:260|400:252,1,167.999994873047,2|2,0:0|0:0,0:0:0:0:
476,188,11152,2,0,P|488:148|488:88,1,83.9999974365235,8|0,0:0|0:0,0:0:0:0:
408,332,11468,6,0,P|380:284|360:160,1,167.999994873047,2|8,0:0|0:0,0:0:0:0:
392,80,11942,1,2,0:0:0:0:
208,128,12100,2,0,B|168:132|168:132|112:128,1,83.9999974365235,0|2,0:0|0:0,0:0:0:0:
128,32,12415,2,0,B|168:28|168:28|224:32,1,83.9999974365235,8|0,0:0|0:0,0:0:0:0:
240,224,12731,6,0,P|192:244|52:244,1,167.999994873047,2|8,0:0|0:0,0:0:0:0:
12,172,13205,2,0,P|0:124|0:60,1,83.9999974365235,2|0,0:0|0:0,0:0:0:0:
96,120,13521,1,2,0:0:0:0:
144,208,13678,2,0,P|176:160|228:124,1,83.9999974365235,8|0,0:0|0:0,0:0:0:0:
184,332,13994,5,2,0:0:0:0:
280,300,14152,1,0,0:0:0:0:
380,304,14310,1,8,0:0:0:0:
472,344,14468,1,2,0:0:0:0:
452,184,14626,2,0,L|432:76,1,83.9999974365235,0|2,0:0|0:0,0:0:0:0:
336,116,14942,2,0,L|344:16,1,83.9999974365235,8|0,0:0|0:0,0:0:0:0:
352,224,15257,6,0,B|308:200|208:200|208:200|152:216,1,167.999994873047,2|8,0:0|0:0,0:0:0:0:
88,184,15731,1,2,0:0:0:0:
132,92,15889,2,0,L|240:64,1,83.9999974365235,0|2,0:0|0:0,0:0:0:0:
88,184,16205,2,0,P|80:240|80:296,1,83.9999974365235,8|0,0:0|0:0,0:0:0:0:
36,96,16521,2,0,P|52:28|60:4,1,83.9999974365235,2|0,0:0|0:0,0:0:0:0:
8,320,16836,2,0,P|40:348|96:356,1,83.9999974365235,8|2,0:0|0:0,0:0:0:0:
180,212,17152,2,0,P|148:184|92:176,1,83.9999974365235,0|2,0:0|0:0,0:0:0:0:
200,364,17468,2,0,P|242:361|287:327,1,83.9999974365235,8|0,0:0|0:0,0:0:0:0:
360,168,17784,6,0,P|368:116|256:40,1,167.999994873047,2|8,0:0|0:0,0:0:0:0:
220,108,18257,2,0,P|236:156|272:188,2,83.9999974365235,2|0|2,0:0|0:0|0:0,0:0:0:0:
408,240,18731,2,0,P|360:256|308:256,1,83.9999974365235,8|0,0:0|0:0,0:0:0:0:
52,296,19047,6,0,P|112:272|236:284,1,167.999994873047,2|8,0:0|0:0,0:0:0:0:
112,176,19521,2,0,P|104:128|104:72,1,83.9999974365235,2|0,0:0|0:0,0:0:0:0:
148,352,19836,1,2,0:0:0:0:
304,304,19994,2,0,P|300:256|280:212,1,83.9999974365235,8|0,0:0|0:0,0:0:0:0:
236,136,20310,6,0,P|248:96|380:88,1,167.999994873047,2|8,0:0|0:0,0:0:0:0:
424,232,20784,2,0,L|420:320,1,83.9999974365235,2|0,0:0|0:0,0:0:0:0:
320,140,21100,1,2,0:0:0:0:
488,152,21257,1,8,0:0:0:0:
212,272,21573,6,0,L|172:184,1,83.9999974365235,4|0,0:0|0:0,0:0:0:0:
292,284,21889,5,2,0:0:0:0:
132,304,22047,1,4,0:0:0:0:
368,308,22363,5,2,0:0:0:0:
60,336,22521,1,4,0:0:0:0:
60,336,22836,6,0,L|40:164,1,167.999994873047,4|8,0:0|0:0,0:0:0:0:
80,76,23310,2,0,P|124:100|264:72,1,167.999994873047,2|2,0:0|0:0,0:0:0:0:
336,112,23784,2,0,P|376:96|424:120,1,83.9999974365235,8|0,0:0|0:0,0:0:0:0:
376,264,24100,6,0,L|376:140,1,83.9999974365235,2|0,0:0|0:0,0:0:0:0:
468,224,24415,1,8,0:0:0:0:
460,324,24573,2,0,P|420:352|384:360,1,83.9999974365235,2|0,0:0|0:0,0:0:0:0:
284,344,24889,1,2,0:0:0:0:
196,296,25047,2,0,P|152:284|88:292,1,83.9999974365235,8|0,0:0|0:0,0:0:0:0:
172,84,25363,6,0,L|184:192,1,90.9999958343508,4|0,0:0|0:0,0:0:0:0:
256,76,25678,2,0,L|268:184,1,90.9999958343508,4|0,0:0|0:0,0:0:0:0:
88,92,25994,2,0,L|100:200,1,90.9999958343508,4|0,0:0|0:0,0:0:0:0:
144,364,26310,1,2,0:0:0:0:
280,248,26468,6,0,L|392:240,1,83.9999974365235,4|0,0:0|0:0,0:0:0:0:
496,176,26784,1,2,0:0:0:0:
484,128,26942,1,2,0:0:0:0:
440,100,27100,1,2,0:0:0:0:
392,92,27257,1,8,0:0:0:0:
344,108,27573,6,0,L|244:104,1,90.9999958343508,8|0,0:0|0:0,0:0:0:0:
104,104,27889,6,0,P|116:156|76:272,1,167.999994873047,6|8,0:0|0:0,0:0:0:0:
140,348,28363,2,0,P|248:304|328:316,1,167.999994873047,2|2,0:0|0:0,0:0:0:0:
392,344,28836,2,0,P|424:316|456:256,1,83.9999974365235,8|0,0:0|0:0,0:0:0:0:
448,144,29152,6,0,P|408:116|288:136,1,167.999994873047,2|8,0:0|0:0,0:0:0:0:
232,208,29626,2,0,P|188:220|64:180,1,167.999994873047,2|2,0:0|0:0,0:0:0:0:
24,100,30100,2,0,P|40:56|68:20,1,83.9999974365235,8|0,0:0|0:0,0:0:0:0:
156,140,30415,6,0,L|148:332,1,181.999991668702,6|0,0:0|0:0,0:0:0:0:
156,140,30889,1,2,0:0:0:0:
256,116,31047,6,0,L|248:307,1,181.999991668702,8|0,0:0|0:0,0:0:0:0:
256,116,31521,1,2,0:0:0:0:
360,144,31678,6,0,L|356:256,1,90.9999958343508,8|2,0:0|0:0,0:0:0:0:
372,132,31994,6,0,L|368:244,1,90.9999958343508,8|2,0:0|0:0,0:0:0:0:
388,120,32310,6,0,L|384:232,1,90.9999958343508,8|2,0:0|0:0,0:0:0:0:
404,112,32626,6,0,L|400:224,1,90.9999958343508,8|0,0:0|0:0,0:0:0:0:
312,44,32942,6,0,L|200:32,1,83.9999974365235,6|0,0:0|0:0,0:0:0:0:
144,128,33257,2,0,L|256:140,1,83.9999974365235,8|2,0:0|0:0,0:0:0:0:
276,244,33573,2,0,L|164:232,1,83.9999974365235,0|2,0:0|0:0,0:0:0:0:
108,328,33888,2,0,L|220:340,1,83.9999974365235,8|0,0:0|0:0,0:0:0:0:
92,224,34205,6,0,P|56:184|64:56,1,167.999994873047,2|8,0:0|0:0,0:0:0:0:
148,36,34678,2,0,B|188:24|228:52|228:52|288:68|344:36,1,167.999994873047,2|2,0:0|0:0,0:0:0:0:
408,72,35152,2,0,P|456:104|484:144,1,83.9999974365235,8|0,0:0|0:0,0:0:0:0:
472,316,35468,6,0,L|488:232,1,83.9999974365235,2|0,0:0|0:0,0:0:0:0:
392,156,35784,2,0,L|376:240,1,83.9999974365235,8|2,0:0|0:0,0:0:0:0:
264,296,36100,2,0,L|280:212,1,83.9999974365235,0|2,0:0|0:0,0:0:0:0:
184,136,36416,2,0,L|168:220,1,83.9999974365235,8|0,0:0|0:0,0:0:0:0:
60,352,36731,6,0,P|104:332|220:372,1,167.999994873047,2|8,0:0|0:0,0:0:0:0:
316,376,37205,2,0,P|344:344|328:220,1,167.999994873047,2|2,0:0|0:0,0:0:0:0:
300,132,37678,2,0,P|292:88|300:16,1,83.9999974365235,8|0,0:0|0:0,0:0:0:0:
388,84,37994,5,2,0:0:0:0:
440,172,38152,1,0,0:0:0:0:
480,80,38310,2,0,P|464:36|412:0,1,83.9999974365235,8|2,0:0|0:0,0:0:0:0:
484,272,38626,1,0,0:0:0:0:
432,360,38784,1,2,0:0:0:0:
384,272,38942,2,0,P|332:252|272:256,1,83.9999974365235,8|0,0:0|0:0,0:0:0:0:
112,328,39257,5,2,0:0:0:0:
204,284,39415,1,0,0:0:0:0:
120,232,39573,2,0,P|100:184|96:128,1,83.9999974365235,8|2,0:0|0:0,0:0:0:0:
196,164,39889,1,0,0:0:0:0:
288,124,40047,1,2,0:0:0:0:
196,80,40205,2,0,P|224:40|256:16,1,83.9999974365235,8|0,0:0|0:0,0:0:0:0:
288,232,40521,6,0,P|332:192|472:176,1,167.999994873047,2|8,0:0|0:0,0:0:0:0:
496,248,40994,2,0,L|480:364,1,83.9999974365235,2|0,0:0|0:0,0:0:0:0:
376,96,41310,1,2,0:0:0:0:
368,280,41468,2,0,P|336:312|296:320,1,83.9999974365235,8|0,0:0|0:0,0:0:0:0:
376,96,41784,5,4,0:0:0:0:
288,48,41942,1,0,0:0:0:0:
420,200,42257,1,4,0:0:0:0:
236,112,42573,1,2,0:0:0:0:
236,112,42731,1,4,0:0:0:0:
236,112,43047,6,0,L|48:88,1,167.999994873047,4|8,0:0|0:0,0:0:0:0:
52,192,43521,2,0,L|240:216,1,167.999994873047,2|2,0:0|0:0,0:0:0:0:
252,308,43994,2,0,P|292:280|320:232,1,83.9999974365235,8|0,0:0|0:0,0:0:0:0:
344,60,44310,6,0,P|352:128|424:208,1,167.999994873047,2|8,0:0|0:0,0:0:0:0:
404,304,44784,2,0,L|496:292,1,83.9999974365235,2|0,0:0|0:0,0:0:0:0:
440,112,45100,1,2,0:0:0:0:
256,136,45257,2,0,P|248:88|248:44,1,83.9999974365235,8|0,0:0|0:0,0:0:0:0:
268,252,45573,6,0,P|288:284|288:344,1,90.9999958343508,4|0,0:0|0:0,0:0:0:0:
200,316,45889,2,0,P|180:284|180:224,1,90.9999958343508,4|0,0:0|0:0,0:0:0:0:
276,252,46205,6,0,P|296:284|296:344,1,90.9999958343508,4|0,0:0|0:0,0:0:0:0:
192,212,46521,1,2,0:0:0:0:
332,176,46678,2,0,L|452:192,1,90.9999958343508,4|0,0:0|0:0,0:0:0:0:
152,120,46994,1,2,0:0:0:0:
160,104,47152,1,2,0:0:0:0:
172,116,47310,1,2,0:0:0:0:
164,132,47468,1,8,0:0:0:0:
80,76,47784,6,0,P|109:40|167:27,1,90.9999958343508,8|0,0:0|0:0,0:0:0:0:
105,228,48100,6,0,P|121:271|124:324,1,83.9999974365235,6|0,0:0|0:0,0:0:0:0:
219,216,48415,2,0,P|256:259|283:304,1,83.9999974365235,8|2,0:0|0:0,0:0:0:0:
294,130,48731,2,0,P|350:132|403:145,1,83.9999974365235,0|2,0:0|0:0,0:0:0:0:
248,28,49047,2,0,P|306:15|352:10,1,83.9999974365235,8|0,0:0|0:0,0:0:0:0:
481,93,49363,6,0,P|420:101|388:115,1,83.9999974365235,2|0,0:0|0:0,0:0:0:0:
416,261,49678,2,0,P|367:235|336:231,1,83.9999974365235,8|2,0:0|0:0,0:0:0:0:
256,341,49994,2,0,P|243:296|216:264,1,83.9999974365235,0|2,0:0|0:0,0:0:0:0:
76,307,50310,2,0,P|89:260|81:218,1,83.9999974365235,8|0,0:0|0:0,0:0:0:0:
127,41,50626,6,0,P|135:97|215:207,1,181.999991668702,6|0,0:0|0:0,0:0:0:0:
127,41,51100,1,2,0:0:0:0:
240,95,51257,6,0,P|275:138|397:185,1,181.999991668702,8|0,0:0|0:0,0:0:0:0:
240,95,51731,1,2,0:0:0:0:
384,95,51889,6,0,P|433:94|481:82,1,90.9999958343508,8|2,0:0|0:0,0:0:0:0:
379,87,52205,6,0,P|427:80|472:59,1,90.9999958343508,8|2,0:0|0:0,0:0:0:0:
371,78,52521,6,0,P|419:69|463:44,1,90.9999958343508,8|2,0:0|0:0,0:0:0:0:
363,70,52836,6,0,P|410:58|453:26,1,90.9999958343508,8|0,0:0|0:0,0:0:0:0:
303,171,53152,6,0,P|281:218|283:335,1,167.999994873047,6|8,0:0|0:0,0:0:0:0:
380,360,53626,2,0,P|384:308|360:264,1,83.9999974365235,2|0,0:0|0:0,0:0:0:0:
184,200,53942,2,0,P|132:196|88:220,2,83.9999974365235,2|8|0,0:0|0:0|0:0,0:0:0:0:
408,188,54415,6,0,P|440:136|448:92,1,83.9999974365235,2|0,0:0|0:0,0:0:0:0:
229,105,54731,2,0,P|205:71|192:32,1,83.9999974365235,8|2,0:0|0:0,0:0:0:0:
292,32,55047,1,0,0:0:0:0:
328,124,55205,1,2,0:0:0:0:
292,220,55363,2,0,P|264:272|264:328,1,83.9999974365235,8|0,0:0|0:0,0:0:0:0:
168,184,55678,6,0,P|128:156|72:40,1,167.999994873047,2|8,0:0|0:0,0:0:0:0:
8,132,56152,2,0,P|40:184|76:216,1,83.9999974365235,2|0,0:0|0:0,0:0:0:0:
136,264,56468,1,2,0:0:0:0:
180,80,56626,2,0,L|288:64,1,83.9999974365235,8|0,0:0|0:0,0:0:0:0:
272,248,56942,2,0,L|456:268,1,167.999994873047,2|8,0:0|0:0,0:0:0:0:
488,176,57415,2,0,P|484:128|460:84,1,83.9999974365235,2|0,0:0|0:0,0:0:0:0:
388,160,57731,1,2,0:0:0:0:
300,112,57889,2,0,P|292:68|292:24,1,83.9999974365235,8|0,0:0|0:0,0:0:0:0:
220,184,58205,6,0,P|232:232|216:364,1,167.999994873047,2|8,0:0|0:0,0:0:0:0:
120,360,58678,1,2,0:0:0:0:
48,292,58836,2,0,P|36:244|52:112,1,167.999994873047,0|8,0:0|0:0,0:0:0:0:
116,52,59310,1,0,0:0:0:0:
216,36,59468,6,0,L|404:32,1,167.999994873047,2|8,0:0|0:0,0:0:0:0:
468,88,59942,1,2,0:0:0:0:
480,188,60100,2,0,L|292:192,1,167.999994873047,0|8,0:0|0:0,0:0:0:0:
232,132,60573,1,0,0:0:0:0:
152,196,60731,6,0,P|152:252|164:292,1,83.9999974365235,2|0,0:0|0:0,0:0:0:0:
244,336,61047,1,8,0:0:0:0:
344,348,61205,2,0,L|512:324,1,167.999994873047,2|2,0:0|0:0,0:0:0:0:
432,260,61678,2,0,P|400:228|384:192,1,83.9999974365235,8|0,0:0|0:0,0:0:0:0:
448,48,61994,6,0,P|416:76|276:80,1,167.999994873047,4|2,0:0|0:0,0:0:0:0:
200,120,62468,2,0,P|152:96|28:104,1,167.999994873047,4|2,0:0|0:0,0:0:0:0:
4,196,62942,2,0,P|4:256|20:288,1,83.9999974365235,4|0,0:0|0:0,0:0:0:0:
88,344,63257,6,0,P|152:300|264:304,1,167.999994873047,4|8,0:0|0:0,0:0:0:0:
332,336,63731,1,2,0:0:0:0:
416,280,63889,2,0,L|508:308,1,83.9999974365235,0|2,0:0|0:0,0:0:0:0:
360,196,64205,2,0,L|468:176,1,83.9999974365235,8|0,0:0|0:0,0:0:0:0:
248,184,64521,6,0,P|188:200|72:184,1,167.999994873047,2|8,0:0|0:0,0:0:0:0:
32,104,64994,1,2,0:0:0:0:
108,36,65152,2,0,P|164:40|200:60,1,83.9999974365235,0|2,0:0|0:0,0:0:0:0:
280,96,65468,2,0,P|328:104|376:92,1,83.9999974365235,8|0,0:0|0:0,0:0:0:0:
160,128,65784,6,0,P|152:212|160:320,1,167.999994873047,2|8,0:0|0:0,0:0:0:0:
240,356,66257,1,2,0:0:0:0:
332,312,66415,2,0,P|384:312|440:336,1,83.9999974365235,0|2,0:0|0:0,0:0:0:0:
320,200,66731,2,0,P|268:200|212:224,1,83.9999974365235,8|0,0:0|0:0,0:0:0:0:
484,160,67047,6,0,P|496:112|492:64,1,83.9999974365235,2|0,0:0|0:0,0:0:0:0:
400,44,67363,1,8,0:0:0:0:
388,144,67521,1,2,0:0:0:0:
256,48,67678,2,0,L|156:40,1,83.9999974365235,0|2,0:0|0:0,0:0:0:0:
76,156,67994,2,0,L|176:148,1,83.9999974365235,8|0,0:0|0:0,0:0:0:0:
368,284,68310,6,0,L|188:280,1,167.999994873047,2|8,0:0|0:0,0:0:0:0:
116,340,68784,1,2,0:0:0:0:
40,276,68942,2,0,P|16:320|8:364,1,83.9999974365235,0|2,0:0|0:0,0:0:0:0:
140,92,69257,2,0,P|164:136|172:180,1,83.9999974365235,8|0,0:0|0:0,0:0:0:0:
4,200,69573,6,0,P|-4:144|72:64,1,167.999994873047,2|8,0:0|0:0,0:0:0:0:
168,68,70047,1,2,0:0:0:0:
208,160,70205,2,0,P|204:216|184:276,1,83.9999974365235,0|2,0:0|0:0,0:0:0:0:
296,356,70521,2,0,P|300:300|320:240,1,83.9999974365235,8|0,0:0|0:0,0:0:0:0:
452,136,70836,6,0,P|408:164|296:152,1,167.999994873047,2|8,0:0|0:0,0:0:0:0:
196,140,71310,1,2,0:0:0:0:
116,204,71468,2,0,P|92:252|88:312,1,83.9999974365235,0|2,0:0|0:0,0:0:0:0:
208,272,71784,2,0,P|212:328|224:364,1,83.9999974365235,8|0,0:0|0:0,0:0:0:0:
356,276,72100,6,0,L|344:128,1,125.999996154785,2|0,0:0|0:0,0:0:0:0:
328,136,72415,2,0,L|344:32,1,83.9999974365235,8|2,0:0|0:0,0:0:0:0:
192,48,72731,6,0,L|204:196,1,125.999996154785,0|0,0:0|0:0,0:0:0:0:
220,188,73046,2,0,L|204:292,1,83.9999974365235,8|0,0:0|0:0,0:0:0:0:
32,348,73363,6,0,P|88:336|144:364,1,83.9999974365235,2|0,0:0|0:0,0:0:0:0:
288,265,73678,2,0,P|232:277|176:249,1,83.9999974365235,8|2,0:0|0:0,0:0:0:0:
120,220,73994,2,0,P|96:164|84:52,1,167.999994873047,0|8,0:0|0:0,0:0:0:0:
176,20,74468,1,0,0:0:0:0:
276,32,74626,6,0,P|272:88|248:200,1,167.999994873047,2|8,0:0|0:0,0:0:0:0:
180,124,75100,1,2,0:0:0:0:
376,136,75257,2,0,P|392:188|392:232,1,83.9999974365235,0|2,0:0|0:0,0:0:0:0:
372,316,75573,2,0,P|324:352|272:368,1,83.9999974365235,8|0,0:0|0:0,0:0:0:0:
48,304,75889,6,0,P|88:288|212:312,1,167.999994873047,2|8,0:0|0:0,0:0:0:0:
284,244,76363,1,2,0:0:0:0:
212,176,76521,2,0,P|164:184|112:172,1,83.9999974365235,0|2,0:0|0:0,0:0:0:0:
336,168,76836,2,0,P|366:205|382:256,1,83.9999974365235,8|0,0:0|0:0,0:0:0:0:
268,92,77152,6,0,P|285:46|321:7,1,83.9999974365235,2|0,0:0|0:0,0:0:0:0:
152,248,77468,2,0,P|134:202|98:163,1,83.9999974365235,8|2,0:0|0:0,0:0:0:0:
24,60,77784,2,0,L|168:44,1,125.999996154785,0|0,0:0|0:0,0:0:0:0:
168,48,78100,2,0,L|192:140,1,83.9999974365235,8|0,0:0|0:0,0:0:0:0:
252,312,78415,6,0,P|288:344|420:316,1,167.999994873047,2|8,0:0|0:0,0:0:0:0:
460,252,78889,1,2,0:0:0:0:
488,156,79047,2,0,L|456:44,1,83.9999974365235,0|2,0:0|0:0,0:0:0:0:
372,36,79363,1,8,0:0:0:0:
292,96,79521,1,0,0:0:0:0:
352,176,79678,6,0,P|364:208|368:288,1,83.9999974365235,2|0,0:0|0:0,0:0:0:0:
276,224,79994,1,8,0:0:0:0:
176,208,80152,1,2,0:0:0:0:
84,252,80310,2,0,P|56:308|52:348,1,83.9999974365235,0|2,0:0|0:0,0:0:0:0:
88,148,80626,2,0,P|64:104|48:56,1,83.9999974365235,8|0,0:0|0:0,0:0:0:0:
176,208,80942,6,0,L|200:380,1,167.999994873047,2|8,0:0|0:0,0:0:0:0:
296,344,81415,2,0,L|480:304,1,167.999994873047,2|2,0:0|0:0,0:0:0:0:
436,208,81889,2,0,L|412:104,1,83.9999974365235,8|0,0:0|0:0,0:0:0:0:
388,28,82205,5,4,0:0:0:0:
388,28,82678,1,4,0:0:0:0:
208,72,82994,1,2,0:0:0:0:
388,28,83152,1,4,0:0:0:0:
228,152,83468,6,0,P|176:152|128:52,1,167.999994873047,4|8,0:0|0:0,0:0:0:0:
300,104,83942,2,0,P|316:148|296:200,1,83.9999974365235,2|0,0:0|0:0,0:0:0:0:
228,244,84257,1,2,0:0:0:0:
128,224,84415,2,0,P|104:268|96:316,1,83.9999974365235,8|0,0:0|0:0,0:0:0:0:
184,356,84731,6,0,B|232:368|272:360|272:360|316:328|376:332,1,167.999994873047,2|8,0:0|0:0,0:0:0:0:
444,352,85205,2,0,P|440:300|416:264,1,83.9999974365235,2|0,0:0|0:0,0:0:0:0:
340,216,85521,1,2,0:0:0:0:
428,172,85678,1,8,0:0:0:0:
388,80,85836,1,0,0:0:0:0:
292,112,85994,6,0,L|64:192,2,210.000008010865,4|4|4,0:0|0:0|0:0,0:0:0:0:
292,112,86942,1,2,0:0:0:0:
93,181,87100,2,0,P|65:125|52:64,1,105.000004005432,4|0,0:0|0:0,0:0:0:0:
164,272,87415,1,2,0:0:0:0:
212,256,87573,1,2,0:0:0:0:
260,272,87731,1,2,0:0:0:0:
288,312,87889,1,8,0:0:0:0:
296,360,88205,6,0,L|464:344,1,157.500006008148,8|0,0:0|0:0,0:0:0:0:
472,324,88521,6,0,P|460:268|456:232,1,83.9999974365235,6|0,0:0|0:0,0:0:0:0:
468,140,88836,1,8,0:0:0:0:
392,72,88994,2,0,P|336:56|196:72,1,167.999994873047,2|2,0:0|0:0,0:0:0:0:
160,140,89468,1,8,0:0:0:0:
76,80,89626,1,0,0:0:0:0:
28,168,89784,6,0,P|16:220|20:264,1,83.9999974365235,2|0,0:0|0:0,0:0:0:0:
92,316,90100,1,8,0:0:0:0:
188,340,90257,2,0,L|368:296,1,167.999994873047,2|2,0:0|0:0,0:0:0:0:
444,336,90731,1,8,0:0:0:0:
472,240,90889,1,0,0:0:0:0:
364,176,91047,6,0,P|360:124|480:28,1,210.000008010865,6|0,0:0|0:0,0:0:0:0:
364,176,91521,1,2,0:0:0:0:
272,224,91678,6,0,P|241:181|295:37,1,210.000008010865,8|0,0:0|0:0,0:0:0:0:
272,224,92152,1,2,0:0:0:0:
212,300,92310,6,0,P|160:264|132:224,1,105.000004005432,8|2,0:0|0:0,0:0:0:0:
208,308,92626,6,0,P|156:272|128:232,1,105.000004005432,8|2,0:0|0:0,0:0:0:0:
204,316,92942,6,0,P|152:280|124:240,1,105.000004005432,8|2,0:0|0:0,0:0:0:0:
200,324,93257,6,0,P|148:288|120:248,1,105.000004005432,8|0,0:0|0:0,0:0:0:0:
52,180,93573,5,6,0:0:0:0:
148,148,93731,1,0,0:0:0:0:
236,196,93889,1,8,0:0:0:0:
304,272,94047,2,0,P|352:312|480:316,1,167.999994873047,2|2,0:0|0:0,0:0:0:0:
488,228,94521,1,8,0:0:0:0:
396,188,94678,1,0,0:0:0:0:
476,124,94836,6,0,P|464:64|444:28,1,83.9999974365235,2|0,0:0|0:0,0:0:0:0:
356,68,95152,1,8,0:0:0:0:
260,92,95310,2,0,P|204:108|88:96,1,167.999994873047,2|2,0:0|0:0,0:0:0:0:
12,152,95784,2,0,P|20:208|20:256,1,83.9999974365235,8|0,0:0|0:0,0:0:0:0:
104,360,96100,6,0,P|104:300|120:264,1,83.9999974365235,2|0,0:0|0:0,0:0:0:0:
240,176,96415,2,0,P|240:236|224:272,1,83.9999974365235,8|2,0:0|0:0,0:0:0:0:
340,372,96732,2,0,P|340:312|356:276,1,83.9999974365235,0|2,0:0|0:0,0:0:0:0:
476,188,97047,2,0,P|476:248|460:284,1,83.9999974365235,8|0,0:0|0:0,0:0:0:0:
408,104,97363,6,0,L|220:60,1,167.999994873047,2|8,0:0|0:0,0:0:0:0:
160,120,97836,2,0,L|40:100,1,83.9999974365235,2|0,0:0|0:0,0:0:0:0:
12,184,98152,1,2,0:0:0:0:
84,256,98310,2,0,L|204:236,1,83.9999974365235,8|0,0:0|0:0,0:0:0:0:
256,196,98626,6,0,L|364:224,1,83.9999974365235,2|0,0:0|0:0,0:0:0:0:
416,280,98942,2,0,L|244:344,1,167.999994873047,8|0,0:0|0:0,0:0:0:0:
156,344,99415,1,2,0:0:0:0:
56,352,99573,2,0,P|12:328|-8:292,1,83.9999974365235,8|0,0:0|0:0,0:0:0:0:
88,88,99889,6,0,P|112:140|104:256,1,167.999994873047,2|8,0:0|0:0,0:0:0:0:
192,96,100363,2,0,P|168:56|152:20,1,83.9999974365235,2|0,0:0|0:0,0:0:0:0:
204,192,100678,1,2,0:0:0:0:
280,128,100836,1,8,0:0:0:0:
304,224,100994,1,0,0:0:0:0:
368,112,101152,6,0,P|344:72|312:52,1,83.9999974365235,2|0,0:0|0:0,0:0:0:0:
432,216,101468,2,0,P|478:215|511:197,1,83.9999974365235,8|2,0:0|0:0,0:0:0:0:
304,224,101784,2,0,P|281:264|280:302,1,83.9999974365235,0|2,0:0|0:0,0:0:0:0:
380,288,102100,1,8,0:0:0:0:
380,288,102257,1,0,0:0:0:0:
184,276,102415,5,4,0:0:0:0:
212,372,102573,1,0,0:0:0:0:
160,176,102889,1,4,0:0:0:0:
212,372,103205,1,2,0:0:0:0:
160,176,103363,1,4,0:0:0:0:
44,340,103678,6,0,P|20:272|20:148,1,167.999994873047,4|8,0:0|0:0,0:0:0:0:
32,76,104152,2,0,P|84:52|208:52,1,167.999994873047,2|2,0:0|0:0,0:0:0:0:
284,96,104626,2,0,P|336:104|408:100,1,83.9999974365235,8|0,0:0|0:0,0:0:0:0:
460,68,104942,6,0,P|480:116|492:244,1,167.999994873047,2|8,0:0|0:0,0:0:0:0:
444,320,105415,2,0,P|400:352|268:364,1,167.999994873047,2|2,0:0|0:0,0:0:0:0:
192,344,105889,2,0,P|128:320|80:328,1,83.9999974365235,8|0,0:0|0:0,0:0:0:0:
104,192,106205,6,0,P|36:208|0:232,1,105.000004005432,4|0,0:0|0:0,0:0:0:0:
180,124,106521,2,0,P|200:57|197:13,1,105.000004005432,4|0,0:0|0:0,0:0:0:0:
216,224,106836,2,0,P|263:274|302:294,1,105.000004005432,4|0,0:0|0:0,0:0:0:0:
420,272,107152,1,2,0:0:0:0:
372,52,107310,1,4,0:0:0:0:
372,52,107626,5,2,0:0:0:0:
356,92,107784,1,2,0:0:0:0:
360,132,107942,1,2,0:0:0:0:
388,164,108100,1,8,0:0:0:0:
428,180,108415,6,0,L|448:360,1,157.500006008148,8|0,0:0|0:0,0:0:0:0:
428,360,108731,6,0,P|360:340|248:352,1,167.999994873047,6|8,0:0|0:0,0:0:0:0:
164,336,109205,2,0,P|104:316|40:216,1,167.999994873047,2|2,0:0|0:0,0:0:0:0:
68,136,109678,2,0,P|84:76|80:36,1,83.9999974365235,8|0,0:0|0:0,0:0:0:0:
204,24,109994,6,0,P|216:80|220:216,1,167.999994873047,2|8,0:0|0:0,0:0:0:0:
260,284,110468,2,0,P|328:296|460:264,1,167.999994873047,2|2,0:0|0:0,0:0:0:0:
456,184,110942,2,0,P|460:116|472:96,1,83.9999974365235,8|0,0:0|0:0,0:0:0:0:
416,292,111257,6,0,P|384:240|352:92,1,210.000008010865,6|0,0:0|0:0,0:0:0:0:
416,292,111731,1,2,0:0:0:0:
256,208,111889,2,0,P|252:148|296:4,1,210.000008010865,8|0,0:0|0:0,0:0:0:0:
256,208,112363,1,2,0:0:0:0:
116,116,112521,2,0,P|136:52|164:4,1,105.000004005432,8|2,0:0|0:0,0:0:0:0:
72,228,112836,2,0,P|36:176|16:116,1,105.000004005432,8|2,0:0|0:0,0:0:0:0:
152,320,113152,2,0,P|92:340|32:336,1,105.000004005432,8|2,0:0|0:0,0:0:0:0:
304,312,113468,2,0,P|264:364|208:388,1,105.000004005432,8|0,0:0|0:0,0:0:0:0:
396,160,113784,6,0,P|420:212|440:328,1,167.999994873047,6|8,0:0|0:0,0:0:0:0:
328,208,114257,2,0,P|272:232|228:236,1,83.9999974365235,2|0,0:0|0:0,0:0:0:0:
156,196,114573,1,2,0:0:0:0:
316,120,114731,2,0,P|296:72|284:36,1,83.9999974365235,8|0,0:0|0:0,0:0:0:0:
304,312,115047,6,0,P|236:320|112:296,1,167.999994873047,2|8,0:0|0:0,0:0:0:0:
68,232,115521,2,0,P|56:188|36:148,1,83.9999974365235,2|0,0:0|0:0,0:0:0:0:
72,60,115836,1,2,0:0:0:0:
160,108,115994,1,8,0:0:0:0:
232,40,116152,1,0,0:0:0:0:
288,124,116310,6,0,P|280:180|288:232,1,83.9999974365235,2|0,0:0|0:0,0:0:0:0:
336,292,116626,2,0,P|392:300|444:292,1,83.9999974365235,8|2,0:0|0:0,0:0:0:0:
480,216,116942,2,0,P|488:160|480:108,1,83.9999974365235,0|2,0:0|0:0,0:0:0:0:
424,52,117257,2,0,L|332:28,1,83.9999974365235,8|0,0:0|0:0,0:0:0:0:
320,128,117573,6,0,L|152:148,1,167.999994873047,2|8,0:0|0:0,0:0:0:0:
108,240,118047,2,0,P|56:200|48:172,1,83.9999974365235,2|0,0:0|0:0,0:0:0:0:
56,84,118363,1,2,0:0:0:0:
148,48,118521,1,8,0:0:0:0:
248,56,118678,1,0,0:0:0:0:
320,128,118836,6,0,L|300:328,1,167.999994873047,2|8,0:0|0:0,0:0:0:0:
224,360,119310,1,2,0:0:0:0:
224,360,119626,1,2,0:0:0:0:
448,328,119784,1,8,0:0:0:0:
448,328,120100,5,2,0:0:0:0:
256,264,120415,1,8,0:0:0:0:
452,212,120731,1,0,0:0:0:0:
260,156,121047,1,8,0:0:0:0:
456,108,121363,5,2,0:0:0:0:
364,152,121521,1,0,0:0:0:0:
300,76,121678,1,8,0:0:0:0:
300,76,121836,1,2,0:0:0:0:
348,272,122152,1,2,0:0:0:0:
348,272,122310,1,8,0:0:0:0:
152,232,122626,6,0,L|144:124,1,83.9999974365235,4|0,0:0|0:0,0:0:0:0:
140,48,122942,1,2,0:0:0:0:
140,240,123100,6,0,L|132:132,1,83.9999974365235,4|0,0:0|0:0,0:0:0:0:
216,100,123415,1,2,0:0:0:0:
132,248,123573,6,0,L|124:140,1,83.9999974365235,4|0,0:0|0:0,0:0:0:0:
212,336,123889,6,0,L|96:360,1,90.9999958343508,4|0,0:0|0:0,0:0:0:0:
268,248,124205,2,0,L|376:264,1,90.9999958343508,0|2,0:0|0:0,0:0:0:0:
124,256,124521,2,0,L|112:64,1,181.999991668702,8|8,0:0|0:0,0:0:0:0:
204,16,124994,1,0,0:0:0:0:
328,168,125152,6,0,P|368:176|480:60,1,181.999991668702,4|0,0:0|0:0,0:0:0:0:
368,68,125626,1,2,0:0:0:0:
400,280,125784,2,0,L|412:388,1,90.9999958343508,8|0,0:0|0:0,0:0:0:0:
240,164,126100,1,8,0:0:0:0:
248,56,126257,1,0,0:0:0:0:
280,264,126415,6,0,P|224:272|168:264,1,105.000004005432,8|0,0:0|0:0,0:0:0:0:
48,188,126731,2,0,P|104:180|160:188,1,105.000004005432,8|0,0:0|0:0,0:0:0:0:
304,280,127047,2,0,P|248:288|192:280,1,105.000004005432,8|0,0:0|0:0,0:0:0:0:
40,208,127363,1,2,0:0:0:0:
328,192,127521,2,0,P|400:196|416:68,1,210.000008010865,4|2,0:0|0:0,0:0:0:0:
392,60,127994,1,2,0:0:0:0:
352,48,128152,1,2,0:0:0:0:
312,52,128310,1,2,0:0:0:0:
276,72,128626,2,0,L|92:68,1,157.500006008148,8|0,0:0|0:0,0:0:0:0:
100,80,128942,5,4,0:0:0:0:
80,188,129100,1,0,0:0:0:0:
144,276,129257,1,8,0:0:0:0:
244,316,129415,2,0,P|300:292|408:192,1,181.999991668702,2|2,0:0|0:0,0:0:0:0:
284,204,129889,2,0,P|240:168|184:148,1,90.9999958343508,8|0,0:0|0:0,0:0:0:0:
344,120,130205,5,2,0:0:0:0:
452,144,130363,1,0,0:0:0:0:
476,36,130521,1,8,0:0:0:0:
368,20,130678,2,0,P|304:32|168:40,1,181.999991668702,2|2,0:0|0:0,0:0:0:0:
108,116,131152,2,0,P|96:164|100:212,1,90.9999958343508,8|0,0:0|0:0,0:0:0:0:
140,308,131468,5,8,0:0:0:0:
224,148,131626,1,8,0:0:0:0:
224,360,131784,1,8,0:0:0:0:
228,368,132100,5,8,0:0:0:0:
220,136,132258,1,0,0:0:0:0:
132,316,132416,1,8,0:0:0:0:
124,324,132731,5,8,0:0:0:0:
216,124,132889,1,8,0:0:0:0:
232,376,133047,1,8,0:0:0:0:
236,384,133363,5,8,0:0:0:0:
60,240,133521,1,8,0:0:0:0:
312,288,133678,1,8,0:0:0:0:
320,300,133994,6,0,P|376:296|472:176,1,181.999991668702,2|8,0:0|0:0,0:0:0:0:
464,104,134468,1,2,0:0:0:0:
372,48,134626,1,0,0:0:0:0:
264,52,134784,2,0,P|256:112|260:164,1,90.9999958343508,2|8,0:0|0:0,0:0:0:0:
356,188,135100,1,0,0:0:0:0:
216,332,135257,6,0,P|220:272|232:240,1,90.9999958343508,2|0,0:0|0:0,0:0:0:0:
136,184,135573,1,8,0:0:0:0:
316,288,135731,2,0,L|120:280,1,181.999991668702,2|2,0:0|0:0,0:0:0:0:
40,336,136205,2,0,P|24:280|32:240,1,90.9999958343508,8|0,0:0|0:0,0:0:0:0:
208,52,136521,6,0,P|176:104|52:152,1,181.999991668702,2|8,0:0|0:0,0:0:0:0:
152,224,136994,2,0,P|196:200|244:196,1,90.9999958343508,2|0,0:0|0:0,0:0:0:0:
84,60,137310,1,2,0:0:0:0:
284,120,137468,2,0,P|328:128|384:120,1,90.9999958343508,8|0,0:0|0:0,0:0:0:0:
224,280,137784,6,0,P|188:324|172:372,1,90.9999958343508,2|0,0:0|0:0,0:0:0:0:
336,216,138100,2,0,P|392:224|436:216,1,90.9999958343508,8|2,0:0|0:0,0:0:0:0:
320,328,138415,1,0,0:0:0:0:
320,328,138573,1,2,0:0:0:0:
220,192,138731,2,0,P|192:144|188:104,1,90.9999958343508,8|0,0:0|0:0,0:0:0:0:
396,32,139047,6,0,P|424:92|424:236,1,181.999991668702,2|8,0:0|0:0,0:0:0:0:
400,312,139521,2,0,P|352:340|276:360,1,90.9999958343508,2|0,0:0|0:0,0:0:0:0:
220,304,139836,1,2,0:0:0:0:
112,304,139994,1,8,0:0:0:0:
20,360,140152,1,0,0:0:0:0:
256,192,140310,12,2,141573,0:0:0:0:
128,112,141889,5,8,0:0:0:0:
348,100,142205,1,0,0:0:0:0:
344,208,142363,1,2,0:0:0:0:
340,316,142521,1,8,0:0:0:0:
128,112,142836,5,2,0:0:0:0:
348,100,143152,1,8,0:0:0:0:
128,112,143310,1,2,0:0:0:0:
344,208,143626,1,2,0:0:0:0:
128,112,143784,1,8,0:0:0:0:
412,40,144100,6,0,P|432:80|440:228,1,181.999991668702,4|0,0:0|0:0,0:0:0:0:
140,192,144573,1,2,0:0:0:0:
356,132,144731,1,8,0:0:0:0:
116,204,145047,1,8,0:0:0:0:
116,204,145363,6,0,L|132:328,2,90.9999958343508,6|0|0,0:0|0:0|0:0,0:0:0:0:
36,128,145836,1,2,0:0:0:0:
244,56,145994,2,0,L|240:256,1,181.999991668702,8|8,0:0|0:0,0:0:0:0:
300,332,146468,1,0,0:0:0:0:
216,84,146626,6,0,L|360:68,1,105.000004005432,8|0,0:0|0:0,0:0:0:0:
440,192,146942,2,0,L|296:208,1,105.000004005432,8|0,0:0|0:0,0:0:0:0:
196,68,147257,2,0,L|340:52,1,105.000004005432,8|0,0:0|0:0,0:0:0:0:
464,32,147573,1,8,0:0:0:0:
472,212,147731,2,0,L|328:228,1,105.000004005432,4|0,0:0|0:0,0:0:0:0:
88,240,148047,5,2,0:0:0:0:
104,280,148205,1,2,0:0:0:0:
120,320,148363,1,2,0:0:0:0:
140,284,148521,1,2,0:0:0:0:
160,248,148836,6,0,L|96:84,1,157.500006008148,4|0,0:0|0:0,0:0:0:0:
76,96,149152,6,0,P|124:68|192:60,1,90.9999958343508,4|0,0:0|0:0,0:0:0:0:
260,100,149468,2,0,P|308:100|384:88,1,90.9999958343508,8|2,0:0|0:0,0:0:0:0:
460,116,149784,2,0,P|476:168|472:212,1,90.9999958343508,0|2,0:0|0:0,0:0:0:0:
420,300,150100,2,0,P|348:292|288:308,1,90.9999958343508,8|0,0:0|0:0,0:0:0:0:
232,344,150415,6,0,P|220:292|232:232,1,90.9999958343508,2|0,0:0|0:0,0:0:0:0:
112,160,150731,2,0,P|124:212|112:272,1,90.9999958343508,8|2,0:0|0:0,0:0:0:0:
240,148,151047,2,0,P|288:132|420:152,1,181.999991668702,0|8,0:0|0:0,0:0:0:0:
488,232,151521,1,0,0:0:0:0:
428,324,151678,5,4,0:0:0:0:
320,308,151836,1,4,0:0:0:0:
212,292,151994,1,4,0:0:0:0:
176,316,152310,5,4,0:0:0:0:
312,224,152468,1,4,0:0:0:0:
440,124,152626,1,4,0:0:0:0:
488,140,152942,5,4,0:0:0:0:
272,120,153100,1,4,0:0:0:0:
56,96,153258,1,4,0:0:0:0:
44,48,153573,5,4,0:0:0:0:
88,208,153731,1,4,0:0:0:0:
132,368,153889,1,4,0:0:0:0:
164,336,154205,6,0,P|76:308|-8:356,1,181.999991668702,6|8,0:0|0:0,0:0:0:0:
184,252,154678,2,0,P|240:280|388:276,1,181.999991668702,2|2,0:0|0:0,0:0:0:0:
452,228,155152,2,0,P|460:184|452:120,1,90.9999958343508,8|0,0:0|0:0,0:0:0:0:
412,36,155468,6,0,P|364:32|200:76,1,181.999991668702,2|8,0:0|0:0,0:0:0:0:
128,28,155942,2,0,P|88:100|76:236,1,181.999991668702,2|2,0:0|0:0,0:0:0:0:
176,168,156415,2,0,P|200:220|232:256,1,90.9999958343508,8|0,0:0|0:0,0:0:0:0:
292,164,156731,6,0,L|480:136,1,181.999991668702,2|8,0:0|0:0,0:0:0:0:
492,244,157205,2,0,L|308:272,1,181.999991668702,2|2,0:0|0:0,0:0:0:0:
264,372,157678,2,0,L|160:360,1,90.9999958343508,10|0,0:0|0:0,0:0:0:0:
64,360,157994,2,0,P|72:268|44:168,1,181.999991668702,2|8,0:0|0:0,0:0:0:0:
160,172,158468,2,0,P|128:120|96:0,1,181.999991668702,2|2,0:0|0:0,0:0:0:0:
200,40,158942,2,0,P|216:60|232:128,1,90.9999958343508,10|0,0:0|0:0,0:0:0:0:
336,84,159257,6,0,P|340:144|320:276,1,181.999991668702,2|8,0:0|0:0,0:0:0:0:
220,300,159731,2,0,P|160:288|112:296,1,90.9999958343508,2|0,0:0|0:0,0:0:0:0:
52,216,160047,1,2,0:0:0:0:
68,108,160205,1,8,0:0:0:0:
156,44,160363,1,0,0:0:0:0:
52,72,160521,5,2,0:0:0:0:
148,124,160678,2,0,L|268:108,1,90.9999958343508,0|8,0:0|0:0,0:0:0:0:
344,88,160994,1,2,0:0:0:0:
452,104,161152,2,0,P|484:164|492:220,1,90.9999958343508,0|2,0:0|0:0,0:0:0:0:
476,296,161468,1,8,0:0:0:0:
476,296,161626,1,0,0:0:0:0:
372,192,161784,6,0,P|316:216|256:296,1,136.499993751526,6|0,0:0|0:0,0:0:0:0:
264,296,162100,2,0,P|224:328|144:344,1,90.9999958343508,8|2,0:0|0:0,0:0:0:0:
187,341,162573,1,2,0:0:0:0:
88,296,162731,2,0,P|64:240|56:200,1,90.9999958343508,8|0,0:0|0:0,0:0:0:0:
164,20,163047,6,0,P|168:80|168:144,2,90.9999958343508,6|0|8,0:0|0:0|0:0,0:0:0:0:
288,108,163521,2,0,P|264:168|224:216,2,90.9999958343508,6|0|2,0:0|0:0|0:0,0:0:0:0:
360,272,163994,2,0,P|304:300|252:312,1,90.9999958343508,12|0,0:0|0:0,0:0:0:0:
96,276,164310,5,4,0:0:0:0:
