osu file format v14

[General]
AudioFilename: O.M. Keleus ft. Hatsune Miku - Oplosan.mp3
AudioLeadIn: 0
PreviewTime: 123257
Countdown: 0
SampleSet: Soft
StackLeniency: 0.7
Mode: 0
LetterboxInBreaks: 0
WidescreenStoryboard: 0

[Editor]
Bookmarks: 63257,83468,140310
DistanceSpacing: 1
BeatDivisor: 4
GridSize: 4
TimelineZoom: 1.399999

[Metadata]
Title:Oplosan
TitleUnicode:Oplosan
Artist:O.M. Keleus ft. Hatsune Miku
ArtistUnicode:O.M. Keleus ft. Hatsune Miku
Creator:puxtu
Version:Biasa
Source:
Tags:AncuL Ursa Fort Surono faiz007 guitaruz dangdut koplo bahasa indonesia indonesian indo javanese jawa wong jowo vocaloid Intel007 Mix Susu Stroberi Records nakedupsidedown mabok miras alcohol YKS soimah TransTV
BeatmapID:997520
BeatmapSetID:459502

[Difficulty]
HPDrainRate:3
CircleSize:4
OverallDifficulty:4
ApproachRate:5
SliderMultiplier:1
SliderTickRate:1

[Events]
//Background and Video events
0,0,"Miku osu.jpg",0,0
//Break Periods
//Storyboard Layer 0 (Background)
//Storyboard Layer 1 (Fail)
//Storyboard Layer 2 (Pass)
//Storyboard Layer 3 (Foreground)
//Storyboard Sound Samples

[TimingPoints]
100,315.789473684211,4,2,1,85,1,0
2626,-90.9090909090909,4,2,1,85,0,0
25363,-90.9090909090909,4,2,1,85,0,0
26468,-90.9090909090909,4,2,1,85,0,0
27573,-90.9090909090909,4,2,1,85,0,0
27889,-90.9090909090909,4,2,1,85,0,0
30415,-90.9090909090909,4,2,1,85,0,0
32942,-90.9090909090909,4,2,1,85,0,0
45573,-90.9090909090909,4,2,1,85,0,0
48100,-90.9090909090909,4,2,1,85,0,0
50626,-90.9090909090909,4,2,1,85,0,0
53152,-90.9090909090909,4,2,1,85,0,0
85994,-90.9090909090909,4,2,1,85,0,0
87415,-90.9090909090909,4,2,1,85,0,0
88205,-90.9090909090909,4,2,1,85,0,0
88521,-90.9090909090909,4,2,1,85,0,0
91047,-90.9090909090909,4,2,1,85,0,0
93573,-90.9090909090909,4,2,1,85,0,0
106205,-90.9090909090909,4,2,1,85,0,0
107468,-90.9090909090909,4,2,1,85,0,0
108415,-90.9090909090909,4,2,1,85,0,0
108731,-90.9090909090909,4,2,1,85,0,0
111257,-90.9090909090909,4,2,1,85,0,0
113784,-90.9090909090909,4,2,1,85,0,0
123889,-90.9090909090909,4,2,1,85,0,1
126415,-90.9090909090909,4,2,1,85,0,1
127836,-90.9090909090909,4,2,1,85,0,1
128626,-90.9090909090909,4,2,1,85,0,1
128942,-90.9090909090909,4,2,1,85,0,1
143468,-90.9090909090909,4,2,1,85,0,0
144100,-90.9090909090909,4,2,1,85,0,1
146626,-90.9090909090909,4,2,1,85,0,1
148047,-90.9090909090909,4,2,1,85,0,1
148836,-90.9090909090909,4,2,1,85,0,1
149152,-90.9090909090909,4,2,1,85,0,1
164310,-90.9090909090909,4,2,1,85,0,0

[HitObjects]
104,64,1363,6,0,P|112:120|240:168,1,200,0|0,0:0|0:0,0:0:0:0:
320,124,2310,1,0,0:0:0:0:
428,144,2626,2,0,P|444:188|448:260,1,110.000003356934,4|8,0:0|0:0,0:0:0:0:
368,324,3257,2,0,P|312:340|248:336,1,110.000003356934,0|8,0:0|0:0,0:0:0:0:
176,272,3889,6,0,P|144:192|12:136,1,220.000006713867,2|0,0:0|0:0,0:0:0:0:
20,244,4836,1,8,0:0:0:0:
68,344,5152,2,0,L|300:368,1,220.000006713867,2|0,0:0|0:0,0:0:0:0:
312,260,6100,1,8,0:0:0:0:
344,156,6415,6,0,L|460:144,2,110.000003356934,2|8|0,0:0|0:0|0:0,0:0:0:0:
252,92,7363,1,8,0:0:0:0:
168,164,7678,2,0,P|136:172|36:156,1,110.000003356934,2|8,0:0|0:0,0:0:0:0:
52,56,8310,2,0,P|84:48|184:64,1,110.000003356934,0|8,0:0|0:0,0:0:0:0:
252,120,8942,6,0,L|288:344,1,220.000006713867,2|0,0:0|0:0,0:0:0:0:
188,292,9889,1,8,0:0:0:0:
100,356,10205,2,0,P|84:308|92:240,1,110.000003356934,2|8,0:0|0:0,0:0:0:0:
44,148,10836,2,0,L|164:132,1,110.000003356934,0|8,0:0|0:0,0:0:0:0:
220,44,11468,2,0,L|280:272,1,220.000006713867,2|0,0:0|0:0,0:0:0:0:
348,340,12415,1,8,0:0:0:0:
360,232,12731,6,0,P|308:216|192:312,2,220.000006713867,2|0|2,0:0|0:0|0:0,0:0:0:0:
448,168,14310,2,0,P|472:132|476:60,2,110.000003356934,8|0|8,0:0|0:0|0:0,0:0:0:0:
380,80,15257,6,0,P|328:64|152:88,1,220.000006713867,2|0,0:0|0:0,0:0:0:0:
76,144,16205,1,8,0:0:0:0:
32,244,16521,2,0,P|56:272|116:312,1,110.000003356934,2|8,0:0|0:0,0:0:0:0:
208,248,17152,2,0,P|244:256|336:240,1,110.000003356934,0|8,0:0|0:0,0:0:0:0:
416,296,17784,6,0,P|432:236|404:64,1,220.000006713867,2|0,0:0|0:0,0:0:0:0:
312,32,18731,1,8,0:0:0:0:
224,100,19047,2,0,P|176:124|108:136,1,110.000003356934,2|8,0:0|0:0,0:0:0:0:
24,188,19678,2,0,P|20:228|44:300,1,110.000003356934,0|8,0:0|0:0,0:0:0:0:
124,364,20310,6,0,L|368:340,1,220.000006713867,2|0,0:0|0:0,0:0:0:0:
172,204,21573,2,0,P|152:168|128:44,2,165.000005035401,4|4|4,0:0|0:0|0:0,0:0:0:0:
276,236,22836,6,0,L|492:176,2,220.000006713867,4|0|2,0:0|0:0|0:0,0:0:0:0:
176,288,24415,1,8,0:0:0:0:
76,244,24731,2,0,P|60:196|60:124,1,110.000003356934,0|8,0:0|0:0,0:0:0:0:
124,48,25363,6,0,B|132:48|132:48|136:60|136:60|144:52|144:52|224:60|224:60|228:72|228:72|236:60|236:60|300:68|300:68|312:80|312:80|320:68|320:68|428:80|428:80|420:52|432:24,2,385.000011749268,4|4|8,0:0|0:0|0:0,0:0:0:0:
40,120,27889,6,0,P|20:92|16:16,2,110.000003356934,6|8|0,0:0|0:0|0:0,0:0:0:0:
84,220,28836,2,0,L|204:204,2,110.000003356934,8|2|8,0:0|0:0|0:0,0:0:0:0:
40,320,29784,2,0,P|88:344|152:348,1,110.000003356934,0|8,0:0|0:0,0:0:0:0:
252,328,30415,6,0,B|324:276|400:300|400:300|408:288|408:288|456:304|456:304|444:228|484:232|448:144|448:144|424:156|412:176|412:176|404:144|384:120|384:120|368:144|340:160|340:160|328:136|300:128|300:128|284:152|257:163|257:163|232:148|199:151|199:151|192:132|204:100,1,770.000023498536,6|8,0:0|0:0,0:0:0:0:
108,52,32942,6,0,P|92:104|92:172,1,110.000003356934,6|8,0:0|0:0,0:0:0:0:
108,268,33573,2,0,P|88:288|56:296,2,55.0000016784668,0|2|8,0:0|0:0|0:0,0:0:0:0:
216,240,34205,2,0,P|276:224|340:232,1,110.000003356934,2|8,0:0|0:0,0:0:0:0:
432,204,34836,2,0,P|452:232|464:264,2,55.0000016784668,0|2|8,0:0|0:0|0:0,0:0:0:0:
464,100,35468,6,0,L|232:76,1,220.000006713867,2|0,0:0|0:0,0:0:0:0:
136,80,36415,1,8,0:0:0:0:
64,164,36731,2,0,L|44:288,1,110.000003356934,2|8,0:0|0:0,0:0:0:0:
156,276,37363,2,0,L|160:344,2,55.0000016784668,0|2|8,0:0|0:0|0:0,0:0:0:0:
228,192,37994,6,0,P|228:140|248:64,1,110.000003356934,2|8,0:0|0:0,0:0:0:0:
352,88,38626,2,0,P|352:140|332:216,1,110.000003356934,0|8,0:0|0:0,0:0:0:0:
284,292,39257,6,0,P|224:300|112:192,2,220.000006713867,2|0|2,0:0|0:0|0:0,0:0:0:0:
364,216,40836,1,8,0:0:0:0:
316,116,41152,2,0,L|344:52,2,55.0000016784668,0|2|8,0:0|0:0|0:0,0:0:0:0:
260,212,41784,2,0,L|288:384,2,165.000005035401,4|4|4,0:0|0:0|0:0,0:0:0:0:
184,132,43047,6,0,L|204:8,1,110.000003356934,4|8,0:0|0:0,0:0:0:0:
312,28,43678,2,0,L|436:48,1,110.000003356934,0|8,0:0|0:0,0:0:0:0:
404,156,44310,2,0,L|384:280,1,110.000003356934,2|8,0:0|0:0,0:0:0:0:
280,292,44942,2,0,L|292:360,2,55.0000016784668,0|2|8,0:0|0:0|0:0,0:0:0:0:
316,188,45573,6,0,B|308:188|308:188|304:176|304:176|296:184|296:184|216:176|216:176|212:164|212:164|204:176|204:176|140:168|140:168|128:156|128:156|120:168|120:168|12:156|12:156|20:184|8:212,2,385.000011749268,4|4|8,0:0|0:0|0:0,0:0:0:0:
368,288,48100,6,0,L|488:268,2,110.000003356934,6|8|0,0:0|0:0|0:0,0:0:0:0:
260,284,49047,1,8,0:0:0:0:
180,360,49363,2,0,P|152:304|160:132,1,220.000006713867,2|0,0:0|0:0,0:0:0:0:
204,52,50310,1,8,0:0:0:0:
316,52,50626,6,0,L|340:276,2,220.000006713867,6|8|8,0:0|0:0|0:0,0:0:0:0:
404,120,52205,2,0,L|388:8,2,110.000003356934,8|8|8,0:0|0:0|0:0,0:0:0:0:
416,228,53152,6,0,L|176:252,1,220.000006713867,6|0,0:0|0:0,0:0:0:0:
104,192,54100,1,8,0:0:0:0:
36,108,54415,2,0,L|276:84,1,220.000006713867,2|0,0:0|0:0,0:0:0:0:
468,140,55678,6,0,L|492:380,1,220.000006713867,2|0,0:0|0:0,0:0:0:0:
384,324,56626,1,8,0:0:0:0:
276,312,56942,2,0,L|156:336,1,110.000003356934,2|8,0:0|0:0,0:0:0:0:
88,260,57573,2,0,P|72:208|80:136,1,110.000003356934,0|8,0:0|0:0,0:0:0:0:
148,72,58205,6,0,L|376:88,2,220.000006713867,2|0|2,0:0|0:0|0:0,0:0:0:0:
72,152,59784,2,0,P|44:116|40:48,2,110.000003356934,8|0|8,0:0|0:0|0:0,0:0:0:0:
76,264,60731,2,0,P|148:236|204:240,1,110.000003356934,2|8,0:0|0:0,0:0:0:0:
280,284,61363,2,0,P|276:316|268:352,2,55.0000016784668,0|2|8,0:0|0:0|0:0,0:0:0:0:
340,192,61994,6,0,P|292:164|248:56,2,165.000005035401,4|4|4,0:0|0:0|0:0,0:0:0:0:
432,256,63257,6,0,P|440:208|440:136,2,110.000003356934,4|8|0,0:0|0:0|0:0,0:0:0:0:
332,304,64205,2,0,P|292:312|216:304,1,110.000003356934,8|2,0:0|0:0,0:0:0:0:
136,236,64836,2,0,P|80:216|24:216,2,110.000003356934,8|0|8,0:0|0:0|0:0,0:0:0:0:
244,208,65784,6,0,P|288:200|348:156,1,110.000003356934,2|8,0:0|0:0,0:0:0:0:
288,68,66415,2,0,P|244:76|184:120,1,110.000003356934,0|8,0:0|0:0,0:0:0:0:
80,100,67047,2,0,L|120:328,1,220.000006713867,2|0,0:0|0:0,0:0:0:0:
336,308,68310,2,0,L|296:80,1,220.000006713867,2|0,0:0|0:0,0:0:0:0:
408,76,69257,1,8,0:0:0:0:
428,184,69573,6,0,L|204:220,1,220.000006713867,2|0,0:0|0:0,0:0:0:0:
104,244,70521,1,8,0:0:0:0:
64,144,70836,2,0,L|288:108,1,220.000006713867,2|0,0:0|0:0,0:0:0:0:
396,300,72100,6,0,L|512:276,2,110.000003356934,2|8|0,0:0|0:0|0:0,0:0:0:0:
288,324,73047,1,8,0:0:0:0:
180,340,73363,2,0,P|168:312|160:224,1,110.000003356934,2|8,0:0|0:0,0:0:0:0:
228,148,73994,2,0,P|240:120|248:32,1,110.000003356934,0|8,0:0|0:0,0:0:0:0:
140,28,74626,2,0,P|128:56|120:144,1,110.000003356934,2|8,0:0|0:0,0:0:0:0:
28,192,75257,2,0,P|48:236|64:320,1,110.000003356934,0|8,0:0|0:0,0:0:0:0:
152,364,75889,6,0,P|168:312|328:252,1,220.000006713867,2|0,0:0|0:0,0:0:0:0:
412,276,76836,1,8,0:0:0:0:
448,172,77152,2,0,P|464:136|464:52,2,110.000003356934,2|8|0,0:0|0:0|0:0,0:0:0:0:
340,152,78100,1,8,0:0:0:0:
232,168,78415,6,0,P|200:180|20:128,2,220.000006713867,2|0|2,0:0|0:0|0:0,0:0:0:0:
272,65,79994,1,8,0:0:0:0:
340,152,80310,2,0,L|356:276,1,110.000003356934,0|8,0:0|0:0,0:0:0:0:
296,355,80942,6,0,P|336:308|497:304,1,220.000006713867,2|0,0:0|0:0,0:0:0:0:
456,192,81889,1,8,0:0:0:0:
400,96,82205,2,0,P|448:100|496:8,2,165.000005035401,4|4|4,0:0|0:0|0:0,0:0:0:0:
300,52,83468,6,0,P|248:36|72:68,1,220.000006713867,4|0,0:0|0:0,0:0:0:0:
16,144,84415,1,8,0:0:0:0:
52,248,84731,2,0,P|80:256|168:240,1,110.000003356934,2|8,0:0|0:0,0:0:0:0:
256,196,85363,2,0,L|384:208,1,110.000003356934,0|8,0:0|0:0,0:0:0:0:
460,264,85994,6,0,L|468:152,1,110.000003356934,4|4,0:0|0:0,0:0:0:0:
376,92,86626,2,0,P|332:80|208:92,2,165.000005035401,4|4|2,0:0|0:0|0:0,0:0:0:0:
344,196,87889,2,0,P|304:208|216:204,1,110.000003356934,8|8,0:0|0:0,0:0:0:0:
128,180,88521,6,0,P|84:200|44:360,1,220.000006713867,6|0,0:0|0:0,0:0:0:0:
152,356,89468,1,8,0:0:0:0:
252,312,89784,2,0,B|288:292|359:311|359:311|416:327|476:300,1,220.000006713867,2|0,0:0|0:0,0:0:0:0:
428,88,91047,6,0,B|348:64|284:132|284:132|200:124,2,220.000006713867,6|8|8,0:0|0:0|0:0,0:0:0:0:
392,192,92626,2,0,P|432:200|504:176,2,110.000003356934,8|8|8,0:0|0:0|0:0,0:0:0:0:
300,248,93573,6,0,L|72:224,1,220.000006713867,6|0,0:0|0:0,0:0:0:0:
36,124,94521,1,8,0:0:0:0:
108,40,94836,2,0,L|224:36,1,110.000003356934,2|8,0:0|0:0,0:0:0:0:
280,128,95468,2,0,L|404:132,1,110.000003356934,0|8,0:0|0:0,0:0:0:0:
368,240,96100,6,0,L|140:232,1,220.000006713867,2|0,0:0|0:0,0:0:0:0:
60,300,97047,1,8,0:0:0:0:
32,192,97363,2,0,P|24:148|40:80,2,110.000003356934,2|8|0,0:0|0:0|0:0,0:0:0:0:
128,136,98310,1,8,0:0:0:0:
228,88,98626,6,0,P|272:72|356:84,1,110.000003356934,2|8,0:0|0:0,0:0:0:0:
364,180,99257,2,0,P|400:180|488:168,2,110.000003356934,0|8|2,0:0|0:0|0:0,0:0:0:0:
276,248,100205,2,0,P|256:276|68:312,1,220.000006713867,8|8,0:0|0:0,0:0:0:0:
24,228,101152,6,0,P|24:184|148:72,1,220.000006713867,2|0,0:0|0:0,0:0:0:0:
248,112,102100,1,8,0:0:0:0:
352,152,102415,2,0,P|440:128|488:56,2,165.000005035401,4|4|4,0:0|0:0|0:0,0:0:0:0:
256,208,103678,6,0,P|248:244|240:328,2,110.000003356934,4|8|0,0:0|0:0|0:0,0:0:0:0:
272,100,104626,1,8,0:0:0:0:
168,136,104942,2,0,P|136:168|104:252,2,110.000003356934,2|8|0,0:0|0:0|0:0,0:0:0:0:
272,100,105889,1,8,0:0:0:0:
368,44,106205,6,0,P|388:88|408:160,1,110.000003356934,4|4,0:0|0:0,0:0:0:0:
444,252,106836,2,0,P|408:280|280:296,2,165.000005035401,4|4|2,0:0|0:0|0:0,0:0:0:0:
492,152,108100,2,0,P|436:144|372:156,1,110.000003356934,8|8,0:0|0:0,0:0:0:0:
280,184,108731,6,0,P|216:208|56:188,1,220.000006713867,6|0,0:0|0:0,0:0:0:0:
36,88,109678,1,8,0:0:0:0:
132,36,109994,2,0,P|168:36|248:64,1,110.000003356934,2|8,0:0|0:0,0:0:0:0:
348,44,110626,2,0,P|356:84|360:160,1,110.000003356934,0|8,0:0|0:0,0:0:0:0:
464,188,111257,6,0,P|452:228|292:292,1,220.000006713867,6|8,0:0|0:0,0:0:0:0:
88,248,112521,6,0,P|108:216|184:192,1,110.000003356934,8|8,0:0|0:0,0:0:0:0:
264,128,113152,2,0,P|248:92|232:16,1,110.000003356934,8|8,0:0|0:0,0:0:0:0:
344,20,113784,6,0,P|360:64|360:240,1,220.000006713867,6|0,0:0|0:0,0:0:0:0:
260,280,114731,1,8,0:0:0:0:
172,344,115047,2,0,L|44:336,2,110.000003356934,2|8|0,0:0|0:0|0:0,0:0:0:0:
260,280,115994,1,8,0:0:0:0:
156,240,116310,6,0,P|128:208|96:28,1,220.000006713867,2|0,0:0|0:0,0:0:0:0:
204,24,117257,1,8,0:0:0:0:
312,52,117573,2,0,P|296:104|260:156,1,110.000003356934,2|8,0:0|0:0,0:0:0:0:
324,244,118205,2,0,L|432:260,1,110.000003356934,0|8,0:0|0:0,0:0:0:0:
460,152,118836,6,0,L|440:40,2,110.000003356934,2|8|0,0:0|0:0|0:0,0:0:0:0:
432,260,119784,1,8,0:0:0:0:
368,348,120100,2,0,L|244:328,1,110.000003356934,2|8,0:0|0:0,0:0:0:0:
152,352,120731,2,0,L|128:232,1,110.000003356934,0|8,0:0|0:0,0:0:0:0:
36,188,121363,6,0,P|138:220|216:136,1,220.000006713867,2|0,0:0|0:0,0:0:0:0:
208,40,122310,1,8,0:0:0:0:
316,68,122626,2,0,L|304:252,2,165.000005035401,4|4|4,0:0|0:0|0:0,0:0:0:0:
424,48,123889,6,0,L|468:272,1,220.000006713867,4|8,0:0|0:0,0:0:0:0:
404,352,124836,1,8,0:0:0:0:
296,336,125152,2,0,L|64:284,1,220.000006713867,4|8,0:0|0:0,0:0:0:0:
128,188,126100,1,8,0:0:0:0:
212,116,126415,6,0,L|236:240,1,110.000003356934,8|8,0:0|0:0,0:0:0:0:
340,248,127047,2,0,L|368:72,2,165.000005035401,8|4|2,0:0|0:0|0:0,0:0:0:0:
260,324,128310,2,0,L|148:304,1,110.000003356934,2|8,0:0|0:0,0:0:0:0:
104,204,128942,6,0,P|152:180|200:28,1,220.000006713867,4|0,0:0|0:0,0:0:0:0:
308,52,129889,1,8,0:0:0:0:
272,156,130205,2,0,P|284:188|440:260,1,220.000006713867,2|0,0:0|0:0,0:0:0:0:
460,152,131152,1,8,0:0:0:0:
360,108,131468,6,0,P|360:140|368:172,2,55.0000016784668,8|8|8,0:0|0:0|0:0,0:0:0:0:
256,68,132100,2,0,P|260:40|260:12,2,55.0000016784668,8|0|8,0:0|0:0|0:0,0:0:0:0:
168,124,132731,2,0,P|136:108|108:104,2,55.0000016784668,8|8|8,0:0|0:0|0:0,0:0:0:0:
172,236,133363,2,0,P|140:260|120:280,2,55.0000016784668,8|8|8,0:0|0:0|0:0,0:0:0:0:
280,260,133994,6,0,L|412:280,1,110.000003356934,2|8,0:0|0:0,0:0:0:0:
440,180,134626,2,0,L|308:160,1,110.000003356934,0|8,0:0|0:0,0:0:0:0:
276,68,135257,6,0,L|48:104,1,220.000006713867,2|0,0:0|0:0,0:0:0:0:
16,204,136205,1,8,0:0:0:0:
64,304,136521,2,0,P|140:312|292:296,1,220.000006713867,2|0,0:0|0:0,0:0:0:0:
368,228,137468,1,8,0:0:0:0:
440,148,137784,6,0,P|372:132|208:168,1,220.000006713867,2|0,0:0|0:0,0:0:0:0:
132,216,138731,2,0,P|80:216|12:200,2,110.000003356934,8|2|8,0:0|0:0|0:0,0:0:0:0:
212,292,139678,1,0,0:0:0:0:
316,256,139994,1,8,0:0:0:0:
392,336,140310,6,0,P|416:288|412:216,1,110.000003356934,2|8,0:0|0:0,0:0:0:0:
412,96,140942,2,0,P|352:88|288:100,1,110.000003356934,0|8,0:0|0:0,0:0:0:0:
231,178,141573,2,0,P|116:183|61:82,1,220.000006713867,2|0,0:0|0:0,0:0:0:0:
171,87,142521,1,8,0:0:0:0:
280,108,142836,6,0,L|256:288,2,165.000005035401,2|2|8,0:0|0:0|0:0,0:0:0:0:
372,48,144100,6,0,P|428:76|488:224,1,220.000006713867,4|8,0:0|0:0,0:0:0:0:
436,312,145047,1,8,0:0:0:0:
332,344,145363,2,0,L|100:320,1,220.000006713867,6|8,0:0|0:0,0:0:0:0:
48,232,146310,1,8,0:0:0:0:
84,128,146626,2,0,P|128:136|208:116,1,110.000003356934,8|8,0:0|0:0,0:0:0:0:
296,152,147257,2,0,P|328:104|432:44,2,165.000005035401,8|4|2,0:0|0:0|0:0,0:0:0:0:
404,176,148521,2,0,P|428:232|424:296,1,110.000003356934,2|4,0:0|0:0,0:0:0:0:
340,348,149152,6,0,L|112:344,1,220.000006713867,4|0,0:0|0:0,0:0:0:0:
64,248,150100,1,8,0:0:0:0:
132,164,150415,2,0,P|140:112|136:40,2,110.000003356934,2|8|0,0:0|0:0|0:0,0:0:0:0:
216,236,151363,1,8,0:0:0:0:
248,132,151678,6,0,P|248:104|244:72,2,55.0000016784668,4|4|4,0:0|0:0|0:0,0:0:0:0:
344,188,152310,2,0,P|376:152|384:136,2,55.0000016784668,4|4|4,0:0|0:0|0:0,0:0:0:0:
352,300,152942,2,0,P|396:300|424:288,2,55.0000016784668,4|4|4,0:0|0:0|0:0,0:0:0:0:
244,324,153573,2,0,P|248:352|268:388,2,55.0000016784668,4|4|4,0:0|0:0|0:0,0:0:0:0:
184,232,154205,6,0,P|168:192|112:132,1,110.000003356934,6|8,0:0|0:0,0:0:0:0:
44,68,154836,2,0,L|156:28,1,110.000003356934,0|8,0:0|0:0,0:0:0:0:
256,28,155468,6,0,P|288:56|336:224,1,220.000006713867,2|0,0:0|0:0,0:0:0:0:
272,308,156415,1,8,0:0:0:0:
168,344,156731,2,0,P|124:312|88:256,1,110.000003356934,2|8,0:0|0:0,0:0:0:0:
116,160,157363,2,0,P|104:112|64:60,2,110.000003356934,0|10|2,0:0|0:0|0:0,0:0:0:0:
204,228,158310,2,0,P|240:232|328:212,1,110.000003356934,8|0,0:0|0:0,0:0:0:0:
360,120,158942,1,10,0:0:0:0:
452,60,159257,6,0,P|472:104|480:280,1,220.000006713867,2|0,0:0|0:0,0:0:0:0:
372,276,160205,1,8,0:0:0:0:
288,344,160521,2,0,L|64:324,1,220.000006713867,2|0,0:0|0:0,0:0:0:0:
112,224,161468,1,8,0:0:0:0:
160,124,161784,5,6,0:0:0:0:
228,212,162100,1,8,0:0:0:0:
292,124,162415,2,0,L|312:56,2,55.0000016784668,0|2|8,0:0|0:0|0:0,0:0:0:0:
340,224,163047,2,0,P|388:240|508:204,2,165.000005035401,6|6|12,0:0|0:0|0:0,0:0:0:0:
284,320,164310,1,4,0:0:0:0:
