osu file format v14

[General]
AudioFilename: O.M. Keleus ft. Hatsune Miku - Oplosan.mp3
AudioLeadIn: 0
PreviewTime: 123257
Countdown: 0
SampleSet: Soft
StackLeniency: 1
Mode: 3
LetterboxInBreaks: 0
SpecialStyle: 1
WidescreenStoryboard: 1

[Editor]
Bookmarks: 63257
DistanceSpacing: 0.8
BeatDivisor: 2
GridSize: 8
TimelineZoom: 2.299999

[Metadata]
Title:Oplosan
TitleUnicode:Oplosan
Artist:O.M. Keleus ft. Hatsune Miku
ArtistUnicode:O.M. Keleus ft. Hatsune Miku
Creator:puxtu
Version:7K HD
Source:
Tags:AncuL Ursa Fort Surono faiz007 guitaruz dangdut koplo bahasa indonesia indonesian indo javanese jawa wong jowo vocaloid Intel007 Mix Susu Stroberi Records nakedupsidedown mabok miras alcohol YKS soimah TransTV
BeatmapID:1013499
BeatmapSetID:459502

[Difficulty]
HPDrainRate:8
CircleSize:7
OverallDifficulty:8
ApproachRate:5
SliderMultiplier:1.4
SliderTickRate:1

[Events]
//Background and Video events
0,0,"Miku osu.jpg",0,0
//Break Periods
//Storyboard Layer 0 (Background)
//Storyboard Layer 1 (Fail)
//Storyboard Layer 2 (Pass)
//Storyboard Layer 3 (Foreground)
//Storyboard Sound Samples

[TimingPoints]
100,315.789473684211,4,2,1,50,1,0
123889,-100,4,2,1,50,0,1
143468,-100,4,2,1,50,0,0
144100,-100,4,2,1,50,0,1
164310,-100,4,2,1,50,0,0

[HitObjects]
329,192,100,5,0,0:0:0:0:
182,192,100,1,0,0:0:0:0:
402,192,415,1,0,0:0:0:0:
256,192,415,1,0,0:0:0:0:
109,192,415,1,0,0:0:0:0:
329,192,731,1,0,0:0:0:0:
182,192,1047,1,0,0:0:0:0:
36,192,1047,1,0,0:0:0:0:
329,192,1363,1,0,0:0:0:0:
402,192,1363,1,0,0:0:0:0:
475,192,1363,1,0,0:0:0:0:
182,192,1521,1,0,0:0:0:0:
329,192,1678,1,0,0:0:0:0:
182,192,1836,1,0,0:0:0:0:
109,192,1836,1,0,0:0:0:0:
36,192,1836,1,0,0:0:0:0:
402,192,1994,1,0,0:0:0:0:
109,192,2152,1,0,0:0:0:0:
329,192,2310,1,0,0:0:0:0:
475,192,2310,1,0,0:0:0:0:
402,192,2310,1,0,0:0:0:0:
36,192,2468,1,0,0:0:0:0:
256,192,2626,1,0,0:0:0:0:
109,192,2626,1,0,0:0:0:0:
475,192,2626,128,0,5784:0:0:0:0:
402,192,2626,1,0,0:0:0:0:
329,192,2784,1,0,0:0:0:0:
182,192,2942,1,0,0:0:0:0:
109,192,2942,1,0,0:0:0:0:
256,192,3100,1,0,0:0:0:0:
36,192,3257,1,0,0:0:0:0:
402,192,3257,1,0,0:0:0:0:
109,192,3257,1,0,0:0:0:0:
182,192,3415,1,0,0:0:0:0:
329,192,3573,1,0,0:0:0:0:
109,192,3573,1,0,0:0:0:0:
182,192,3731,1,0,0:0:0:0:
256,192,3889,1,0,0:0:0:0:
402,192,3889,1,0,0:0:0:0:
36,192,3889,128,0,4521:0:0:0:0:
109,192,4047,1,0,0:0:0:0:
329,192,4205,1,0,0:0:0:0:
256,192,4205,1,0,0:0:0:0:
402,192,4363,1,0,0:0:0:0:
182,192,4521,1,0,0:0:0:0:
329,192,4521,1,0,0:0:0:0:
109,192,4521,128,0,5152:0:0:0:0:
256,192,4678,1,0,0:0:0:0:
36,192,4836,1,0,0:0:0:0:
182,192,4836,1,0,0:0:0:0:
256,192,4994,1,0,0:0:0:0:
329,192,5152,1,0,0:0:0:0:
402,192,5152,1,0,0:0:0:0:
182,192,5152,128,0,5784:0:0:0:0:
109,192,5310,1,0,0:0:0:0:
256,192,5468,1,0,0:0:0:0:
36,192,5468,1,0,0:0:0:0:
109,192,5626,1,0,0:0:0:0:
402,192,5784,1,0,0:0:0:0:
256,192,5784,1,0,0:0:0:0:
329,192,5784,128,0,6100:0:0:0:0:
109,192,5942,1,0,0:0:0:0:
475,192,6100,1,0,0:0:0:0:
182,192,6100,128,0,6415:0:0:0:0:
402,192,6257,1,0,0:0:0:0:
329,192,6415,128,0,7047:0:0:0:0:
36,192,6415,1,0,0:0:0:0:
109,192,6415,1,0,0:0:0:0:
256,192,6573,1,0,0:0:0:0:
36,192,6731,1,0,0:0:0:0:
475,192,6731,1,0,0:0:0:0:
182,192,6889,1,0,0:0:0:0:
36,192,7047,1,0,0:0:0:0:
109,192,7047,128,0,7363:0:0:0:0:
402,192,7047,1,0,0:0:0:0:
329,192,7205,1,0,0:0:0:0:
182,192,7363,1,0,0:0:0:0:
475,192,7363,128,0,7678:0:0:0:0:
256,192,7521,1,0,0:0:0:0:
329,192,7678,1,0,0:0:0:0:
109,192,7678,1,0,0:0:0:0:
402,192,7678,128,0,10836:0:0:0:0:
182,192,7836,1,0,0:0:0:0:
36,192,7994,1,0,0:0:0:0:
329,192,7994,1,0,0:0:0:0:
182,192,8152,1,0,0:0:0:0:
256,192,8310,1,0,0:0:0:0:
36,192,8310,1,0,0:0:0:0:
475,192,8310,1,0,0:0:0:0:
329,192,8468,1,0,0:0:0:0:
256,192,8626,1,0,0:0:0:0:
109,192,8626,1,0,0:0:0:0:
329,192,8784,1,0,0:0:0:0:
475,192,8942,1,0,0:0:0:0:
36,192,8942,1,0,0:0:0:0:
182,192,8942,128,0,9257:0:0:0:0:
329,192,9100,1,0,0:0:0:0:
36,192,9257,1,0,0:0:0:0:
256,192,9257,128,0,9573:0:0:0:0:
475,192,9415,1,0,0:0:0:0:
36,192,9573,1,0,0:0:0:0:
109,192,9573,1,0,0:0:0:0:
329,192,9573,128,0,9889:0:0:0:0:
256,192,9731,1,0,0:0:0:0:
182,192,9889,1,0,0:0:0:0:
475,192,9889,128,0,10205:0:0:0:0:
109,192,10047,1,0,0:0:0:0:
36,192,10205,1,0,0:0:0:0:
256,192,10205,128,0,10836:0:0:0:0:
329,192,10363,1,0,0:0:0:0:
109,192,10521,1,0,0:0:0:0:
475,192,10521,1,0,0:0:0:0:
182,192,10678,1,0,0:0:0:0:
475,192,10836,1,0,0:0:0:0:
329,192,10836,1,0,0:0:0:0:
36,192,10836,1,0,0:0:0:0:
109,192,10994,1,0,0:0:0:0:
182,192,11152,1,0,0:0:0:0:
475,192,11152,1,0,0:0:0:0:
329,192,11310,1,0,0:0:0:0:
402,192,11468,1,0,0:0:0:0:
109,192,11468,128,0,11784:0:0:0:0:
182,192,11468,1,0,0:0:0:0:
256,192,11626,1,0,0:0:0:0:
402,192,11784,128,0,12100:0:0:0:0:
329,192,11784,1,0,0:0:0:0:
256,192,11942,1,0,0:0:0:0:
182,192,12100,128,0,12415:0:0:0:0:
36,192,12100,1,0,0:0:0:0:
475,192,12100,1,0,0:0:0:0:
256,192,12257,1,0,0:0:0:0:
109,192,12415,128,0,12731:0:0:0:0:
402,192,12415,1,0,0:0:0:0:
329,192,12573,1,0,0:0:0:0:
36,192,12731,128,0,15257:0:0:0:0:
256,192,12731,1,0,0:0:0:0:
475,192,12731,1,0,0:0:0:0:
329,192,12889,1,0,0:0:0:0:
402,192,13047,1,0,0:0:0:0:
182,192,13047,1,0,0:0:0:0:
329,192,13205,1,0,0:0:0:0:
109,192,13363,1,0,0:0:0:0:
256,192,13363,1,0,0:0:0:0:
475,192,13363,1,0,0:0:0:0:
329,192,13521,1,0,0:0:0:0:
256,192,13678,1,0,0:0:0:0:
402,192,13678,128,0,13994:0:0:0:0:
182,192,13836,1,0,0:0:0:0:
475,192,13994,1,0,0:0:0:0:
109,192,13994,1,0,0:0:0:0:
329,192,13994,128,0,14310:0:0:0:0:
182,192,14152,1,0,0:0:0:0:
256,192,14310,128,0,14626:0:0:0:0:
475,192,14310,1,0,0:0:0:0:
402,192,14468,1,0,0:0:0:0:
109,192,14626,1,0,0:0:0:0:
182,192,14626,128,0,14942:0:0:0:0:
329,192,14626,1,0,0:0:0:0:
402,192,14784,1,0,0:0:0:0:
256,192,14942,128,0,15257:0:0:0:0:
475,192,14942,1,0,0:0:0:0:
329,192,15100,1,0,0:0:0:0:
475,192,15257,1,0,0:0:0:0:
402,192,15257,128,0,15573:0:0:0:0:
182,192,15257,1,0,0:0:0:0:
109,192,15415,1,0,0:0:0:0:
256,192,15573,1,0,0:0:0:0:
36,192,15573,1,0,0:0:0:0:
329,192,15731,1,0,0:0:0:0:
109,192,15889,1,0,0:0:0:0:
475,192,15889,1,0,0:0:0:0:
182,192,15889,128,0,16205:0:0:0:0:
402,192,16047,1,0,0:0:0:0:
329,192,16205,128,0,16521:0:0:0:0:
36,192,16205,1,0,0:0:0:0:
109,192,16363,1,0,0:0:0:0:
182,192,16521,128,0,16836:0:0:0:0:
256,192,16521,1,0,0:0:0:0:
475,192,16521,1,0,0:0:0:0:
402,192,16678,1,0,0:0:0:0:
329,192,16836,128,0,17152:0:0:0:0:
36,192,16836,1,0,0:0:0:0:
182,192,16994,1,0,0:0:0:0:
402,192,17152,128,0,17468:0:0:0:0:
109,192,17152,1,0,0:0:0:0:
36,192,17152,1,0,0:0:0:0:
256,192,17310,1,0,0:0:0:0:
475,192,17468,128,0,17784:0:0:0:0:
109,192,17468,1,0,0:0:0:0:
329,192,17626,1,0,0:0:0:0:
182,192,17784,128,0,20310:0:0:0:0:
256,192,17784,1,0,0:0:0:0:
36,192,17784,128,0,18415:0:0:0:0:
475,192,17942,1,0,0:0:0:0:
256,192,18100,1,0,0:0:0:0:
329,192,18100,1,0,0:0:0:0:
402,192,18257,1,0,0:0:0:0:
256,192,18415,1,0,0:0:0:0:
329,192,18415,1,0,0:0:0:0:
109,192,18415,128,0,19047:0:0:0:0:
402,192,18573,1,0,0:0:0:0:
475,192,18731,1,0,0:0:0:0:
36,192,18731,1,0,0:0:0:0:
256,192,18889,1,0,0:0:0:0:
329,192,19047,1,0,0:0:0:0:
475,192,19047,1,0,0:0:0:0:
402,192,19047,128,0,19678:0:0:0:0:
109,192,19205,1,0,0:0:0:0:
36,192,19363,1,0,0:0:0:0:
256,192,19363,1,0,0:0:0:0:
329,192,19521,1,0,0:0:0:0:
36,192,19678,1,0,0:0:0:0:
256,192,19678,1,0,0:0:0:0:
475,192,19678,128,0,20310:0:0:0:0:
329,192,19836,1,0,0:0:0:0:
36,192,19994,1,0,0:0:0:0:
402,192,19994,1,0,0:0:0:0:
329,192,20152,1,0,0:0:0:0:
36,192,20310,1,0,0:0:0:0:
256,192,20310,1,0,0:0:0:0:
109,192,20310,1,0,0:0:0:0:
182,192,20468,1,0,0:0:0:0:
402,192,20626,1,0,0:0:0:0:
256,192,20626,1,0,0:0:0:0:
182,192,20784,1,0,0:0:0:0:
109,192,20942,1,0,0:0:0:0:
36,192,20942,1,0,0:0:0:0:
329,192,20942,1,0,0:0:0:0:
402,192,21100,1,0,0:0:0:0:
475,192,21257,1,0,0:0:0:0:
182,192,21257,1,0,0:0:0:0:
109,192,21415,1,0,0:0:0:0:
36,192,21573,1,0,0:0:0:0:
329,192,21573,1,0,0:0:0:0:
402,192,21573,1,0,0:0:0:0:
475,192,21573,1,0,0:0:0:0:
182,192,21731,1,0,0:0:0:0:
329,192,21889,1,0,0:0:0:0:
402,192,22047,1,0,0:0:0:0:
36,192,22047,1,0,0:0:0:0:
109,192,22047,1,0,0:0:0:0:
475,192,22047,1,0,0:0:0:0:
329,192,22205,1,0,0:0:0:0:
182,192,22363,1,0,0:0:0:0:
109,192,22521,1,0,0:0:0:0:
36,192,22521,1,0,0:0:0:0:
256,192,22521,1,0,0:0:0:0:
475,192,22521,1,0,0:0:0:0:
329,192,22678,1,0,0:0:0:0:
475,192,22836,1,0,0:0:0:0:
402,192,22836,1,0,0:0:0:0:
182,192,22836,1,0,0:0:0:0:
36,192,22836,1,0,0:0:0:0:
329,192,22994,1,0,0:0:0:0:
256,192,23152,1,0,0:0:0:0:
109,192,23152,1,0,0:0:0:0:
36,192,23152,1,0,0:0:0:0:
402,192,23310,1,0,0:0:0:0:
475,192,23468,1,0,0:0:0:0:
182,192,23468,1,0,0:0:0:0:
329,192,23626,1,0,0:0:0:0:
256,192,23784,1,0,0:0:0:0:
109,192,23784,1,0,0:0:0:0:
36,192,23784,1,0,0:0:0:0:
329,192,23942,1,0,0:0:0:0:
182,192,24100,1,0,0:0:0:0:
402,192,24100,1,0,0:0:0:0:
475,192,24257,1,0,0:0:0:0:
109,192,24415,1,0,0:0:0:0:
256,192,24415,1,0,0:0:0:0:
36,192,24415,1,0,0:0:0:0:
475,192,24573,1,0,0:0:0:0:
182,192,24731,1,0,0:0:0:0:
402,192,24731,1,0,0:0:0:0:
329,192,24889,1,0,0:0:0:0:
36,192,25047,1,0,0:0:0:0:
109,192,25047,1,0,0:0:0:0:
256,192,25047,1,0,0:0:0:0:
329,192,25205,1,0,0:0:0:0:
475,192,25363,1,0,0:0:0:0:
36,192,25363,1,0,0:0:0:0:
402,192,25363,1,0,0:0:0:0:
109,192,25363,1,0,0:0:0:0:
402,192,25678,1,0,0:0:0:0:
475,192,25678,1,0,0:0:0:0:
109,192,25678,1,0,0:0:0:0:
36,192,25678,1,0,0:0:0:0:
402,192,25994,1,0,0:0:0:0:
475,192,25994,1,0,0:0:0:0:
109,192,25994,1,0,0:0:0:0:
36,192,25994,1,0,0:0:0:0:
329,192,26152,1,0,0:0:0:0:
182,192,26310,1,0,0:0:0:0:
109,192,26468,1,0,0:0:0:0:
36,192,26468,1,0,0:0:0:0:
402,192,26468,1,0,0:0:0:0:
475,192,26468,1,0,0:0:0:0:
329,192,26784,1,0,0:0:0:0:
182,192,26942,1,0,0:0:0:0:
329,192,27100,1,0,0:0:0:0:
475,192,27257,1,0,0:0:0:0:
36,192,27257,1,0,0:0:0:0:
36,192,27573,1,0,0:0:0:0:
475,192,27573,1,0,0:0:0:0:
256,192,27573,1,0,0:0:0:0:
182,192,27573,1,0,0:0:0:0:
329,192,27889,1,0,0:0:0:0:
109,192,27889,1,0,0:0:0:0:
256,192,28047,1,0,0:0:0:0:
402,192,28205,1,0,0:0:0:0:
475,192,28205,1,0,0:0:0:0:
182,192,28205,1,0,0:0:0:0:
109,192,28363,1,0,0:0:0:0:
36,192,28521,1,0,0:0:0:0:
329,192,28521,1,0,0:0:0:0:
256,192,28678,1,0,0:0:0:0:
182,192,28836,1,0,0:0:0:0:
402,192,28836,1,0,0:0:0:0:
475,192,28836,1,0,0:0:0:0:
36,192,28994,1,0,0:0:0:0:
256,192,29152,1,0,0:0:0:0:
109,192,29152,1,0,0:0:0:0:
182,192,29310,1,0,0:0:0:0:
36,192,29468,1,0,0:0:0:0:
402,192,29468,1,0,0:0:0:0:
475,192,29468,1,0,0:0:0:0:
256,192,29626,1,0,0:0:0:0:
329,192,29784,1,0,0:0:0:0:
182,192,29784,1,0,0:0:0:0:
36,192,29942,1,0,0:0:0:0:
109,192,30100,1,0,0:0:0:0:
402,192,30100,1,0,0:0:0:0:
475,192,30100,1,0,0:0:0:0:
256,192,30257,1,0,0:0:0:0:
109,192,30415,1,0,0:0:0:0:
36,192,30415,1,0,0:0:0:0:
475,192,30415,1,0,0:0:0:0:
329,192,30415,1,0,0:0:0:0:
256,192,30889,1,0,0:0:0:0:
182,192,31047,1,0,0:0:0:0:
36,192,31047,1,0,0:0:0:0:
329,192,31047,1,0,0:0:0:0:
402,192,31047,1,0,0:0:0:0:
256,192,31363,1,0,0:0:0:0:
329,192,31521,1,0,0:0:0:0:
402,192,31678,1,0,0:0:0:0:
475,192,31678,1,0,0:0:0:0:
182,192,31678,1,0,0:0:0:0:
109,192,31678,1,0,0:0:0:0:
256,192,31836,1,0,0:0:0:0:
329,192,31994,1,0,0:0:0:0:
36,192,31994,1,0,0:0:0:0:
402,192,31994,1,0,0:0:0:0:
182,192,32152,1,0,0:0:0:0:
475,192,32310,1,0,0:0:0:0:
256,192,32310,1,0,0:0:0:0:
109,192,32310,1,0,0:0:0:0:
36,192,32468,1,0,0:0:0:0:
329,192,32626,1,0,0:0:0:0:
402,192,32626,1,0,0:0:0:0:
182,192,32626,1,0,0:0:0:0:
256,192,32784,1,0,0:0:0:0:
182,192,32942,1,0,0:0:0:0:
475,192,32942,1,0,0:0:0:0:
109,192,32942,1,0,0:0:0:0:
36,192,32942,1,0,0:0:0:0:
329,192,33100,1,0,0:0:0:0:
182,192,33257,1,0,0:0:0:0:
475,192,33257,1,0,0:0:0:0:
36,192,33257,1,0,0:0:0:0:
329,192,33415,1,0,0:0:0:0:
402,192,33573,1,0,0:0:0:0:
109,192,33573,1,0,0:0:0:0:
256,192,33731,1,0,0:0:0:0:
182,192,33889,1,0,0:0:0:0:
36,192,33889,1,0,0:0:0:0:
475,192,33889,1,0,0:0:0:0:
329,192,34047,1,0,0:0:0:0:
402,192,34205,1,0,0:0:0:0:
256,192,34205,1,0,0:0:0:0:
109,192,34363,1,0,0:0:0:0:
182,192,34521,1,0,0:0:0:0:
36,192,34521,1,0,0:0:0:0:
475,192,34521,1,0,0:0:0:0:
329,192,34678,1,0,0:0:0:0:
109,192,34836,1,0,0:0:0:0:
256,192,34836,1,0,0:0:0:0:
402,192,34994,1,0,0:0:0:0:
475,192,35152,1,0,0:0:0:0:
182,192,35152,1,0,0:0:0:0:
36,192,35152,1,0,0:0:0:0:
256,192,35310,1,0,0:0:0:0:
109,192,35468,1,0,0:0:0:0:
329,192,35468,1,0,0:0:0:0:
256,192,35626,1,0,0:0:0:0:
182,192,35784,1,0,0:0:0:0:
36,192,35784,1,0,0:0:0:0:
475,192,35784,1,0,0:0:0:0:
329,192,35942,1,0,0:0:0:0:
109,192,36100,1,0,0:0:0:0:
402,192,36100,1,0,0:0:0:0:
256,192,36257,1,0,0:0:0:0:
182,192,36415,1,0,0:0:0:0:
36,192,36415,1,0,0:0:0:0:
475,192,36415,1,0,0:0:0:0:
256,192,36573,1,0,0:0:0:0:
402,192,36731,1,0,0:0:0:0:
109,192,36731,1,0,0:0:0:0:
329,192,36889,1,0,0:0:0:0:
182,192,37047,1,0,0:0:0:0:
36,192,37047,1,0,0:0:0:0:
475,192,37047,1,0,0:0:0:0:
402,192,37205,1,0,0:0:0:0:
329,192,37363,1,0,0:0:0:0:
109,192,37363,1,0,0:0:0:0:
256,192,37521,1,0,0:0:0:0:
182,192,37678,1,0,0:0:0:0:
36,192,37678,1,0,0:0:0:0:
475,192,37678,1,0,0:0:0:0:
256,192,37836,1,0,0:0:0:0:
329,192,37994,1,0,0:0:0:0:
109,192,37994,1,0,0:0:0:0:
402,192,38152,1,0,0:0:0:0:
475,192,38310,1,0,0:0:0:0:
256,192,38310,1,0,0:0:0:0:
36,192,38310,1,0,0:0:0:0:
329,192,38468,1,0,0:0:0:0:
182,192,38626,1,0,0:0:0:0:
402,192,38626,1,0,0:0:0:0:
109,192,38784,1,0,0:0:0:0:
36,192,38942,1,0,0:0:0:0:
256,192,38942,1,0,0:0:0:0:
475,192,38942,1,0,0:0:0:0:
402,192,39100,1,0,0:0:0:0:
329,192,39257,1,0,0:0:0:0:
109,192,39257,1,0,0:0:0:0:
182,192,39415,1,0,0:0:0:0:
36,192,39573,1,0,0:0:0:0:
256,192,39573,1,0,0:0:0:0:
475,192,39573,1,0,0:0:0:0:
109,192,39731,1,0,0:0:0:0:
256,192,39889,1,0,0:0:0:0:
402,192,39889,1,0,0:0:0:0:
182,192,40047,1,0,0:0:0:0:
475,192,40205,1,0,0:0:0:0:
329,192,40205,1,0,0:0:0:0:
36,192,40205,1,0,0:0:0:0:
109,192,40363,1,0,0:0:0:0:
402,192,40521,1,0,0:0:0:0:
182,192,40521,1,0,0:0:0:0:
329,192,40678,1,0,0:0:0:0:
256,192,40836,1,0,0:0:0:0:
475,192,40836,1,0,0:0:0:0:
36,192,40836,1,0,0:0:0:0:
109,192,40994,1,0,0:0:0:0:
402,192,41152,1,0,0:0:0:0:
329,192,41152,1,0,0:0:0:0:
182,192,41310,1,0,0:0:0:0:
256,192,41468,1,0,0:0:0:0:
36,192,41468,1,0,0:0:0:0:
475,192,41468,1,0,0:0:0:0:
329,192,41626,1,0,0:0:0:0:
109,192,41784,1,0,0:0:0:0:
36,192,41784,1,0,0:0:0:0:
182,192,41784,128,0,41942:0:0:0:0:
402,192,41784,1,0,0:0:0:0:
329,192,41942,128,0,42100:0:0:0:0:
109,192,42257,1,0,0:0:0:0:
36,192,42257,1,0,0:0:0:0:
182,192,42257,128,0,42415:0:0:0:0:
402,192,42257,1,0,0:0:0:0:
329,192,42573,128,0,42731:0:0:0:0:
109,192,42731,1,0,0:0:0:0:
36,192,42731,1,0,0:0:0:0:
182,192,42731,128,0,43047:0:0:0:0:
402,192,42731,1,0,0:0:0:0:
329,192,42889,1,0,0:0:0:0:
256,192,43047,1,0,0:0:0:0:
36,192,43047,1,0,0:0:0:0:
475,192,43047,1,0,0:0:0:0:
402,192,43047,1,0,0:0:0:0:
182,192,43205,1,0,0:0:0:0:
256,192,43363,1,0,0:0:0:0:
402,192,43363,1,0,0:0:0:0:
36,192,43363,1,0,0:0:0:0:
109,192,43521,1,0,0:0:0:0:
182,192,43678,1,0,0:0:0:0:
329,192,43678,1,0,0:0:0:0:
475,192,43836,1,0,0:0:0:0:
256,192,43994,1,0,0:0:0:0:
36,192,43994,1,0,0:0:0:0:
402,192,43994,1,0,0:0:0:0:
182,192,44152,1,0,0:0:0:0:
329,192,44310,1,0,0:0:0:0:
109,192,44310,1,0,0:0:0:0:
475,192,44468,1,0,0:0:0:0:
402,192,44626,1,0,0:0:0:0:
256,192,44626,1,0,0:0:0:0:
36,192,44626,1,0,0:0:0:0:
109,192,44784,1,0,0:0:0:0:
182,192,44942,1,0,0:0:0:0:
475,192,44942,1,0,0:0:0:0:
329,192,45100,1,0,0:0:0:0:
402,192,45257,1,0,0:0:0:0:
256,192,45257,1,0,0:0:0:0:
36,192,45257,1,0,0:0:0:0:
182,192,45415,1,0,0:0:0:0:
109,192,45573,1,0,0:0:0:0:
36,192,45573,1,0,0:0:0:0:
329,192,45573,1,0,0:0:0:0:
475,192,45573,1,0,0:0:0:0:
329,192,45889,1,0,0:0:0:0:
475,192,45889,1,0,0:0:0:0:
109,192,45889,1,0,0:0:0:0:
36,192,45889,1,0,0:0:0:0:
329,192,46205,1,0,0:0:0:0:
475,192,46205,1,0,0:0:0:0:
109,192,46205,1,0,0:0:0:0:
36,192,46205,1,0,0:0:0:0:
182,192,46363,1,0,0:0:0:0:
256,192,46521,1,0,0:0:0:0:
329,192,46678,1,0,0:0:0:0:
402,192,46678,1,0,0:0:0:0:
36,192,46678,1,0,0:0:0:0:
475,192,46678,1,0,0:0:0:0:
182,192,46994,1,0,0:0:0:0:
329,192,47152,1,0,0:0:0:0:
182,192,47310,1,0,0:0:0:0:
36,192,47468,1,0,0:0:0:0:
329,192,47784,1,0,0:0:0:0:
182,192,47784,1,0,0:0:0:0:
109,192,47784,1,0,0:0:0:0:
36,192,47784,1,0,0:0:0:0:
256,192,48100,1,0,0:0:0:0:
402,192,48100,1,0,0:0:0:0:
475,192,48100,1,0,0:0:0:0:
109,192,48257,1,0,0:0:0:0:
182,192,48415,1,0,0:0:0:0:
329,192,48415,1,0,0:0:0:0:
36,192,48415,1,0,0:0:0:0:
402,192,48573,1,0,0:0:0:0:
475,192,48731,1,0,0:0:0:0:
256,192,48731,1,0,0:0:0:0:
109,192,48889,1,0,0:0:0:0:
329,192,49047,1,0,0:0:0:0:
182,192,49047,1,0,0:0:0:0:
36,192,49047,1,0,0:0:0:0:
256,192,49205,1,0,0:0:0:0:
109,192,49363,1,0,0:0:0:0:
402,192,49363,1,0,0:0:0:0:
475,192,49521,1,0,0:0:0:0:
329,192,49678,1,0,0:0:0:0:
182,192,49678,1,0,0:0:0:0:
36,192,49678,1,0,0:0:0:0:
256,192,49836,1,0,0:0:0:0:
182,192,49994,1,0,0:0:0:0:
475,192,49994,1,0,0:0:0:0:
402,192,50152,1,0,0:0:0:0:
329,192,50310,1,0,0:0:0:0:
182,192,50310,1,0,0:0:0:0:
36,192,50310,1,0,0:0:0:0:
402,192,50468,1,0,0:0:0:0:
475,192,50626,1,0,0:0:0:0:
256,192,50626,1,0,0:0:0:0:
109,192,50626,1,0,0:0:0:0:
36,192,50626,1,0,0:0:0:0:
329,192,51100,1,0,0:0:0:0:
475,192,51257,1,0,0:0:0:0:
256,192,51257,1,0,0:0:0:0:
109,192,51257,1,0,0:0:0:0:
36,192,51257,1,0,0:0:0:0:
329,192,51573,1,0,0:0:0:0:
182,192,51731,1,0,0:0:0:0:
256,192,51889,1,0,0:0:0:0:
475,192,51889,1,0,0:0:0:0:
109,192,51889,1,0,0:0:0:0:
36,192,51889,1,0,0:0:0:0:
329,192,52047,1,0,0:0:0:0:
402,192,52205,1,0,0:0:0:0:
182,192,52205,1,0,0:0:0:0:
475,192,52205,1,0,0:0:0:0:
256,192,52363,1,0,0:0:0:0:
402,192,52521,1,0,0:0:0:0:
109,192,52521,1,0,0:0:0:0:
36,192,52521,1,0,0:0:0:0:
256,192,52678,1,0,0:0:0:0:
109,192,52836,1,0,0:0:0:0:
329,192,52836,1,0,0:0:0:0:
475,192,52836,1,0,0:0:0:0:
256,192,52994,1,0,0:0:0:0:
109,192,53152,1,0,0:0:0:0:
36,192,53152,1,0,0:0:0:0:
329,192,53152,1,0,0:0:0:0:
475,192,53152,1,0,0:0:0:0:
182,192,53310,1,0,0:0:0:0:
329,192,53468,1,0,0:0:0:0:
402,192,53468,1,0,0:0:0:0:
109,192,53468,1,0,0:0:0:0:
475,192,53626,1,0,0:0:0:0:
256,192,53784,1,0,0:0:0:0:
36,192,53784,1,0,0:0:0:0:
182,192,53942,1,0,0:0:0:0:
109,192,54100,1,0,0:0:0:0:
329,192,54100,1,0,0:0:0:0:
402,192,54100,1,0,0:0:0:0:
256,192,54257,1,0,0:0:0:0:
475,192,54415,1,0,0:0:0:0:
182,192,54415,1,0,0:0:0:0:
36,192,54573,1,0,0:0:0:0:
109,192,54731,1,0,0:0:0:0:
402,192,54731,1,0,0:0:0:0:
329,192,54731,1,0,0:0:0:0:
182,192,54889,1,0,0:0:0:0:
256,192,55047,1,0,0:0:0:0:
475,192,55047,1,0,0:0:0:0:
36,192,55205,1,0,0:0:0:0:
402,192,55363,1,0,0:0:0:0:
329,192,55363,1,0,0:0:0:0:
109,192,55363,1,0,0:0:0:0:
182,192,55521,1,0,0:0:0:0:
329,192,55678,1,0,0:0:0:0:
36,192,55678,1,0,0:0:0:0:
256,192,55836,1,0,0:0:0:0:
109,192,55994,1,0,0:0:0:0:
402,192,55994,1,0,0:0:0:0:
329,192,55994,1,0,0:0:0:0:
182,192,56152,1,0,0:0:0:0:
475,192,56310,1,0,0:0:0:0:
36,192,56310,1,0,0:0:0:0:
256,192,56468,1,0,0:0:0:0:
329,192,56626,1,0,0:0:0:0:
402,192,56626,1,0,0:0:0:0:
109,192,56626,1,0,0:0:0:0:
182,192,56784,1,0,0:0:0:0:
475,192,56942,1,0,0:0:0:0:
256,192,56942,1,0,0:0:0:0:
182,192,57100,1,0,0:0:0:0:
109,192,57257,1,0,0:0:0:0:
329,192,57257,1,0,0:0:0:0:
402,192,57257,1,0,0:0:0:0:
36,192,57415,1,0,0:0:0:0:
329,192,57573,1,0,0:0:0:0:
475,192,57573,1,0,0:0:0:0:
182,192,57731,1,0,0:0:0:0:
329,192,57889,1,0,0:0:0:0:
402,192,57889,1,0,0:0:0:0:
109,192,57889,1,0,0:0:0:0:
182,192,58047,1,0,0:0:0:0:
256,192,58205,1,0,0:0:0:0:
475,192,58205,1,0,0:0:0:0:
329,192,58363,1,0,0:0:0:0:
402,192,58521,1,0,0:0:0:0:
182,192,58521,1,0,0:0:0:0:
36,192,58521,1,0,0:0:0:0:
256,192,58678,1,0,0:0:0:0:
329,192,58836,1,0,0:0:0:0:
109,192,58836,1,0,0:0:0:0:
475,192,58994,1,0,0:0:0:0:
402,192,59152,1,0,0:0:0:0:
182,192,59152,1,0,0:0:0:0:
36,192,59152,1,0,0:0:0:0:
256,192,59310,1,0,0:0:0:0:
36,192,59468,1,0,0:0:0:0:
475,192,59468,1,0,0:0:0:0:
329,192,59626,1,0,0:0:0:0:
182,192,59784,1,0,0:0:0:0:
36,192,59784,1,0,0:0:0:0:
402,192,59784,1,0,0:0:0:0:
256,192,59942,1,0,0:0:0:0:
109,192,60100,1,0,0:0:0:0:
329,192,60100,1,0,0:0:0:0:
475,192,60257,1,0,0:0:0:0:
402,192,60415,1,0,0:0:0:0:
182,192,60415,1,0,0:0:0:0:
36,192,60415,1,0,0:0:0:0:
329,192,60573,1,0,0:0:0:0:
256,192,60731,1,0,0:0:0:0:
109,192,60731,1,0,0:0:0:0:
329,192,60889,1,0,0:0:0:0:
402,192,61047,1,0,0:0:0:0:
182,192,61047,1,0,0:0:0:0:
36,192,61047,1,0,0:0:0:0:
256,192,61205,1,0,0:0:0:0:
329,192,61363,1,0,0:0:0:0:
475,192,61363,1,0,0:0:0:0:
109,192,61521,1,0,0:0:0:0:
402,192,61678,1,0,0:0:0:0:
182,192,61678,1,0,0:0:0:0:
36,192,61678,1,0,0:0:0:0:
256,192,61836,1,0,0:0:0:0:
182,192,61994,128,0,62626:0:0:0:0:
402,192,61994,1,0,0:0:0:0:
329,192,61994,1,0,0:0:0:0:
475,192,62152,1,0,0:0:0:0:
402,192,62310,1,0,0:0:0:0:
256,192,62468,1,0,0:0:0:0:
109,192,62468,1,0,0:0:0:0:
36,192,62468,1,0,0:0:0:0:
329,192,62626,128,0,63257:0:0:0:0:
182,192,62784,1,0,0:0:0:0:
109,192,62942,1,0,0:0:0:0:
36,192,62942,1,0,0:0:0:0:
475,192,62942,1,0,0:0:0:0:
182,192,63100,1,0,0:0:0:0:
256,192,63257,1,0,0:0:0:0:
109,192,63257,1,0,0:0:0:0:
475,192,63257,128,0,66415:0:0:0:0:
402,192,63257,1,0,0:0:0:0:
329,192,63415,1,0,0:0:0:0:
182,192,63573,1,0,0:0:0:0:
109,192,63573,1,0,0:0:0:0:
256,192,63731,1,0,0:0:0:0:
36,192,63889,1,0,0:0:0:0:
402,192,63889,1,0,0:0:0:0:
109,192,63889,1,0,0:0:0:0:
182,192,64047,1,0,0:0:0:0:
329,192,64205,1,0,0:0:0:0:
109,192,64205,1,0,0:0:0:0:
182,192,64363,1,0,0:0:0:0:
256,192,64521,1,0,0:0:0:0:
402,192,64521,1,0,0:0:0:0:
36,192,64521,128,0,65152:0:0:0:0:
109,192,64678,1,0,0:0:0:0:
329,192,64836,1,0,0:0:0:0:
256,192,64836,1,0,0:0:0:0:
402,192,64994,1,0,0:0:0:0:
182,192,65152,1,0,0:0:0:0:
329,192,65152,1,0,0:0:0:0:
109,192,65152,128,0,65784:0:0:0:0:
256,192,65310,1,0,0:0:0:0:
36,192,65468,1,0,0:0:0:0:
182,192,65468,1,0,0:0:0:0:
256,192,65626,1,0,0:0:0:0:
329,192,65784,1,0,0:0:0:0:
402,192,65784,1,0,0:0:0:0:
182,192,65784,128,0,66415:0:0:0:0:
109,192,65942,1,0,0:0:0:0:
256,192,66100,1,0,0:0:0:0:
36,192,66100,1,0,0:0:0:0:
109,192,66257,1,0,0:0:0:0:
402,192,66415,1,0,0:0:0:0:
256,192,66415,1,0,0:0:0:0:
329,192,66415,128,0,66731:0:0:0:0:
109,192,66573,1,0,0:0:0:0:
475,192,66731,1,0,0:0:0:0:
182,192,66731,128,0,67047:0:0:0:0:
402,192,66889,1,0,0:0:0:0:
329,192,67047,128,0,67678:0:0:0:0:
36,192,67047,1,0,0:0:0:0:
109,192,67047,1,0,0:0:0:0:
256,192,67205,1,0,0:0:0:0:
36,192,67363,1,0,0:0:0:0:
475,192,67363,1,0,0:0:0:0:
182,192,67521,1,0,0:0:0:0:
36,192,67678,1,0,0:0:0:0:
109,192,67678,128,0,67994:0:0:0:0:
402,192,67678,1,0,0:0:0:0:
329,192,67836,1,0,0:0:0:0:
182,192,67994,1,0,0:0:0:0:
475,192,67994,128,0,68310:0:0:0:0:
256,192,68152,1,0,0:0:0:0:
329,192,68310,1,0,0:0:0:0:
109,192,68310,1,0,0:0:0:0:
402,192,68310,128,0,71468:0:0:0:0:
182,192,68468,1,0,0:0:0:0:
36,192,68626,1,0,0:0:0:0:
329,192,68626,1,0,0:0:0:0:
182,192,68784,1,0,0:0:0:0:
256,192,68942,1,0,0:0:0:0:
36,192,68942,1,0,0:0:0:0:
475,192,68942,1,0,0:0:0:0:
329,192,69100,1,0,0:0:0:0:
256,192,69257,1,0,0:0:0:0:
109,192,69257,1,0,0:0:0:0:
329,192,69415,1,0,0:0:0:0:
475,192,69573,1,0,0:0:0:0:
36,192,69573,1,0,0:0:0:0:
182,192,69573,128,0,69889:0:0:0:0:
329,192,69731,1,0,0:0:0:0:
36,192,69889,1,0,0:0:0:0:
256,192,69889,128,0,70205:0:0:0:0:
475,192,70047,1,0,0:0:0:0:
36,192,70205,1,0,0:0:0:0:
109,192,70205,1,0,0:0:0:0:
329,192,70205,128,0,70521:0:0:0:0:
256,192,70363,1,0,0:0:0:0:
182,192,70521,1,0,0:0:0:0:
475,192,70521,128,0,70836:0:0:0:0:
109,192,70678,1,0,0:0:0:0:
36,192,70836,1,0,0:0:0:0:
256,192,70836,128,0,71468:0:0:0:0:
329,192,70994,1,0,0:0:0:0:
109,192,71152,1,0,0:0:0:0:
475,192,71152,1,0,0:0:0:0:
182,192,71310,1,0,0:0:0:0:
475,192,71468,1,0,0:0:0:0:
329,192,71468,1,0,0:0:0:0:
36,192,71468,1,0,0:0:0:0:
109,192,71626,1,0,0:0:0:0:
182,192,71784,1,0,0:0:0:0:
475,192,71784,1,0,0:0:0:0:
329,192,71942,1,0,0:0:0:0:
402,192,72100,1,0,0:0:0:0:
109,192,72100,128,0,72415:0:0:0:0:
182,192,72100,1,0,0:0:0:0:
256,192,72257,1,0,0:0:0:0:
402,192,72415,128,0,72731:0:0:0:0:
329,192,72415,1,0,0:0:0:0:
256,192,72573,1,0,0:0:0:0:
182,192,72731,128,0,73047:0:0:0:0:
36,192,72731,1,0,0:0:0:0:
475,192,72731,1,0,0:0:0:0:
256,192,72889,1,0,0:0:0:0:
109,192,73047,128,0,73363:0:0:0:0:
402,192,73047,1,0,0:0:0:0:
329,192,73205,1,0,0:0:0:0:
36,192,73363,128,0,75889:0:0:0:0:
256,192,73363,1,0,0:0:0:0:
475,192,73363,1,0,0:0:0:0:
329,192,73521,1,0,0:0:0:0:
402,192,73678,1,0,0:0:0:0:
182,192,73678,1,0,0:0:0:0:
329,192,73836,1,0,0:0:0:0:
109,192,73994,1,0,0:0:0:0:
256,192,73994,1,0,0:0:0:0:
475,192,73994,1,0,0:0:0:0:
329,192,74152,1,0,0:0:0:0:
256,192,74310,1,0,0:0:0:0:
402,192,74310,128,0,74626:0:0:0:0:
182,192,74468,1,0,0:0:0:0:
475,192,74626,1,0,0:0:0:0:
109,192,74626,1,0,0:0:0:0:
329,192,74626,128,0,74942:0:0:0:0:
182,192,74784,1,0,0:0:0:0:
256,192,74942,128,0,75257:0:0:0:0:
475,192,74942,1,0,0:0:0:0:
402,192,75100,1,0,0:0:0:0:
109,192,75257,1,0,0:0:0:0:
182,192,75257,128,0,75573:0:0:0:0:
329,192,75257,1,0,0:0:0:0:
402,192,75415,1,0,0:0:0:0:
256,192,75573,128,0,75889:0:0:0:0:
475,192,75573,1,0,0:0:0:0:
329,192,75731,1,0,0:0:0:0:
475,192,75889,1,0,0:0:0:0:
402,192,75889,128,0,76205:0:0:0:0:
182,192,75889,1,0,0:0:0:0:
109,192,76047,1,0,0:0:0:0:
256,192,76205,1,0,0:0:0:0:
36,192,76205,1,0,0:0:0:0:
329,192,76363,1,0,0:0:0:0:
109,192,76521,1,0,0:0:0:0:
475,192,76521,1,0,0:0:0:0:
182,192,76521,128,0,76836:0:0:0:0:
402,192,76678,1,0,0:0:0:0:
329,192,76836,128,0,77152:0:0:0:0:
36,192,76836,1,0,0:0:0:0:
109,192,76994,1,0,0:0:0:0:
182,192,77152,128,0,77468:0:0:0:0:
256,192,77152,1,0,0:0:0:0:
475,192,77152,1,0,0:0:0:0:
402,192,77310,1,0,0:0:0:0:
329,192,77468,128,0,77784:0:0:0:0:
36,192,77468,1,0,0:0:0:0:
182,192,77626,1,0,0:0:0:0:
402,192,77784,128,0,78100:0:0:0:0:
109,192,77784,1,0,0:0:0:0:
36,192,77784,1,0,0:0:0:0:
256,192,77942,1,0,0:0:0:0:
475,192,78100,128,0,78415:0:0:0:0:
109,192,78100,1,0,0:0:0:0:
329,192,78257,1,0,0:0:0:0:
182,192,78415,128,0,80942:0:0:0:0:
256,192,78415,1,0,0:0:0:0:
36,192,78415,128,0,79047:0:0:0:0:
475,192,78573,1,0,0:0:0:0:
256,192,78731,1,0,0:0:0:0:
329,192,78731,1,0,0:0:0:0:
402,192,78889,1,0,0:0:0:0:
256,192,79047,1,0,0:0:0:0:
329,192,79047,1,0,0:0:0:0:
109,192,79047,128,0,79678:0:0:0:0:
402,192,79205,1,0,0:0:0:0:
475,192,79363,1,0,0:0:0:0:
36,192,79363,1,0,0:0:0:0:
256,192,79521,1,0,0:0:0:0:
329,192,79678,1,0,0:0:0:0:
475,192,79678,1,0,0:0:0:0:
402,192,79678,128,0,80310:0:0:0:0:
109,192,79836,1,0,0:0:0:0:
36,192,79994,1,0,0:0:0:0:
256,192,79994,1,0,0:0:0:0:
329,192,80152,1,0,0:0:0:0:
36,192,80310,1,0,0:0:0:0:
256,192,80310,1,0,0:0:0:0:
475,192,80310,128,0,80942:0:0:0:0:
329,192,80468,1,0,0:0:0:0:
36,192,80626,1,0,0:0:0:0:
402,192,80626,1,0,0:0:0:0:
329,192,80784,1,0,0:0:0:0:
36,192,80942,1,0,0:0:0:0:
256,192,80942,1,0,0:0:0:0:
109,192,80942,1,0,0:0:0:0:
182,192,81100,1,0,0:0:0:0:
402,192,81257,1,0,0:0:0:0:
256,192,81257,1,0,0:0:0:0:
182,192,81415,1,0,0:0:0:0:
109,192,81573,1,0,0:0:0:0:
36,192,81573,1,0,0:0:0:0:
329,192,81573,1,0,0:0:0:0:
402,192,81731,1,0,0:0:0:0:
475,192,81889,1,0,0:0:0:0:
182,192,81889,1,0,0:0:0:0:
109,192,82047,1,0,0:0:0:0:
36,192,82205,1,0,0:0:0:0:
329,192,82205,1,0,0:0:0:0:
402,192,82205,1,0,0:0:0:0:
475,192,82205,1,0,0:0:0:0:
182,192,82363,1,0,0:0:0:0:
329,192,82521,1,0,0:0:0:0:
402,192,82678,1,0,0:0:0:0:
36,192,82678,1,0,0:0:0:0:
109,192,82678,1,0,0:0:0:0:
475,192,82678,1,0,0:0:0:0:
329,192,82994,1,0,0:0:0:0:
182,192,83152,1,0,0:0:0:0:
36,192,83152,1,0,0:0:0:0:
329,192,83310,1,0,0:0:0:0:
475,192,83468,1,0,0:0:0:0:
182,192,83468,1,0,0:0:0:0:
109,192,83468,1,0,0:0:0:0:
36,192,83468,1,0,0:0:0:0:
256,192,83626,1,0,0:0:0:0:
182,192,83784,1,0,0:0:0:0:
329,192,83784,1,0,0:0:0:0:
36,192,83784,1,0,0:0:0:0:
402,192,83942,1,0,0:0:0:0:
475,192,84100,1,0,0:0:0:0:
256,192,84100,1,0,0:0:0:0:
109,192,84257,1,0,0:0:0:0:
329,192,84415,1,0,0:0:0:0:
182,192,84415,1,0,0:0:0:0:
36,192,84415,1,0,0:0:0:0:
256,192,84573,1,0,0:0:0:0:
109,192,84731,1,0,0:0:0:0:
402,192,84731,1,0,0:0:0:0:
475,192,84889,1,0,0:0:0:0:
329,192,85047,1,0,0:0:0:0:
182,192,85047,1,0,0:0:0:0:
36,192,85047,1,0,0:0:0:0:
256,192,85205,1,0,0:0:0:0:
182,192,85363,1,0,0:0:0:0:
475,192,85363,1,0,0:0:0:0:
402,192,85521,1,0,0:0:0:0:
329,192,85678,1,0,0:0:0:0:
182,192,85678,1,0,0:0:0:0:
36,192,85678,1,0,0:0:0:0:
402,192,85836,1,0,0:0:0:0:
475,192,85994,1,0,0:0:0:0:
182,192,85994,1,0,0:0:0:0:
109,192,85994,1,0,0:0:0:0:
329,192,85994,1,0,0:0:0:0:
329,192,86310,1,0,0:0:0:0:
475,192,86310,1,0,0:0:0:0:
182,192,86310,1,0,0:0:0:0:
109,192,86310,1,0,0:0:0:0:
182,192,86626,1,0,0:0:0:0:
109,192,86626,1,0,0:0:0:0:
329,192,86626,1,0,0:0:0:0:
475,192,86626,1,0,0:0:0:0:
256,192,86784,1,0,0:0:0:0:
182,192,86942,1,0,0:0:0:0:
329,192,87100,1,0,0:0:0:0:
475,192,87100,1,0,0:0:0:0:
109,192,87100,1,0,0:0:0:0:
36,192,87100,1,0,0:0:0:0:
182,192,87415,1,0,0:0:0:0:
329,192,87573,1,0,0:0:0:0:
182,192,87731,1,0,0:0:0:0:
475,192,87889,1,0,0:0:0:0:
402,192,88205,1,0,0:0:0:0:
256,192,88205,1,0,0:0:0:0:
109,192,88205,1,0,0:0:0:0:
182,192,88521,1,0,0:0:0:0:
475,192,88521,1,0,0:0:0:0:
329,192,88678,1,0,0:0:0:0:
36,192,88836,1,0,0:0:0:0:
475,192,88836,1,0,0:0:0:0:
182,192,88836,1,0,0:0:0:0:
329,192,88994,1,0,0:0:0:0:
109,192,89152,1,0,0:0:0:0:
402,192,89152,1,0,0:0:0:0:
256,192,89310,1,0,0:0:0:0:
475,192,89468,1,0,0:0:0:0:
36,192,89468,1,0,0:0:0:0:
182,192,89468,1,0,0:0:0:0:
329,192,89626,1,0,0:0:0:0:
256,192,89784,1,0,0:0:0:0:
402,192,89784,1,0,0:0:0:0:
109,192,89942,1,0,0:0:0:0:
475,192,90100,1,0,0:0:0:0:
36,192,90100,1,0,0:0:0:0:
182,192,90100,1,0,0:0:0:0:
329,192,90257,1,0,0:0:0:0:
256,192,90415,1,0,0:0:0:0:
109,192,90415,1,0,0:0:0:0:
402,192,90573,1,0,0:0:0:0:
36,192,90731,1,0,0:0:0:0:
182,192,90731,1,0,0:0:0:0:
475,192,90731,1,0,0:0:0:0:
256,192,90889,1,0,0:0:0:0:
329,192,91047,1,0,0:0:0:0:
109,192,91047,1,0,0:0:0:0:
402,192,91047,1,0,0:0:0:0:
36,192,91047,1,0,0:0:0:0:
182,192,91521,1,0,0:0:0:0:
329,192,91678,1,0,0:0:0:0:
402,192,91678,1,0,0:0:0:0:
36,192,91678,1,0,0:0:0:0:
182,192,91994,1,0,0:0:0:0:
329,192,92152,1,0,0:0:0:0:
475,192,92310,1,0,0:0:0:0:
182,192,92310,1,0,0:0:0:0:
36,192,92310,1,0,0:0:0:0:
109,192,92310,1,0,0:0:0:0:
329,192,92468,1,0,0:0:0:0:
256,192,92626,1,0,0:0:0:0:
402,192,92626,1,0,0:0:0:0:
182,192,92626,1,0,0:0:0:0:
109,192,92784,1,0,0:0:0:0:
36,192,92942,1,0,0:0:0:0:
329,192,92942,1,0,0:0:0:0:
475,192,92942,1,0,0:0:0:0:
182,192,93100,1,0,0:0:0:0:
402,192,93257,1,0,0:0:0:0:
256,192,93257,1,0,0:0:0:0:
109,192,93257,1,0,0:0:0:0:
329,192,93415,1,0,0:0:0:0:
402,192,93573,1,0,0:0:0:0:
475,192,93573,1,0,0:0:0:0:
182,192,93573,1,0,0:0:0:0:
36,192,93573,1,0,0:0:0:0:
256,192,93731,1,0,0:0:0:0:
475,192,93889,1,0,0:0:0:0:
36,192,93889,1,0,0:0:0:0:
182,192,93889,1,0,0:0:0:0:
329,192,94047,1,0,0:0:0:0:
402,192,94205,1,0,0:0:0:0:
109,192,94205,1,0,0:0:0:0:
256,192,94363,1,0,0:0:0:0:
475,192,94521,1,0,0:0:0:0:
36,192,94521,1,0,0:0:0:0:
182,192,94521,1,0,0:0:0:0:
256,192,94678,1,0,0:0:0:0:
109,192,94836,1,0,0:0:0:0:
402,192,94836,1,0,0:0:0:0:
329,192,94994,1,0,0:0:0:0:
475,192,95152,1,0,0:0:0:0:
36,192,95152,1,0,0:0:0:0:
182,192,95152,1,0,0:0:0:0:
402,192,95310,1,0,0:0:0:0:
109,192,95468,1,0,0:0:0:0:
329,192,95468,1,0,0:0:0:0:
256,192,95626,1,0,0:0:0:0:
475,192,95784,1,0,0:0:0:0:
36,192,95784,1,0,0:0:0:0:
182,192,95784,1,0,0:0:0:0:
256,192,95942,1,0,0:0:0:0:
109,192,96100,1,0,0:0:0:0:
329,192,96100,1,0,0:0:0:0:
402,192,96257,1,0,0:0:0:0:
36,192,96415,1,0,0:0:0:0:
182,192,96415,1,0,0:0:0:0:
475,192,96415,1,0,0:0:0:0:
329,192,96573,1,0,0:0:0:0:
402,192,96731,1,0,0:0:0:0:
256,192,96731,1,0,0:0:0:0:
109,192,96889,1,0,0:0:0:0:
475,192,97047,1,0,0:0:0:0:
182,192,97047,1,0,0:0:0:0:
36,192,97047,1,0,0:0:0:0:
402,192,97205,1,0,0:0:0:0:
109,192,97363,1,0,0:0:0:0:
329,192,97363,1,0,0:0:0:0:
256,192,97521,1,0,0:0:0:0:
475,192,97678,1,0,0:0:0:0:
182,192,97678,1,0,0:0:0:0:
36,192,97678,1,0,0:0:0:0:
329,192,97836,1,0,0:0:0:0:
402,192,97994,1,0,0:0:0:0:
109,192,97994,1,0,0:0:0:0:
329,192,98152,1,0,0:0:0:0:
36,192,98310,1,0,0:0:0:0:
182,192,98310,1,0,0:0:0:0:
475,192,98310,1,0,0:0:0:0:
109,192,98468,1,0,0:0:0:0:
182,192,98626,1,0,0:0:0:0:
402,192,98626,1,0,0:0:0:0:
329,192,98784,1,0,0:0:0:0:
36,192,98942,1,0,0:0:0:0:
475,192,98942,1,0,0:0:0:0:
256,192,98942,1,0,0:0:0:0:
109,192,99100,1,0,0:0:0:0:
329,192,99257,1,0,0:0:0:0:
402,192,99257,1,0,0:0:0:0:
182,192,99415,1,0,0:0:0:0:
475,192,99573,1,0,0:0:0:0:
36,192,99573,1,0,0:0:0:0:
256,192,99573,1,0,0:0:0:0:
329,192,99731,1,0,0:0:0:0:
182,192,99889,1,0,0:0:0:0:
109,192,99889,1,0,0:0:0:0:
402,192,100047,1,0,0:0:0:0:
475,192,100205,1,0,0:0:0:0:
256,192,100205,1,0,0:0:0:0:
36,192,100205,1,0,0:0:0:0:
109,192,100363,1,0,0:0:0:0:
402,192,100521,1,0,0:0:0:0:
182,192,100521,1,0,0:0:0:0:
329,192,100678,1,0,0:0:0:0:
256,192,100836,1,0,0:0:0:0:
475,192,100836,1,0,0:0:0:0:
36,192,100836,1,0,0:0:0:0:
109,192,100994,1,0,0:0:0:0:
402,192,101152,1,0,0:0:0:0:
256,192,101152,1,0,0:0:0:0:
109,192,101310,1,0,0:0:0:0:
36,192,101468,1,0,0:0:0:0:
256,192,101468,1,0,0:0:0:0:
475,192,101468,1,0,0:0:0:0:
329,192,101626,1,0,0:0:0:0:
109,192,101784,1,0,0:0:0:0:
402,192,101784,1,0,0:0:0:0:
182,192,101942,1,0,0:0:0:0:
256,192,102100,1,0,0:0:0:0:
36,192,102100,1,0,0:0:0:0:
475,192,102100,1,0,0:0:0:0:
329,192,102257,1,0,0:0:0:0:
109,192,102415,1,0,0:0:0:0:
36,192,102415,1,0,0:0:0:0:
475,192,102415,1,0,0:0:0:0:
402,192,102415,128,0,102573:0:0:0:0:
256,192,102573,128,0,102731:0:0:0:0:
109,192,102889,128,0,103047:0:0:0:0:
475,192,102889,1,0,0:0:0:0:
329,192,102889,1,0,0:0:0:0:
36,192,102889,1,0,0:0:0:0:
256,192,103205,128,0,103363:0:0:0:0:
402,192,103363,128,0,103521:0:0:0:0:
329,192,103363,1,0,0:0:0:0:
36,192,103363,1,0,0:0:0:0:
475,192,103363,1,0,0:0:0:0:
109,192,103521,128,0,103678:0:0:0:0:
182,192,103678,1,0,0:0:0:0:
256,192,103678,1,0,0:0:0:0:
475,192,103678,1,0,0:0:0:0:
36,192,103678,1,0,0:0:0:0:
329,192,103836,1,0,0:0:0:0:
256,192,103994,1,0,0:0:0:0:
109,192,103994,1,0,0:0:0:0:
36,192,103994,1,0,0:0:0:0:
402,192,104152,1,0,0:0:0:0:
475,192,104310,1,0,0:0:0:0:
182,192,104310,1,0,0:0:0:0:
329,192,104468,1,0,0:0:0:0:
256,192,104626,1,0,0:0:0:0:
109,192,104626,1,0,0:0:0:0:
36,192,104626,1,0,0:0:0:0:
329,192,104784,1,0,0:0:0:0:
182,192,104942,1,0,0:0:0:0:
402,192,104942,1,0,0:0:0:0:
475,192,105100,1,0,0:0:0:0:
109,192,105257,1,0,0:0:0:0:
256,192,105257,1,0,0:0:0:0:
36,192,105257,1,0,0:0:0:0:
475,192,105415,1,0,0:0:0:0:
182,192,105573,1,0,0:0:0:0:
402,192,105573,1,0,0:0:0:0:
329,192,105731,1,0,0:0:0:0:
36,192,105889,1,0,0:0:0:0:
109,192,105889,1,0,0:0:0:0:
256,192,105889,1,0,0:0:0:0:
329,192,106047,1,0,0:0:0:0:
475,192,106205,1,0,0:0:0:0:
36,192,106205,1,0,0:0:0:0:
402,192,106205,1,0,0:0:0:0:
109,192,106205,1,0,0:0:0:0:
402,192,106521,1,0,0:0:0:0:
329,192,106521,1,0,0:0:0:0:
182,192,106521,1,0,0:0:0:0:
109,192,106521,1,0,0:0:0:0:
475,192,106836,1,0,0:0:0:0:
402,192,106836,1,0,0:0:0:0:
109,192,106836,1,0,0:0:0:0:
36,192,106836,1,0,0:0:0:0:
182,192,106994,1,0,0:0:0:0:
329,192,107152,1,0,0:0:0:0:
402,192,107310,1,0,0:0:0:0:
475,192,107310,1,0,0:0:0:0:
109,192,107310,1,0,0:0:0:0:
36,192,107310,1,0,0:0:0:0:
256,192,107626,1,0,0:0:0:0:
402,192,107784,1,0,0:0:0:0:
109,192,107942,1,0,0:0:0:0:
256,192,108100,1,0,0:0:0:0:
329,192,108415,1,0,0:0:0:0:
182,192,108415,1,0,0:0:0:0:
109,192,108415,1,0,0:0:0:0:
475,192,108415,1,0,0:0:0:0:
256,192,108731,1,0,0:0:0:0:
36,192,108731,1,0,0:0:0:0:
402,192,108731,1,0,0:0:0:0:
182,192,108889,1,0,0:0:0:0:
256,192,109047,1,0,0:0:0:0:
402,192,109047,1,0,0:0:0:0:
475,192,109047,1,0,0:0:0:0:
109,192,109205,1,0,0:0:0:0:
36,192,109363,1,0,0:0:0:0:
329,192,109363,1,0,0:0:0:0:
182,192,109521,1,0,0:0:0:0:
256,192,109678,1,0,0:0:0:0:
402,192,109678,1,0,0:0:0:0:
475,192,109678,1,0,0:0:0:0:
182,192,109836,1,0,0:0:0:0:
329,192,109994,1,0,0:0:0:0:
109,192,109994,1,0,0:0:0:0:
36,192,110152,1,0,0:0:0:0:
402,192,110310,1,0,0:0:0:0:
256,192,110310,1,0,0:0:0:0:
475,192,110310,1,0,0:0:0:0:
36,192,110468,1,0,0:0:0:0:
329,192,110626,1,0,0:0:0:0:
109,192,110626,1,0,0:0:0:0:
182,192,110784,1,0,0:0:0:0:
475,192,110942,1,0,0:0:0:0:
402,192,110942,1,0,0:0:0:0:
256,192,110942,1,0,0:0:0:0:
182,192,111100,1,0,0:0:0:0:
36,192,111257,1,0,0:0:0:0:
475,192,111257,1,0,0:0:0:0:
109,192,111257,1,0,0:0:0:0:
402,192,111257,1,0,0:0:0:0:
256,192,111731,1,0,0:0:0:0:
402,192,111889,1,0,0:0:0:0:
475,192,111889,1,0,0:0:0:0:
182,192,111889,1,0,0:0:0:0:
109,192,111889,1,0,0:0:0:0:
256,192,112205,1,0,0:0:0:0:
329,192,112363,1,0,0:0:0:0:
256,192,112521,1,0,0:0:0:0:
109,192,112521,1,0,0:0:0:0:
402,192,112521,1,0,0:0:0:0:
475,192,112521,1,0,0:0:0:0:
182,192,112678,1,0,0:0:0:0:
256,192,112836,1,0,0:0:0:0:
36,192,112836,1,0,0:0:0:0:
329,192,112836,1,0,0:0:0:0:
402,192,112994,1,0,0:0:0:0:
475,192,113152,1,0,0:0:0:0:
182,192,113152,1,0,0:0:0:0:
36,192,113152,1,0,0:0:0:0:
256,192,113310,1,0,0:0:0:0:
182,192,113468,1,0,0:0:0:0:
329,192,113468,1,0,0:0:0:0:
475,192,113468,1,0,0:0:0:0:
109,192,113626,1,0,0:0:0:0:
36,192,113784,1,0,0:0:0:0:
182,192,113784,1,0,0:0:0:0:
256,192,113784,1,0,0:0:0:0:
475,192,113784,1,0,0:0:0:0:
402,192,113942,1,0,0:0:0:0:
329,192,114100,1,0,0:0:0:0:
182,192,114100,1,0,0:0:0:0:
475,192,114100,1,0,0:0:0:0:
109,192,114257,1,0,0:0:0:0:
36,192,114415,1,0,0:0:0:0:
256,192,114415,1,0,0:0:0:0:
402,192,114573,1,0,0:0:0:0:
182,192,114731,1,0,0:0:0:0:
329,192,114731,1,0,0:0:0:0:
475,192,114731,1,0,0:0:0:0:
256,192,114889,1,0,0:0:0:0:
402,192,115047,1,0,0:0:0:0:
109,192,115047,1,0,0:0:0:0:
36,192,115205,1,0,0:0:0:0:
182,192,115363,1,0,0:0:0:0:
329,192,115363,1,0,0:0:0:0:
475,192,115363,1,0,0:0:0:0:
256,192,115521,1,0,0:0:0:0:
329,192,115678,1,0,0:0:0:0:
36,192,115678,1,0,0:0:0:0:
109,192,115836,1,0,0:0:0:0:
182,192,115994,1,0,0:0:0:0:
329,192,115994,1,0,0:0:0:0:
475,192,115994,1,0,0:0:0:0:
36,192,116152,1,0,0:0:0:0:
475,192,116310,1,0,0:0:0:0:
256,192,116310,1,0,0:0:0:0:
109,192,116468,1,0,0:0:0:0:
475,192,116626,1,0,0:0:0:0:
329,192,116626,1,0,0:0:0:0:
182,192,116626,1,0,0:0:0:0:
256,192,116784,1,0,0:0:0:0:
402,192,116942,1,0,0:0:0:0:
36,192,116942,1,0,0:0:0:0:
109,192,117100,1,0,0:0:0:0:
182,192,117257,1,0,0:0:0:0:
329,192,117257,1,0,0:0:0:0:
475,192,117257,1,0,0:0:0:0:
109,192,117415,1,0,0:0:0:0:
402,192,117573,1,0,0:0:0:0:
182,192,117573,1,0,0:0:0:0:
256,192,117731,1,0,0:0:0:0:
475,192,117889,1,0,0:0:0:0:
329,192,117889,1,0,0:0:0:0:
182,192,117889,1,0,0:0:0:0:
36,192,118047,1,0,0:0:0:0:
402,192,118205,1,0,0:0:0:0:
109,192,118205,1,0,0:0:0:0:
256,192,118363,1,0,0:0:0:0:
475,192,118521,1,0,0:0:0:0:
329,192,118521,1,0,0:0:0:0:
182,192,118521,1,0,0:0:0:0:
109,192,118678,1,0,0:0:0:0:
36,192,118836,1,0,0:0:0:0:
402,192,118836,1,0,0:0:0:0:
256,192,118994,1,0,0:0:0:0:
109,192,119152,1,0,0:0:0:0:
329,192,119152,1,0,0:0:0:0:
182,192,119152,1,0,0:0:0:0:
475,192,119310,1,0,0:0:0:0:
329,192,119468,1,0,0:0:0:0:
36,192,119468,1,0,0:0:0:0:
256,192,119626,1,0,0:0:0:0:
182,192,119784,1,0,0:0:0:0:
109,192,119784,1,0,0:0:0:0:
329,192,119784,1,0,0:0:0:0:
402,192,119942,1,0,0:0:0:0:
475,192,120100,1,0,0:0:0:0:
256,192,120100,1,0,0:0:0:0:
36,192,120257,1,0,0:0:0:0:
109,192,120415,1,0,0:0:0:0:
182,192,120415,1,0,0:0:0:0:
329,192,120415,1,0,0:0:0:0:
402,192,120573,1,0,0:0:0:0:
182,192,120731,1,0,0:0:0:0:
475,192,120731,1,0,0:0:0:0:
36,192,120889,1,0,0:0:0:0:
109,192,121047,1,0,0:0:0:0:
182,192,121047,1,0,0:0:0:0:
329,192,121047,1,0,0:0:0:0:
475,192,121205,1,0,0:0:0:0:
256,192,121363,1,0,0:0:0:0:
109,192,121363,1,0,0:0:0:0:
402,192,121521,1,0,0:0:0:0:
329,192,121678,1,0,0:0:0:0:
182,192,121678,1,0,0:0:0:0:
109,192,121678,1,0,0:0:0:0:
36,192,121836,1,0,0:0:0:0:
256,192,121994,1,0,0:0:0:0:
475,192,121994,1,0,0:0:0:0:
402,192,122152,1,0,0:0:0:0:
182,192,122310,1,0,0:0:0:0:
329,192,122310,1,0,0:0:0:0:
109,192,122310,1,0,0:0:0:0:
256,192,122468,1,0,0:0:0:0:
109,192,122626,1,0,0:0:0:0:
402,192,122626,1,0,0:0:0:0:
475,192,122626,1,0,0:0:0:0:
36,192,122626,1,0,0:0:0:0:
182,192,122784,5,0,0:0:0:0:
329,192,122942,1,0,0:0:0:0:
109,192,123100,1,0,0:0:0:0:
256,192,123100,1,0,0:0:0:0:
402,192,123100,1,0,0:0:0:0:
475,192,123100,1,0,0:0:0:0:
329,192,123257,1,0,0:0:0:0:
182,192,123415,1,0,0:0:0:0:
109,192,123573,1,0,0:0:0:0:
256,192,123573,1,0,0:0:0:0:
402,192,123573,1,0,0:0:0:0:
36,192,123573,1,0,0:0:0:0:
329,192,123731,1,0,0:0:0:0:
402,192,123889,1,0,0:0:0:0:
182,192,123889,1,0,0:0:0:0:
36,192,123889,1,0,0:0:0:0:
475,192,123889,1,0,0:0:0:0:
256,192,124047,1,0,0:0:0:0:
109,192,124205,1,0,0:0:0:0:
329,192,124363,1,0,0:0:0:0:
402,192,124363,1,0,0:0:0:0:
182,192,124521,1,0,0:0:0:0:
36,192,124521,1,0,0:0:0:0:
256,192,124521,1,0,0:0:0:0:
329,192,124836,1,0,0:0:0:0:
475,192,124836,1,0,0:0:0:0:
182,192,124836,1,0,0:0:0:0:
329,192,125152,1,0,0:0:0:0:
475,192,125152,1,0,0:0:0:0:
182,192,125152,1,0,0:0:0:0:
109,192,125152,1,0,0:0:0:0:
36,192,125310,1,0,0:0:0:0:
256,192,125468,1,0,0:0:0:0:
402,192,125626,1,0,0:0:0:0:
109,192,125626,1,0,0:0:0:0:
36,192,125784,1,0,0:0:0:0:
329,192,125784,1,0,0:0:0:0:
182,192,125784,1,0,0:0:0:0:
256,192,126100,1,0,0:0:0:0:
109,192,126100,1,0,0:0:0:0:
402,192,126100,1,0,0:0:0:0:
182,192,126257,1,0,0:0:0:0:
402,192,126415,1,0,0:0:0:0:
256,192,126415,1,0,0:0:0:0:
109,192,126415,1,0,0:0:0:0:
475,192,126415,1,0,0:0:0:0:
402,192,126731,1,0,0:0:0:0:
475,192,126731,1,0,0:0:0:0:
256,192,126731,1,0,0:0:0:0:
109,192,126731,1,0,0:0:0:0:
256,192,127047,1,0,0:0:0:0:
109,192,127047,1,0,0:0:0:0:
402,192,127047,1,0,0:0:0:0:
475,192,127047,1,0,0:0:0:0:
329,192,127205,1,0,0:0:0:0:
182,192,127363,1,0,0:0:0:0:
109,192,127521,1,0,0:0:0:0:
36,192,127521,1,0,0:0:0:0:
256,192,127521,1,0,0:0:0:0:
475,192,127521,1,0,0:0:0:0:
329,192,127678,1,0,0:0:0:0:
182,192,127836,1,0,0:0:0:0:
256,192,127994,1,0,0:0:0:0:
329,192,128152,1,0,0:0:0:0:
256,192,128310,1,0,0:0:0:0:
109,192,128310,1,0,0:0:0:0:
475,192,128626,1,0,0:0:0:0:
182,192,128626,1,0,0:0:0:0:
109,192,128626,1,0,0:0:0:0:
329,192,128626,128,0,128942:0:0:0:0:
36,192,128942,1,0,0:0:0:0:
256,192,128942,1,0,0:0:0:0:
402,192,128942,1,0,0:0:0:0:
329,192,129100,128,0,129257:0:0:0:0:
109,192,129257,1,0,0:0:0:0:
475,192,129257,1,0,0:0:0:0:
329,192,129415,128,0,129573:0:0:0:0:
182,192,129573,1,0,0:0:0:0:
36,192,129573,1,0,0:0:0:0:
402,192,129573,1,0,0:0:0:0:
256,192,129731,128,0,129889:0:0:0:0:
329,192,129889,1,0,0:0:0:0:
475,192,129889,1,0,0:0:0:0:
256,192,130047,128,0,130205:0:0:0:0:
109,192,130205,1,0,0:0:0:0:
36,192,130205,1,0,0:0:0:0:
402,192,130205,1,0,0:0:0:0:
256,192,130363,128,0,130521:0:0:0:0:
475,192,130521,1,0,0:0:0:0:
182,192,130521,1,0,0:0:0:0:
256,192,130678,128,0,130836:0:0:0:0:
402,192,130836,1,0,0:0:0:0:
36,192,130836,1,0,0:0:0:0:
329,192,130836,1,0,0:0:0:0:
256,192,130994,128,0,131152:0:0:0:0:
475,192,131152,1,0,0:0:0:0:
109,192,131152,1,0,0:0:0:0:
36,192,131152,1,0,0:0:0:0:
256,192,131310,128,0,131468:0:0:0:0:
402,192,131468,1,0,0:0:0:0:
329,192,131468,1,0,0:0:0:0:
109,192,131468,1,0,0:0:0:0:
182,192,131468,1,0,0:0:0:0:
329,192,131626,1,0,0:0:0:0:
182,192,131626,1,0,0:0:0:0:
109,192,131626,1,0,0:0:0:0:
402,192,131626,1,0,0:0:0:0:
475,192,131784,1,0,0:0:0:0:
329,192,131784,1,0,0:0:0:0:
182,192,131784,1,0,0:0:0:0:
36,192,131784,1,0,0:0:0:0:
402,192,132100,1,0,0:0:0:0:
256,192,132100,1,0,0:0:0:0:
256,192,132257,1,0,0:0:0:0:
402,192,132257,1,0,0:0:0:0:
402,192,132415,1,0,0:0:0:0:
256,192,132415,1,0,0:0:0:0:
329,192,132731,1,0,0:0:0:0:
182,192,132731,1,0,0:0:0:0:
109,192,132731,1,0,0:0:0:0:
36,192,132731,1,0,0:0:0:0:
36,192,132889,1,0,0:0:0:0:
109,192,132889,1,0,0:0:0:0:
182,192,132889,1,0,0:0:0:0:
329,192,132889,1,0,0:0:0:0:
36,192,133047,1,0,0:0:0:0:
182,192,133047,1,0,0:0:0:0:
475,192,133047,1,0,0:0:0:0:
402,192,133047,1,0,0:0:0:0:
256,192,133363,1,0,0:0:0:0:
109,192,133363,1,0,0:0:0:0:
256,192,133521,1,0,0:0:0:0:
109,192,133521,1,0,0:0:0:0:
256,192,133678,1,0,0:0:0:0:
109,192,133678,1,0,0:0:0:0:
329,192,133994,1,0,0:0:0:0:
475,192,133994,1,0,0:0:0:0:
182,192,133994,1,0,0:0:0:0:
109,192,133994,1,0,0:0:0:0:
256,192,134152,1,0,0:0:0:0:
402,192,134310,1,0,0:0:0:0:
36,192,134310,1,0,0:0:0:0:
182,192,134468,1,0,0:0:0:0:
329,192,134626,1,0,0:0:0:0:
475,192,134626,1,0,0:0:0:0:
109,192,134626,1,0,0:0:0:0:
256,192,134784,1,0,0:0:0:0:
402,192,134942,1,0,0:0:0:0:
182,192,134942,1,0,0:0:0:0:
36,192,135100,1,0,0:0:0:0:
109,192,135257,1,0,0:0:0:0:
329,192,135257,1,0,0:0:0:0:
256,192,135257,1,0,0:0:0:0:
402,192,135415,1,0,0:0:0:0:
475,192,135573,1,0,0:0:0:0:
182,192,135573,1,0,0:0:0:0:
329,192,135731,1,0,0:0:0:0:
256,192,135889,1,0,0:0:0:0:
36,192,135889,1,0,0:0:0:0:
109,192,135889,1,0,0:0:0:0:
402,192,136047,1,0,0:0:0:0:
182,192,136205,1,0,0:0:0:0:
475,192,136205,1,0,0:0:0:0:
256,192,136363,1,0,0:0:0:0:
329,192,136521,1,0,0:0:0:0:
36,192,136521,1,0,0:0:0:0:
402,192,136521,1,0,0:0:0:0:
182,192,136678,1,0,0:0:0:0:
475,192,136836,1,0,0:0:0:0:
109,192,136836,1,0,0:0:0:0:
329,192,136994,1,0,0:0:0:0:
402,192,137152,1,0,0:0:0:0:
182,192,137152,1,0,0:0:0:0:
109,192,137152,1,0,0:0:0:0:
329,192,137310,1,0,0:0:0:0:
256,192,137468,1,0,0:0:0:0:
475,192,137468,1,0,0:0:0:0:
36,192,137626,1,0,0:0:0:0:
182,192,137784,1,0,0:0:0:0:
109,192,137784,1,0,0:0:0:0:
402,192,137784,1,0,0:0:0:0:
256,192,137942,1,0,0:0:0:0:
475,192,138100,1,0,0:0:0:0:
329,192,138100,1,0,0:0:0:0:
182,192,138257,1,0,0:0:0:0:
109,192,138415,1,0,0:0:0:0:
36,192,138415,1,0,0:0:0:0:
402,192,138415,1,0,0:0:0:0:
256,192,138573,1,0,0:0:0:0:
329,192,138731,1,0,0:0:0:0:
182,192,138731,1,0,0:0:0:0:
475,192,138889,1,0,0:0:0:0:
402,192,139047,1,0,0:0:0:0:
182,192,139047,1,0,0:0:0:0:
109,192,139047,1,0,0:0:0:0:
256,192,139205,1,0,0:0:0:0:
329,192,139363,1,0,0:0:0:0:
36,192,139363,1,0,0:0:0:0:
182,192,139521,1,0,0:0:0:0:
475,192,139678,1,0,0:0:0:0:
402,192,139678,1,0,0:0:0:0:
109,192,139678,1,0,0:0:0:0:
256,192,139836,1,0,0:0:0:0:
182,192,139994,1,0,0:0:0:0:
36,192,139994,1,0,0:0:0:0:
402,192,140152,1,0,0:0:0:0:
475,192,140310,1,0,0:0:0:0:
256,192,140310,1,0,0:0:0:0:
36,192,140310,1,0,0:0:0:0:
182,192,140468,1,0,0:0:0:0:
402,192,140626,1,0,0:0:0:0:
109,192,140626,1,0,0:0:0:0:
256,192,140784,1,0,0:0:0:0:
329,192,140942,1,0,0:0:0:0:
475,192,140942,1,0,0:0:0:0:
36,192,140942,1,0,0:0:0:0:
182,192,141100,1,0,0:0:0:0:
109,192,141257,1,0,0:0:0:0:
256,192,141257,1,0,0:0:0:0:
329,192,141415,1,0,0:0:0:0:
402,192,141573,1,0,0:0:0:0:
475,192,141573,1,0,0:0:0:0:
36,192,141573,1,0,0:0:0:0:
256,192,141731,1,0,0:0:0:0:
402,192,141889,1,0,0:0:0:0:
475,192,141889,1,0,0:0:0:0:
182,192,141889,1,0,0:0:0:0:
36,192,141889,1,0,0:0:0:0:
329,192,142047,1,0,0:0:0:0:
256,192,142205,1,0,0:0:0:0:
109,192,142205,1,0,0:0:0:0:
329,192,142363,1,0,0:0:0:0:
402,192,142521,1,0,0:0:0:0:
475,192,142521,1,0,0:0:0:0:
36,192,142521,1,0,0:0:0:0:
109,192,142678,1,0,0:0:0:0:
182,192,142836,1,0,0:0:0:0:
329,192,142836,1,0,0:0:0:0:
475,192,142836,1,0,0:0:0:0:
36,192,142994,1,0,0:0:0:0:
256,192,143152,1,0,0:0:0:0:
182,192,143310,1,0,0:0:0:0:
329,192,143310,1,0,0:0:0:0:
475,192,143310,1,0,0:0:0:0:
256,192,143468,1,0,0:0:0:0:
36,192,143626,1,0,0:0:0:0:
182,192,143784,1,0,0:0:0:0:
329,192,143784,1,0,0:0:0:0:
475,192,143784,1,0,0:0:0:0:
109,192,143942,1,0,0:0:0:0:
36,192,144100,1,0,0:0:0:0:
256,192,144100,1,0,0:0:0:0:
402,192,144100,1,0,0:0:0:0:
475,192,144100,1,0,0:0:0:0:
109,192,144257,1,0,0:0:0:0:
329,192,144415,1,0,0:0:0:0:
182,192,144573,1,0,0:0:0:0:
109,192,144573,1,0,0:0:0:0:
329,192,144731,1,0,0:0:0:0:
402,192,144731,1,0,0:0:0:0:
475,192,144731,1,0,0:0:0:0:
256,192,145047,1,0,0:0:0:0:
36,192,145047,1,0,0:0:0:0:
182,192,145047,1,0,0:0:0:0:
36,192,145363,1,0,0:0:0:0:
256,192,145363,1,0,0:0:0:0:
329,192,145363,1,0,0:0:0:0:
475,192,145363,1,0,0:0:0:0:
109,192,145521,1,0,0:0:0:0:
402,192,145678,1,0,0:0:0:0:
256,192,145836,1,0,0:0:0:0:
475,192,145836,1,0,0:0:0:0:
402,192,145994,1,0,0:0:0:0:
182,192,145994,1,0,0:0:0:0:
36,192,145994,1,0,0:0:0:0:
329,192,146310,1,0,0:0:0:0:
256,192,146310,1,0,0:0:0:0:
109,192,146310,1,0,0:0:0:0:
402,192,146468,1,0,0:0:0:0:
475,192,146626,1,0,0:0:0:0:
256,192,146626,1,0,0:0:0:0:
182,192,146626,1,0,0:0:0:0:
36,192,146626,1,0,0:0:0:0:
182,192,146942,1,0,0:0:0:0:
256,192,146942,1,0,0:0:0:0:
36,192,146942,1,0,0:0:0:0:
475,192,146942,1,0,0:0:0:0:
256,192,147257,1,0,0:0:0:0:
182,192,147257,1,0,0:0:0:0:
36,192,147257,1,0,0:0:0:0:
475,192,147257,1,0,0:0:0:0:
329,192,147415,1,0,0:0:0:0:
109,192,147573,1,0,0:0:0:0:
256,192,147731,1,0,0:0:0:0:
329,192,147731,1,0,0:0:0:0:
475,192,147731,1,0,0:0:0:0:
36,192,147731,1,0,0:0:0:0:
182,192,148047,1,0,0:0:0:0:
329,192,148205,1,0,0:0:0:0:
182,192,148363,1,0,0:0:0:0:
402,192,148363,1,0,0:0:0:0:
109,192,148521,1,0,0:0:0:0:
475,192,148521,1,0,0:0:0:0:
329,192,148836,1,0,0:0:0:0:
182,192,148836,1,0,0:0:0:0:
36,192,148836,1,0,0:0:0:0:
402,192,149152,1,0,0:0:0:0:
109,192,149152,1,0,0:0:0:0:
182,192,149310,128,0,149468:0:0:0:0:
329,192,149468,1,0,0:0:0:0:
475,192,149468,1,0,0:0:0:0:
36,192,149468,1,0,0:0:0:0:
182,192,149626,128,0,149784:0:0:0:0:
256,192,149784,1,0,0:0:0:0:
109,192,149784,1,0,0:0:0:0:
329,192,149942,128,0,150100:0:0:0:0:
402,192,150100,1,0,0:0:0:0:
182,192,150100,1,0,0:0:0:0:
36,192,150100,1,0,0:0:0:0:
329,192,150257,128,0,150415:0:0:0:0:
475,192,150415,1,0,0:0:0:0:
109,192,150415,1,0,0:0:0:0:
329,192,150573,132,0,150731:0:0:0:0:
256,192,150731,1,0,0:0:0:0:
36,192,150731,1,0,0:0:0:0:
402,192,150731,1,0,0:0:0:0:
329,192,150889,128,0,151047:0:0:0:0:
182,192,151047,1,0,0:0:0:0:
36,192,151047,1,0,0:0:0:0:
329,192,151205,128,0,151363:0:0:0:0:
109,192,151363,1,0,0:0:0:0:
402,192,151363,1,0,0:0:0:0:
475,192,151363,1,0,0:0:0:0:
329,192,151521,128,0,151678:0:0:0:0:
475,192,151678,5,0,0:0:0:0:
402,192,151678,1,0,0:0:0:0:
182,192,151678,1,0,0:0:0:0:
109,192,151678,1,0,0:0:0:0:
402,192,151836,1,0,0:0:0:0:
475,192,151836,1,0,0:0:0:0:
182,192,151836,1,0,0:0:0:0:
109,192,151836,1,0,0:0:0:0:
475,192,151994,1,0,0:0:0:0:
402,192,151994,1,0,0:0:0:0:
36,192,151994,1,0,0:0:0:0:
182,192,151994,1,0,0:0:0:0:
329,192,152310,1,0,0:0:0:0:
109,192,152310,1,0,0:0:0:0:
109,192,152468,1,0,0:0:0:0:
329,192,152468,1,0,0:0:0:0:
329,192,152626,1,0,0:0:0:0:
109,192,152626,1,0,0:0:0:0:
182,192,152942,1,0,0:0:0:0:
256,192,152942,1,0,0:0:0:0:
402,192,152942,1,0,0:0:0:0:
475,192,152942,1,0,0:0:0:0:
475,192,153100,5,0,0:0:0:0:
402,192,153100,1,0,0:0:0:0:
256,192,153100,1,0,0:0:0:0:
182,192,153100,1,0,0:0:0:0:
109,192,153257,1,0,0:0:0:0:
36,192,153257,1,0,0:0:0:0:
475,192,153257,1,0,0:0:0:0:
402,192,153257,1,0,0:0:0:0:
329,192,153573,1,0,0:0:0:0:
182,192,153573,1,0,0:0:0:0:
182,192,153731,1,0,0:0:0:0:
329,192,153731,1,0,0:0:0:0:
329,192,153889,1,0,0:0:0:0:
182,192,153889,1,0,0:0:0:0:
182,192,154205,5,0,0:0:0:0:
36,192,154205,1,0,0:0:0:0:
475,192,154205,1,0,0:0:0:0:
402,192,154205,1,0,0:0:0:0:
329,192,154363,1,0,0:0:0:0:
256,192,154521,1,0,0:0:0:0:
109,192,154521,1,0,0:0:0:0:
182,192,154678,1,0,0:0:0:0:
36,192,154836,1,0,0:0:0:0:
475,192,154836,1,0,0:0:0:0:
329,192,154836,1,0,0:0:0:0:
256,192,154994,1,0,0:0:0:0:
109,192,155152,1,0,0:0:0:0:
402,192,155152,1,0,0:0:0:0:
182,192,155310,1,0,0:0:0:0:
36,192,155468,1,0,0:0:0:0:
256,192,155468,1,0,0:0:0:0:
475,192,155468,1,0,0:0:0:0:
402,192,155626,1,0,0:0:0:0:
36,192,155784,1,0,0:0:0:0:
182,192,155784,1,0,0:0:0:0:
256,192,155942,1,0,0:0:0:0:
109,192,156100,1,0,0:0:0:0:
402,192,156100,1,0,0:0:0:0:
475,192,156100,1,0,0:0:0:0:
182,192,156257,1,0,0:0:0:0:
36,192,156415,1,0,0:0:0:0:
329,192,156415,1,0,0:0:0:0:
256,192,156573,1,0,0:0:0:0:
109,192,156731,1,0,0:0:0:0:
182,192,156731,1,0,0:0:0:0:
402,192,156731,1,0,0:0:0:0:
475,192,156889,1,0,0:0:0:0:
182,192,157047,1,0,0:0:0:0:
329,192,157047,1,0,0:0:0:0:
256,192,157205,1,0,0:0:0:0:
402,192,157363,1,0,0:0:0:0:
36,192,157363,1,0,0:0:0:0:
109,192,157363,1,0,0:0:0:0:
182,192,157521,1,0,0:0:0:0:
329,192,157678,1,0,0:0:0:0:
475,192,157678,1,0,0:0:0:0:
256,192,157836,1,0,0:0:0:0:
402,192,157994,1,0,0:0:0:0:
109,192,157994,1,0,0:0:0:0:
182,192,157994,1,0,0:0:0:0:
36,192,158152,1,0,0:0:0:0:
475,192,158310,1,0,0:0:0:0:
256,192,158310,1,0,0:0:0:0:
329,192,158468,1,0,0:0:0:0:
109,192,158626,1,0,0:0:0:0:
182,192,158626,1,0,0:0:0:0:
402,192,158626,1,0,0:0:0:0:
329,192,158784,1,0,0:0:0:0:
109,192,158942,1,0,0:0:0:0:
475,192,158942,1,0,0:0:0:0:
182,192,159100,1,0,0:0:0:0:
402,192,159257,1,0,0:0:0:0:
36,192,159257,1,0,0:0:0:0:
329,192,159257,1,0,0:0:0:0:
256,192,159415,1,0,0:0:0:0:
475,192,159573,1,0,0:0:0:0:
182,192,159573,1,0,0:0:0:0:
402,192,159731,1,0,0:0:0:0:
109,192,159889,1,0,0:0:0:0:
36,192,159889,1,0,0:0:0:0:
256,192,159889,1,0,0:0:0:0:
329,192,160047,1,0,0:0:0:0:
182,192,160205,1,0,0:0:0:0:
475,192,160205,1,0,0:0:0:0:
402,192,160363,1,0,0:0:0:0:
256,192,160521,1,0,0:0:0:0:
329,192,160521,1,0,0:0:0:0:
109,192,160521,1,0,0:0:0:0:
36,192,160678,1,0,0:0:0:0:
182,192,160836,1,0,0:0:0:0:
402,192,160836,1,0,0:0:0:0:
256,192,160994,1,0,0:0:0:0:
109,192,161152,1,0,0:0:0:0:
475,192,161152,1,0,0:0:0:0:
329,192,161152,1,0,0:0:0:0:
182,192,161310,1,0,0:0:0:0:
36,192,161468,1,0,0:0:0:0:
402,192,161468,1,0,0:0:0:0:
256,192,161626,1,0,0:0:0:0:
182,192,161784,1,0,0:0:0:0:
109,192,161784,1,0,0:0:0:0:
329,192,161784,1,0,0:0:0:0:
475,192,161784,1,0,0:0:0:0:
36,192,161942,1,0,0:0:0:0:
109,192,162100,1,0,0:0:0:0:
182,192,162100,1,0,0:0:0:0:
402,192,162100,1,0,0:0:0:0:
329,192,162257,1,0,0:0:0:0:
256,192,162415,1,0,0:0:0:0:
36,192,162415,1,0,0:0:0:0:
329,192,162573,1,0,0:0:0:0:
402,192,162731,1,0,0:0:0:0:
182,192,162731,1,0,0:0:0:0:
36,192,162731,1,0,0:0:0:0:
256,192,162889,1,0,0:0:0:0:
329,192,163047,1,0,0:0:0:0:
475,192,163047,1,0,0:0:0:0:
109,192,163047,1,0,0:0:0:0:
36,192,163047,1,0,0:0:0:0:
182,192,163205,1,0,0:0:0:0:
256,192,163363,1,0,0:0:0:0:
329,192,163521,1,0,0:0:0:0:
475,192,163521,1,0,0:0:0:0:
109,192,163521,1,0,0:0:0:0:
36,192,163521,1,0,0:0:0:0:
256,192,163678,1,0,0:0:0:0:
182,192,163836,1,0,0:0:0:0:
109,192,163994,1,0,0:0:0:0:
36,192,163994,1,0,0:0:0:0:
329,192,163994,1,0,0:0:0:0:
475,192,163994,1,0,0:0:0:0:
182,192,164152,1,0,0:0:0:0:
402,192,164310,1,0,0:0:0:0:
329,192,164310,1,0,0:0:0:0:
256,192,164310,1,0,0:0:0:0:
475,192,164310,1,0,0:0:0:0:
