osu file format v14

[General]
AudioFilename: O.M. Keleus ft. Hatsune Miku - Oplosan.mp3
AudioLeadIn: 0
PreviewTime: 123257
Countdown: 0
SampleSet: Soft
StackLeniency: 1
Mode: 3
LetterboxInBreaks: 0
SpecialStyle: 1
WidescreenStoryboard: 1

[Editor]
DistanceSpacing: 0.8
BeatDivisor: 2
GridSize: 8
TimelineZoom: 1.9

[Metadata]
Title:Oplosan
TitleUnicode:Oplosan
Artist:O.M. Keleus ft. Hatsune Miku
ArtistUnicode:O.M. Keleus ft. Hatsune Miku
Creator:puxtu
Version:4K NM
Source:
Tags:AncuL Ursa Fort Surono faiz007 guitaruz dangdut koplo bahasa indonesia indonesian indo javanese jawa wong jowo vocaloid Intel007 Mix Susu Stroberi Records nakedupsidedown mabok miras alcohol YKS soimah TransTV
BeatmapID:984419
BeatmapSetID:459502

[Difficulty]
HPDrainRate:7.5
CircleSize:4
OverallDifficulty:7.5
ApproachRate:5
SliderMultiplier:1.4
SliderTickRate:1

[Events]
//Background and Video events
0,0,"Miku osu.jpg",0,0
//Break Periods
//Storyboard Layer 0 (Background)
//Storyboard Layer 1 (Fail)
//Storyboard Layer 2 (Pass)
//Storyboard Layer 3 (Foreground)
//Storyboard Sound Samples

[TimingPoints]
100,315.789473684211,4,2,1,50,1,0
123889,-100,4,2,1,50,0,1
143468,-100,4,2,1,50,0,0
144100,-100,4,2,1,50,0,1
164310,-100,4,2,1,50,0,0

[HitObjects]
448,192,100,5,0,0:0:0:0:
192,192,415,1,8,0:0:0:0:
64,192,415,1,0,0:0:0:0:
320,192,731,1,0,0:0:0:0:
64,192,1047,1,0,0:0:0:0:
192,192,1363,1,8,0:0:0:0:
448,192,1363,1,0,0:0:0:0:
320,192,1521,1,0,0:0:0:0:
448,192,1678,1,0,0:0:0:0:
64,192,1836,1,8,0:0:0:0:
192,192,1836,1,0,0:0:0:0:
320,192,1994,1,0,0:0:0:0:
192,192,2152,1,0,0:0:0:0:
448,192,2310,1,8,0:0:0:0:
320,192,2310,1,0,0:0:0:0:
64,192,2468,1,0,0:0:0:0:
320,192,2626,1,4,0:0:0:0:
448,192,2626,128,4,5784:1:0:0:0:
192,192,2784,1,0,0:0:0:0:
64,192,2942,1,8,0:0:0:0:
192,192,3100,1,0,0:0:0:0:
64,192,3257,1,4,3:0:0:0:
320,192,3415,1,0,0:0:0:0:
192,192,3573,1,8,0:0:0:0:
320,192,3731,1,0,0:0:0:0:
64,192,3889,1,4,3:0:0:0:
192,192,4047,1,0,0:0:0:0:
320,192,4205,1,8,0:0:0:0:
192,192,4363,1,0,0:0:0:0:
320,192,4521,1,4,3:0:0:0:
64,192,4678,1,0,0:0:0:0:
192,192,4836,1,8,0:0:0:0:
64,192,4994,1,0,0:0:0:0:
320,192,5152,1,4,3:0:0:0:
192,192,5310,1,0,0:0:0:0:
64,192,5468,1,8,0:0:0:0:
192,192,5626,1,0,0:0:0:0:
64,192,5784,128,4,6100:3:0:0:0:
320,192,5942,1,0,0:0:0:0:
448,192,6100,128,8,6415:0:0:0:0:
320,192,6257,1,0,0:0:0:0:
192,192,6415,128,4,7047:3:0:0:0:
64,192,6573,1,0,0:0:0:0:
320,192,6731,1,8,0:0:0:0:
448,192,6889,1,0,0:0:0:0:
64,192,7047,128,4,7363:3:0:0:0:
320,192,7205,1,0,0:0:0:0:
448,192,7363,128,8,7678:0:0:0:0:
320,192,7521,1,0,0:0:0:0:
64,192,7678,128,4,10836:3:0:0:0:
192,192,7836,1,0,0:0:0:0:
320,192,7994,1,8,0:0:0:0:
192,192,8152,1,0,0:0:0:0:
320,192,8310,1,4,3:0:0:0:
448,192,8468,1,0,0:0:0:0:
320,192,8626,1,8,0:0:0:0:
448,192,8784,1,0,0:0:0:0:
192,192,8942,1,4,3:0:0:0:
320,192,9100,1,0,0:0:0:0:
192,192,9257,1,8,0:0:0:0:
320,192,9415,1,0,0:0:0:0:
192,192,9573,1,4,3:0:0:0:
320,192,9731,1,0,0:0:0:0:
448,192,9889,1,8,0:0:0:0:
320,192,10047,1,0,0:0:0:0:
448,192,10205,1,4,3:0:0:0:
192,192,10363,1,0,0:0:0:0:
320,192,10521,1,8,0:0:0:0:
192,192,10678,1,0,0:0:0:0:
320,192,10836,1,4,3:0:0:0:
448,192,10994,1,0,0:0:0:0:
64,192,11152,1,8,0:0:0:0:
320,192,11310,1,0,0:0:0:0:
192,192,11468,128,4,11784:3:0:0:0:
448,192,11626,1,0,0:0:0:0:
320,192,11784,128,8,12100:0:0:0:0:
64,192,11942,1,0,0:0:0:0:
448,192,12100,128,4,12415:3:0:0:0:
192,192,12257,1,0,0:0:0:0:
64,192,12415,128,8,12731:0:0:0:0:
192,192,12573,1,0,0:0:0:0:
320,192,12731,128,4,15257:3:0:0:0:
448,192,12889,1,0,0:0:0:0:
192,192,13047,1,8,0:0:0:0:
64,192,13205,1,0,0:0:0:0:
192,192,13363,1,4,3:0:0:0:
448,192,13521,1,0,0:0:0:0:
64,192,13678,1,8,0:0:0:0:
448,192,13836,1,0,0:0:0:0:
192,192,13994,1,4,3:0:0:0:
64,192,14152,1,0,0:0:0:0:
192,192,14310,1,8,0:0:0:0:
64,192,14468,1,0,0:0:0:0:
448,192,14626,1,4,3:0:0:0:
192,192,14784,1,0,0:0:0:0:
448,192,14942,1,8,0:0:0:0:
192,192,15100,1,0,0:0:0:0:
64,192,15257,1,4,3:0:0:0:
320,192,15415,1,0,0:0:0:0:
448,192,15573,1,8,0:0:0:0:
192,192,15731,1,0,0:0:0:0:
320,192,15889,128,4,16205:3:0:0:0:
448,192,16047,1,0,0:0:0:0:
64,192,16205,128,8,16521:0:0:0:0:
448,192,16363,1,0,0:0:0:0:
192,192,16521,128,4,16836:3:0:0:0:
448,192,16678,1,0,0:0:0:0:
320,192,16836,128,8,17152:0:0:0:0:
64,192,16994,1,0,0:0:0:0:
448,192,17152,128,4,17468:3:0:0:0:
192,192,17310,1,0,0:0:0:0:
64,192,17468,128,8,17784:0:0:0:0:
320,192,17626,1,0,0:0:0:0:
192,192,17784,128,4,20310:3:0:0:0:
320,192,17942,1,0,0:0:0:0:
448,192,18100,1,8,0:0:0:0:
64,192,18257,1,0,0:0:0:0:
448,192,18415,1,4,3:0:0:0:
320,192,18573,1,0,0:0:0:0:
64,192,18731,1,8,0:0:0:0:
320,192,18889,1,0,0:0:0:0:
64,192,19047,1,4,3:0:0:0:
448,192,19205,1,0,0:0:0:0:
320,192,19363,1,8,0:0:0:0:
448,192,19521,1,0,0:0:0:0:
320,192,19678,1,4,3:0:0:0:
64,192,19836,1,0,0:0:0:0:
320,192,19994,1,8,0:0:0:0:
64,192,20152,1,0,0:0:0:0:
448,192,20310,1,4,3:0:0:0:
192,192,20468,1,0,0:0:0:0:
320,192,20626,1,8,0:0:0:0:
64,192,20784,1,0,0:0:0:0:
192,192,20942,1,4,3:0:0:0:
448,192,21100,1,0,0:0:0:0:
192,192,21257,1,8,0:0:0:0:
320,192,21415,1,0,0:0:0:0:
64,192,21573,1,4,3:0:0:0:
448,192,21573,1,0,0:0:0:0:
192,192,21731,1,0,0:0:0:0:
320,192,21889,1,0,0:0:0:0:
192,192,22047,1,4,3:0:0:0:
448,192,22047,1,0,0:0:0:0:
64,192,22205,1,0,0:0:0:0:
448,192,22363,1,0,0:0:0:0:
192,192,22521,1,4,3:0:0:0:
320,192,22521,1,0,0:0:0:0:
64,192,22678,1,0,0:0:0:0:
448,192,22836,1,4,1:0:0:0:
192,192,22836,1,4,0:0:0:0:
320,192,22994,1,0,0:0:0:0:
64,192,23152,1,8,0:0:0:0:
448,192,23152,1,0,0:0:0:0:
192,192,23310,1,0,0:0:0:0:
320,192,23468,1,0,0:0:0:0:
64,192,23626,1,0,0:0:0:0:
192,192,23784,1,8,0:0:0:0:
448,192,23784,1,0,0:0:0:0:
64,192,23942,1,0,0:0:0:0:
320,192,24100,1,0,0:0:0:0:
192,192,24257,1,0,0:0:0:0:
320,192,24415,1,8,0:0:0:0:
64,192,24415,1,0,0:0:0:0:
192,192,24573,1,0,0:0:0:0:
448,192,24731,1,0,0:0:0:0:
320,192,24889,1,0,0:0:0:0:
64,192,25047,1,8,0:0:0:0:
192,192,25047,1,0,0:0:0:0:
320,192,25205,1,0,0:0:0:0:
192,192,25363,1,8,0:0:0:0:
448,192,25363,1,2,0:0:0:0:
320,192,25678,1,2,0:0:0:0:
64,192,25678,1,8,0:0:0:0:
448,192,25994,1,8,0:0:0:0:
192,192,25994,1,2,0:0:0:0:
320,192,26310,1,0,0:0:0:0:
64,192,26468,1,4,1:0:0:0:
448,192,26468,1,4,0:0:0:0:
192,192,26784,1,0,0:0:0:0:
320,192,26942,1,8,3:0:0:0:
64,192,27100,1,0,0:0:0:0:
448,192,27257,1,8,3:0:0:0:
320,192,27573,1,8,0:0:0:0:
192,192,27573,1,4,0:0:0:0:
64,192,27889,1,0,0:0:0:0:
448,192,27889,1,0,0:0:0:0:
320,192,28047,1,0,0:0:0:0:
192,192,28205,1,8,0:0:0:0:
448,192,28205,1,0,0:0:0:0:
320,192,28363,1,0,0:0:0:0:
64,192,28521,1,0,0:0:0:0:
448,192,28678,1,0,0:0:0:0:
192,192,28836,1,8,0:0:0:0:
64,192,28836,1,0,0:0:0:0:
320,192,28994,1,0,0:0:0:0:
192,192,29152,1,0,0:0:0:0:
448,192,29310,1,0,0:0:0:0:
192,192,29468,1,8,0:0:0:0:
64,192,29468,1,0,0:0:0:0:
320,192,29626,1,0,0:0:0:0:
64,192,29784,1,0,0:0:0:0:
192,192,29942,1,0,0:0:0:0:
448,192,30100,1,8,0:0:0:0:
320,192,30100,1,0,0:0:0:0:
192,192,30257,1,0,0:0:0:0:
320,192,30415,1,8,0:0:0:0:
64,192,30415,1,2,0:0:0:0:
320,192,30889,1,0,0:0:0:0:
192,192,31047,1,8,0:0:0:0:
448,192,31047,1,2,0:0:0:0:
192,192,31521,1,0,0:0:0:0:
320,192,31678,1,2,0:0:0:0:
64,192,31678,1,8,0:0:0:0:
448,192,31836,1,0,0:0:0:0:
192,192,31994,1,8,0:0:0:0:
320,192,31994,1,2,0:0:0:0:
64,192,32152,1,0,0:0:0:0:
192,192,32310,1,2,0:0:0:0:
448,192,32310,1,8,0:0:0:0:
320,192,32468,1,0,0:0:0:0:
448,192,32626,1,8,0:0:0:0:
64,192,32626,1,2,0:0:0:0:
192,192,32784,1,0,0:0:0:0:
320,192,32942,1,4,1:0:0:0:
448,192,32942,1,4,0:0:0:0:
64,192,33100,1,0,0:0:0:0:
192,192,33257,1,8,0:0:0:0:
320,192,33257,1,0,0:0:0:0:
448,192,33415,1,0,0:0:0:0:
64,192,33573,1,0,0:0:0:0:
448,192,33731,1,0,0:0:0:0:
320,192,33889,1,8,0:0:0:0:
192,192,33889,1,0,0:0:0:0:
448,192,34047,1,0,0:0:0:0:
64,192,34205,1,0,0:0:0:0:
320,192,34363,1,0,0:0:0:0:
64,192,34521,1,8,0:0:0:0:
192,192,34521,1,0,0:0:0:0:
448,192,34678,1,0,0:0:0:0:
64,192,34836,1,0,0:0:0:0:
448,192,34994,1,0,0:0:0:0:
320,192,35152,1,8,0:0:0:0:
64,192,35152,1,0,0:0:0:0:
192,192,35310,1,0,0:0:0:0:
320,192,35468,1,0,0:0:0:0:
64,192,35626,1,0,0:0:0:0:
192,192,35784,1,8,0:0:0:0:
448,192,35784,1,0,0:0:0:0:
64,192,35942,1,0,0:0:0:0:
320,192,36100,1,0,0:0:0:0:
448,192,36257,1,0,0:0:0:0:
192,192,36415,1,8,0:0:0:0:
64,192,36415,1,0,0:0:0:0:
448,192,36573,1,0,0:0:0:0:
320,192,36731,1,0,0:0:0:0:
192,192,36889,1,0,0:0:0:0:
448,192,37047,1,8,0:0:0:0:
320,192,37047,1,0,0:0:0:0:
64,192,37205,1,0,0:0:0:0:
320,192,37363,1,0,0:0:0:0:
192,192,37521,1,0,0:0:0:0:
448,192,37678,1,8,0:0:0:0:
64,192,37678,1,0,0:0:0:0:
192,192,37836,1,0,0:0:0:0:
320,192,37994,1,0,0:0:0:0:
64,192,38152,1,0,0:0:0:0:
192,192,38310,1,8,0:0:0:0:
448,192,38310,1,0,0:0:0:0:
64,192,38468,1,0,0:0:0:0:
320,192,38626,1,0,0:0:0:0:
448,192,38784,1,0,0:0:0:0:
192,192,38942,1,8,0:0:0:0:
64,192,38942,1,0,0:0:0:0:
448,192,39100,1,0,0:0:0:0:
192,192,39257,1,0,0:0:0:0:
320,192,39415,1,0,0:0:0:0:
192,192,39573,1,8,0:0:0:0:
64,192,39573,1,0,0:0:0:0:
448,192,39731,1,0,0:0:0:0:
64,192,39889,1,0,0:0:0:0:
320,192,40047,1,0,0:0:0:0:
192,192,40205,1,8,0:0:0:0:
448,192,40205,1,0,0:0:0:0:
64,192,40363,1,0,0:0:0:0:
448,192,40521,1,0,0:0:0:0:
64,192,40678,1,0,0:0:0:0:
320,192,40836,1,8,0:0:0:0:
192,192,40836,1,0,0:0:0:0:
64,192,40994,1,0,0:0:0:0:
320,192,41152,1,0,0:0:0:0:
448,192,41310,1,0,0:0:0:0:
192,192,41468,1,8,0:0:0:0:
320,192,41468,1,0,0:0:0:0:
448,192,41626,1,0,0:0:0:0:
192,192,41784,1,8,0:0:0:0:
64,192,41784,1,0,0:0:0:0:
320,192,41942,1,0,0:0:0:0:
64,192,42100,1,0,0:0:0:0:
192,192,42257,1,8,0:0:0:0:
448,192,42257,1,0,0:0:0:0:
64,192,42415,1,0,0:0:0:0:
320,192,42573,1,0,0:0:0:0:
448,192,42731,1,8,0:0:0:0:
64,192,42731,1,0,0:0:0:0:
192,192,42889,1,0,0:0:0:0:
448,192,43047,1,4,1:0:0:0:
64,192,43047,1,4,0:0:0:0:
320,192,43205,1,0,0:0:0:0:
192,192,43363,1,8,0:0:0:0:
64,192,43363,1,0,0:0:0:0:
448,192,43521,1,0,0:0:0:0:
64,192,43678,1,0,0:0:0:0:
320,192,43836,1,0,0:0:0:0:
192,192,43994,1,8,0:0:0:0:
64,192,43994,1,0,0:0:0:0:
448,192,44152,1,0,0:0:0:0:
192,192,44310,1,0,0:0:0:0:
320,192,44468,1,0,0:0:0:0:
192,192,44626,1,8,0:0:0:0:
64,192,44626,1,0,0:0:0:0:
448,192,44784,1,0,0:0:0:0:
64,192,44942,1,0,0:0:0:0:
192,192,45100,1,0,0:0:0:0:
448,192,45257,1,8,0:0:0:0:
320,192,45257,1,0,0:0:0:0:
64,192,45415,1,0,0:0:0:0:
192,192,45573,1,8,0:0:0:0:
320,192,45573,1,2,0:0:0:0:
64,192,45889,1,2,0:0:0:0:
448,192,45889,1,8,0:0:0:0:
192,192,46205,1,8,0:0:0:0:
320,192,46205,1,2,0:0:0:0:
448,192,46521,1,0,0:0:0:0:
64,192,46678,1,4,1:0:0:0:
320,192,46678,1,4,0:0:0:0:
192,192,46994,1,0,0:0:0:0:
64,192,47152,1,8,3:0:0:0:
448,192,47310,1,0,0:0:0:0:
320,192,47468,1,8,3:0:0:0:
192,192,47784,1,8,0:0:0:0:
64,192,47784,1,4,0:0:0:0:
320,192,48100,1,0,0:0:0:0:
448,192,48100,1,0,0:0:0:0:
192,192,48257,1,0,0:0:0:0:
448,192,48415,1,8,0:0:0:0:
64,192,48415,1,0,0:0:0:0:
320,192,48573,1,0,0:0:0:0:
448,192,48731,1,0,0:0:0:0:
64,192,48889,1,0,0:0:0:0:
320,192,49047,1,8,0:0:0:0:
448,192,49047,1,0,0:0:0:0:
192,192,49205,1,0,0:0:0:0:
320,192,49363,1,0,0:0:0:0:
64,192,49521,1,0,0:0:0:0:
320,192,49678,1,8,0:0:0:0:
448,192,49678,1,0,0:0:0:0:
192,192,49836,1,0,0:0:0:0:
448,192,49994,1,0,0:0:0:0:
320,192,50152,1,0,0:0:0:0:
64,192,50310,1,8,0:0:0:0:
192,192,50310,1,0,0:0:0:0:
320,192,50468,1,0,0:0:0:0:
448,192,50626,1,8,0:0:0:0:
64,192,50626,1,2,0:0:0:0:
448,192,51100,1,0,0:0:0:0:
320,192,51257,1,8,0:0:0:0:
192,192,51257,1,2,0:0:0:0:
64,192,51731,1,0,0:0:0:0:
192,192,51889,1,2,0:0:0:0:
320,192,51889,1,8,0:0:0:0:
448,192,52047,1,0,0:0:0:0:
64,192,52205,1,8,0:0:0:0:
192,192,52205,1,2,0:0:0:0:
320,192,52363,1,0,0:0:0:0:
448,192,52521,1,2,0:0:0:0:
64,192,52521,1,8,0:0:0:0:
192,192,52678,1,0,0:0:0:0:
64,192,52836,1,8,0:0:0:0:
320,192,52836,1,2,0:0:0:0:
448,192,52994,1,0,0:0:0:0:
192,192,53152,1,4,1:0:0:0:
64,192,53152,1,4,0:0:0:0:
320,192,53310,1,0,0:0:0:0:
448,192,53468,1,8,0:0:0:0:
64,192,53468,1,0,0:0:0:0:
192,192,53626,1,0,0:0:0:0:
320,192,53784,1,0,0:0:0:0:
64,192,53942,1,0,0:0:0:0:
448,192,54100,1,8,0:0:0:0:
320,192,54100,1,0,0:0:0:0:
192,192,54257,1,0,0:0:0:0:
320,192,54415,1,0,0:0:0:0:
64,192,54573,1,0,0:0:0:0:
320,192,54731,1,8,0:0:0:0:
448,192,54731,1,0,0:0:0:0:
192,192,54889,1,0,0:0:0:0:
448,192,55047,1,0,0:0:0:0:
320,192,55205,1,0,0:0:0:0:
64,192,55363,1,8,0:0:0:0:
192,192,55363,1,0,0:0:0:0:
320,192,55521,1,0,0:0:0:0:
192,192,55678,1,0,0:0:0:0:
448,192,55836,1,0,0:0:0:0:
320,192,55994,1,8,0:0:0:0:
64,192,55994,1,0,0:0:0:0:
192,192,56152,1,0,0:0:0:0:
448,192,56310,1,0,0:0:0:0:
192,192,56468,1,0,0:0:0:0:
320,192,56626,1,8,0:0:0:0:
64,192,56626,1,0,0:0:0:0:
448,192,56784,1,0,0:0:0:0:
192,192,56942,1,0,0:0:0:0:
448,192,57100,1,0,0:0:0:0:
320,192,57257,1,8,0:0:0:0:
192,192,57257,1,0,0:0:0:0:
64,192,57415,1,0,0:0:0:0:
448,192,57573,1,0,0:0:0:0:
320,192,57731,1,0,0:0:0:0:
64,192,57889,1,8,0:0:0:0:
192,192,57889,1,0,0:0:0:0:
320,192,58047,1,0,0:0:0:0:
192,192,58205,1,0,0:0:0:0:
448,192,58363,1,0,0:0:0:0:
320,192,58521,1,8,0:0:0:0:
64,192,58521,1,0,0:0:0:0:
448,192,58678,1,0,0:0:0:0:
64,192,58836,1,0,0:0:0:0:
192,192,58994,1,0,0:0:0:0:
320,192,59152,1,8,0:0:0:0:
448,192,59152,1,0,0:0:0:0:
64,192,59310,1,0,0:0:0:0:
320,192,59468,1,0,0:0:0:0:
192,192,59626,1,0,0:0:0:0:
320,192,59784,1,8,0:0:0:0:
448,192,59784,1,0,0:0:0:0:
192,192,59942,1,0,0:0:0:0:
64,192,60100,1,0,0:0:0:0:
448,192,60257,1,0,0:0:0:0:
64,192,60415,1,8,0:0:0:0:
320,192,60415,1,0,0:0:0:0:
448,192,60573,1,0,0:0:0:0:
192,192,60731,1,0,0:0:0:0:
320,192,60889,1,0,0:0:0:0:
64,192,61047,1,8,0:0:0:0:
192,192,61047,1,0,0:0:0:0:
448,192,61205,1,0,0:0:0:0:
192,192,61363,1,0,0:0:0:0:
64,192,61521,1,0,0:0:0:0:
320,192,61678,1,8,0:0:0:0:
192,192,61678,1,0,0:0:0:0:
64,192,61836,1,0,0:0:0:0:
320,192,61994,1,8,0:0:0:0:
448,192,61994,1,0,0:0:0:0:
192,192,62152,1,0,0:0:0:0:
448,192,62310,1,0,0:0:0:0:
320,192,62468,1,8,0:0:0:0:
64,192,62468,1,0,0:0:0:0:
448,192,62626,1,0,0:0:0:0:
192,192,62784,1,0,0:0:0:0:
320,192,62942,1,8,0:0:0:0:
448,192,62942,1,0,0:0:0:0:
192,192,63100,1,0,0:0:0:0:
448,192,63257,1,4,0:0:0:0:
64,192,63257,128,4,66415:1:0:0:0:
320,192,63415,1,0,0:0:0:0:
448,192,63573,1,8,0:0:0:0:
320,192,63731,1,0,0:0:0:0:
448,192,63889,1,4,3:0:0:0:
192,192,64047,1,0,0:0:0:0:
320,192,64205,1,8,0:0:0:0:
192,192,64363,1,0,0:0:0:0:
448,192,64521,1,4,3:0:0:0:
320,192,64678,1,0,0:0:0:0:
192,192,64836,1,8,0:0:0:0:
320,192,64994,1,0,0:0:0:0:
192,192,65152,1,4,3:0:0:0:
448,192,65310,1,0,0:0:0:0:
320,192,65468,1,8,0:0:0:0:
448,192,65626,1,0,0:0:0:0:
192,192,65784,1,4,3:0:0:0:
320,192,65942,1,0,0:0:0:0:
448,192,66100,1,8,0:0:0:0:
320,192,66257,1,0,0:0:0:0:
448,192,66415,128,4,66731:3:0:0:0:
192,192,66573,1,0,0:0:0:0:
64,192,66731,128,8,67047:0:0:0:0:
192,192,66889,1,0,0:0:0:0:
320,192,67047,128,4,67678:3:0:0:0:
448,192,67205,1,0,0:0:0:0:
192,192,67363,1,8,0:0:0:0:
64,192,67521,1,0,0:0:0:0:
448,192,67678,128,4,67994:3:0:0:0:
192,192,67836,1,0,0:0:0:0:
64,192,67994,128,8,68310:0:0:0:0:
192,192,68152,1,0,0:0:0:0:
448,192,68310,128,4,71468:3:0:0:0:
320,192,68468,1,0,0:0:0:0:
192,192,68626,1,8,0:0:0:0:
320,192,68784,1,0,0:0:0:0:
192,192,68942,1,4,3:0:0:0:
64,192,69100,1,0,0:0:0:0:
192,192,69257,1,8,0:0:0:0:
64,192,69415,1,0,0:0:0:0:
320,192,69573,1,4,3:0:0:0:
192,192,69731,1,0,0:0:0:0:
320,192,69889,1,8,0:0:0:0:
64,192,70047,1,0,0:0:0:0:
320,192,70205,1,4,3:0:0:0:
192,192,70363,1,0,0:0:0:0:
64,192,70521,1,8,0:0:0:0:
192,192,70678,1,0,0:0:0:0:
64,192,70836,1,4,3:0:0:0:
320,192,70994,1,0,0:0:0:0:
64,192,71152,1,8,0:0:0:0:
320,192,71310,1,0,0:0:0:0:
192,192,71468,1,4,3:0:0:0:
64,192,71626,1,0,0:0:0:0:
320,192,71784,1,8,0:0:0:0:
64,192,71942,1,0,0:0:0:0:
448,192,72100,128,4,72415:3:0:0:0:
64,192,72257,1,0,0:0:0:0:
320,192,72415,128,8,72731:0:0:0:0:
192,192,72573,1,0,0:0:0:0:
64,192,72731,128,4,73047:3:0:0:0:
320,192,72889,1,0,0:0:0:0:
448,192,73047,128,8,73363:0:0:0:0:
64,192,73205,1,0,0:0:0:0:
192,192,73363,128,4,75889:3:0:0:0:
448,192,73521,1,0,0:0:0:0:
64,192,73678,1,8,0:0:0:0:
320,192,73836,1,0,0:0:0:0:
448,192,73994,1,4,3:0:0:0:
64,192,74152,1,0,0:0:0:0:
448,192,74310,1,8,0:0:0:0:
64,192,74468,1,0,0:0:0:0:
320,192,74626,1,4,3:0:0:0:
448,192,74784,1,0,0:0:0:0:
320,192,74942,1,8,0:0:0:0:
448,192,75100,1,0,0:0:0:0:
64,192,75257,1,4,3:0:0:0:
320,192,75415,1,0,0:0:0:0:
64,192,75573,1,8,0:0:0:0:
320,192,75731,1,0,0:0:0:0:
448,192,75889,1,4,3:0:0:0:
192,192,76047,1,0,0:0:0:0:
64,192,76205,1,8,0:0:0:0:
320,192,76363,1,0,0:0:0:0:
192,192,76521,128,4,76836:3:0:0:0:
64,192,76678,1,0,0:0:0:0:
448,192,76836,128,8,77152:0:0:0:0:
64,192,76994,1,0,0:0:0:0:
320,192,77152,128,4,77468:3:0:0:0:
64,192,77310,1,0,0:0:0:0:
192,192,77468,128,8,77784:0:0:0:0:
448,192,77626,1,0,0:0:0:0:
64,192,77784,128,4,78100:3:0:0:0:
320,192,77942,1,0,0:0:0:0:
448,192,78100,128,8,78415:0:0:0:0:
192,192,78257,1,0,0:0:0:0:
320,192,78415,128,4,80942:3:0:0:0:
64,192,78573,1,0,0:0:0:0:
192,192,78731,1,8,0:0:0:0:
448,192,78889,1,0,0:0:0:0:
64,192,79047,1,4,3:0:0:0:
192,192,79205,1,0,0:0:0:0:
448,192,79363,1,8,0:0:0:0:
192,192,79521,1,0,0:0:0:0:
448,192,79678,1,4,3:0:0:0:
64,192,79836,1,0,0:0:0:0:
192,192,79994,1,8,0:0:0:0:
64,192,80152,1,0,0:0:0:0:
192,192,80310,1,4,3:0:0:0:
448,192,80468,1,0,0:0:0:0:
192,192,80626,1,8,0:0:0:0:
448,192,80784,1,0,0:0:0:0:
64,192,80942,1,4,3:0:0:0:
320,192,81100,1,0,0:0:0:0:
64,192,81257,1,8,0:0:0:0:
448,192,81257,1,0,0:0:0:0:
192,192,81415,1,0,0:0:0:0:
448,192,81573,1,4,3:0:0:0:
64,192,81731,1,0,0:0:0:0:
320,192,81889,1,8,0:0:0:0:
448,192,81889,1,0,0:0:0:0:
192,192,82047,1,0,0:0:0:0:
320,192,82205,1,4,3:0:0:0:
64,192,82205,1,0,0:0:0:0:
448,192,82363,1,0,0:0:0:0:
192,192,82521,1,0,0:0:0:0:
64,192,82678,1,4,3:0:0:0:
320,192,82678,1,0,0:0:0:0:
448,192,82836,1,0,0:0:0:0:
64,192,82994,1,0,0:0:0:0:
320,192,83152,1,4,3:0:0:0:
192,192,83152,1,0,0:0:0:0:
448,192,83310,1,0,0:0:0:0:
64,192,83468,1,4,1:0:0:0:
320,192,83468,1,4,0:0:0:0:
192,192,83626,1,0,0:0:0:0:
448,192,83784,1,8,0:0:0:0:
320,192,83784,1,0,0:0:0:0:
64,192,83942,1,0,0:0:0:0:
192,192,84100,1,0,0:0:0:0:
448,192,84257,1,0,0:0:0:0:
320,192,84415,1,8,0:0:0:0:
64,192,84415,1,0,0:0:0:0:
448,192,84573,1,0,0:0:0:0:
192,192,84731,1,0,0:0:0:0:
320,192,84889,1,0,0:0:0:0:
192,192,85047,1,8,0:0:0:0:
448,192,85047,1,0,0:0:0:0:
320,192,85205,1,0,0:0:0:0:
64,192,85363,1,0,0:0:0:0:
192,192,85521,1,0,0:0:0:0:
448,192,85678,1,8,0:0:0:0:
64,192,85678,1,0,0:0:0:0:
192,192,85836,1,0,0:0:0:0:
320,192,85994,1,8,0:0:0:0:
448,192,85994,1,2,0:0:0:0:
192,192,86310,1,2,0:0:0:0:
64,192,86310,1,8,0:0:0:0:
448,192,86626,1,8,0:0:0:0:
320,192,86626,1,2,0:0:0:0:
64,192,86942,1,0,0:0:0:0:
448,192,87100,1,4,1:0:0:0:
192,192,87100,1,4,0:0:0:0:
320,192,87415,1,0,0:0:0:0:
64,192,87573,1,8,3:0:0:0:
448,192,87731,1,0,0:0:0:0:
192,192,87889,1,8,3:0:0:0:
448,192,88205,1,8,0:0:0:0:
64,192,88205,1,4,0:0:0:0:
320,192,88521,1,0,0:0:0:0:
192,192,88521,1,0,0:0:0:0:
64,192,88678,1,0,0:0:0:0:
448,192,88836,1,8,0:0:0:0:
320,192,88836,1,0,0:0:0:0:
192,192,88994,1,0,0:0:0:0:
448,192,89152,1,0,0:0:0:0:
64,192,89310,1,0,0:0:0:0:
320,192,89468,1,8,0:0:0:0:
192,192,89468,1,0,0:0:0:0:
448,192,89626,1,0,0:0:0:0:
192,192,89784,1,0,0:0:0:0:
64,192,89942,1,0,0:0:0:0:
320,192,90100,1,8,0:0:0:0:
448,192,90100,1,0,0:0:0:0:
192,192,90257,1,0,0:0:0:0:
448,192,90415,1,0,0:0:0:0:
320,192,90573,1,0,0:0:0:0:
64,192,90731,1,8,0:0:0:0:
192,192,90731,1,0,0:0:0:0:
320,192,90889,1,0,0:0:0:0:
64,192,91047,1,8,0:0:0:0:
448,192,91047,1,2,0:0:0:0:
192,192,91521,1,0,0:0:0:0:
448,192,91678,1,8,0:0:0:0:
64,192,91678,1,2,0:0:0:0:
320,192,92152,1,0,0:0:0:0:
192,192,92310,1,2,0:0:0:0:
448,192,92310,1,8,0:0:0:0:
64,192,92468,1,0,0:0:0:0:
320,192,92626,1,8,0:0:0:0:
192,192,92626,1,2,0:0:0:0:
448,192,92784,1,0,0:0:0:0:
320,192,92942,1,2,0:0:0:0:
64,192,92942,1,8,0:0:0:0:
192,192,93100,1,0,0:0:0:0:
64,192,93257,1,8,0:0:0:0:
448,192,93257,1,2,0:0:0:0:
320,192,93415,1,0,0:0:0:0:
192,192,93573,1,4,1:0:0:0:
64,192,93573,1,4,0:0:0:0:
448,192,93731,1,0,0:0:0:0:
320,192,93889,1,8,0:0:0:0:
64,192,93889,1,0,0:0:0:0:
192,192,94047,1,0,0:0:0:0:
320,192,94205,1,0,0:0:0:0:
64,192,94363,1,0,0:0:0:0:
448,192,94521,1,8,0:0:0:0:
192,192,94521,1,0,0:0:0:0:
64,192,94678,1,0,0:0:0:0:
320,192,94836,1,0,0:0:0:0:
192,192,94994,1,0,0:0:0:0:
320,192,95152,1,8,0:0:0:0:
448,192,95152,1,0,0:0:0:0:
64,192,95310,1,0,0:0:0:0:
448,192,95468,1,0,0:0:0:0:
64,192,95626,1,0,0:0:0:0:
192,192,95784,1,8,0:0:0:0:
448,192,95784,1,0,0:0:0:0:
320,192,95942,1,0,0:0:0:0:
64,192,96100,1,0,0:0:0:0:
448,192,96257,1,0,0:0:0:0:
320,192,96415,1,8,0:0:0:0:
192,192,96415,1,0,0:0:0:0:
448,192,96573,1,0,0:0:0:0:
192,192,96731,1,0,0:0:0:0:
64,192,96889,1,0,0:0:0:0:
320,192,97047,1,8,0:0:0:0:
448,192,97047,1,0,0:0:0:0:
64,192,97205,1,0,0:0:0:0:
192,192,97363,1,0,0:0:0:0:
448,192,97521,1,0,0:0:0:0:
64,192,97678,1,8,0:0:0:0:
320,192,97678,1,0,0:0:0:0:
448,192,97836,1,0,0:0:0:0:
192,192,97994,1,0,0:0:0:0:
320,192,98152,1,0,0:0:0:0:
64,192,98310,1,8,0:0:0:0:
448,192,98310,1,0,0:0:0:0:
320,192,98468,1,0,0:0:0:0:
192,192,98626,1,0,0:0:0:0:
448,192,98784,1,0,0:0:0:0:
320,192,98942,1,8,0:0:0:0:
64,192,98942,1,0,0:0:0:0:
448,192,99100,1,0,0:0:0:0:
192,192,99257,1,0,0:0:0:0:
64,192,99415,1,0,0:0:0:0:
320,192,99573,1,8,0:0:0:0:
448,192,99573,1,0,0:0:0:0:
64,192,99731,1,0,0:0:0:0:
320,192,99889,1,0,0:0:0:0:
192,192,100047,1,0,0:0:0:0:
320,192,100205,1,8,0:0:0:0:
448,192,100205,1,0,0:0:0:0:
192,192,100363,1,0,0:0:0:0:
64,192,100521,1,0,0:0:0:0:
320,192,100678,1,0,0:0:0:0:
64,192,100836,1,8,0:0:0:0:
192,192,100836,1,0,0:0:0:0:
448,192,100994,1,0,0:0:0:0:
192,192,101152,1,0,0:0:0:0:
448,192,101310,1,0,0:0:0:0:
64,192,101468,1,8,0:0:0:0:
320,192,101468,1,0,0:0:0:0:
448,192,101626,1,0,0:0:0:0:
192,192,101784,1,0,0:0:0:0:
64,192,101942,1,0,0:0:0:0:
320,192,102100,1,8,0:0:0:0:
448,192,102100,1,0,0:0:0:0:
64,192,102257,1,0,0:0:0:0:
448,192,102415,1,8,0:0:0:0:
320,192,102415,1,0,0:0:0:0:
192,192,102573,1,0,0:0:0:0:
448,192,102731,1,0,0:0:0:0:
320,192,102889,1,8,0:0:0:0:
64,192,102889,1,0,0:0:0:0:
448,192,103047,1,0,0:0:0:0:
192,192,103205,1,0,0:0:0:0:
64,192,103363,1,8,0:0:0:0:
320,192,103363,1,0,0:0:0:0:
192,192,103521,1,0,0:0:0:0:
320,192,103678,1,4,1:0:0:0:
448,192,103678,1,4,0:0:0:0:
64,192,103836,1,0,0:0:0:0:
192,192,103994,1,8,0:0:0:0:
320,192,103994,1,0,0:0:0:0:
448,192,104152,1,0,0:0:0:0:
320,192,104310,1,0,0:0:0:0:
64,192,104468,1,0,0:0:0:0:
448,192,104626,1,8,0:0:0:0:
192,192,104626,1,0,0:0:0:0:
64,192,104784,1,0,0:0:0:0:
320,192,104942,1,0,0:0:0:0:
192,192,105100,1,0,0:0:0:0:
320,192,105257,1,8,0:0:0:0:
448,192,105257,1,0,0:0:0:0:
64,192,105415,1,0,0:0:0:0:
448,192,105573,1,0,0:0:0:0:
320,192,105731,1,0,0:0:0:0:
64,192,105889,1,8,0:0:0:0:
192,192,105889,1,0,0:0:0:0:
448,192,106047,1,0,0:0:0:0:
320,192,106205,1,8,0:0:0:0:
192,192,106205,1,2,0:0:0:0:
448,192,106521,1,2,0:0:0:0:
64,192,106521,1,8,0:0:0:0:
320,192,106836,1,8,0:0:0:0:
192,192,106836,1,2,0:0:0:0:
64,192,107152,1,0,0:0:0:0:
448,192,107310,1,4,1:0:0:0:
192,192,107310,1,4,0:0:0:0:
320,192,107626,1,0,0:0:0:0:
448,192,107784,1,8,3:0:0:0:
64,192,107942,1,0,0:0:0:0:
192,192,108100,1,8,3:0:0:0:
320,192,108415,1,8,0:0:0:0:
448,192,108415,1,4,0:0:0:0:
192,192,108731,1,0,0:0:0:0:
64,192,108731,1,0,0:0:0:0:
320,192,108889,1,0,0:0:0:0:
64,192,109047,1,8,0:0:0:0:
448,192,109047,1,0,0:0:0:0:
192,192,109205,1,0,0:0:0:0:
64,192,109363,1,0,0:0:0:0:
448,192,109521,1,0,0:0:0:0:
192,192,109678,1,8,0:0:0:0:
320,192,109678,1,0,0:0:0:0:
64,192,109836,1,0,0:0:0:0:
320,192,109994,1,0,0:0:0:0:
448,192,110152,1,0,0:0:0:0:
192,192,110310,1,8,0:0:0:0:
64,192,110310,1,0,0:0:0:0:
320,192,110468,1,0,0:0:0:0:
64,192,110626,1,0,0:0:0:0:
192,192,110784,1,0,0:0:0:0:
320,192,110942,1,8,0:0:0:0:
448,192,110942,1,0,0:0:0:0:
192,192,111100,1,0,0:0:0:0:
448,192,111257,1,8,0:0:0:0:
64,192,111257,1,2,0:0:0:0:
320,192,111731,1,0,0:0:0:0:
192,192,111889,1,8,0:0:0:0:
448,192,111889,1,2,0:0:0:0:
192,192,112363,1,0,0:0:0:0:
448,192,112521,1,2,0:0:0:0:
64,192,112521,1,8,0:0:0:0:
320,192,112678,1,0,0:0:0:0:
192,192,112836,1,8,0:0:0:0:
64,192,112836,1,2,0:0:0:0:
448,192,112994,1,0,0:0:0:0:
192,192,113152,1,2,0:0:0:0:
320,192,113152,1,8,0:0:0:0:
64,192,113310,1,0,0:0:0:0:
448,192,113468,1,8,0:0:0:0:
320,192,113468,1,2,0:0:0:0:
192,192,113626,1,0,0:0:0:0:
64,192,113784,1,4,1:0:0:0:
448,192,113784,1,4,0:0:0:0:
320,192,113942,1,0,0:0:0:0:
192,192,114100,1,8,0:0:0:0:
64,192,114100,1,0,0:0:0:0:
448,192,114257,1,0,0:0:0:0:
64,192,114415,1,0,0:0:0:0:
320,192,114573,1,0,0:0:0:0:
192,192,114731,1,8,0:0:0:0:
64,192,114731,1,0,0:0:0:0:
448,192,114889,1,0,0:0:0:0:
192,192,115047,1,0,0:0:0:0:
448,192,115205,1,0,0:0:0:0:
64,192,115363,1,8,0:0:0:0:
192,192,115363,1,0,0:0:0:0:
320,192,115521,1,0,0:0:0:0:
64,192,115678,1,0,0:0:0:0:
192,192,115836,1,0,0:0:0:0:
448,192,115994,1,8,0:0:0:0:
320,192,115994,1,0,0:0:0:0:
192,192,116152,1,0,0:0:0:0:
320,192,116310,1,0,0:0:0:0:
64,192,116468,1,0,0:0:0:0:
192,192,116626,1,8,0:0:0:0:
320,192,116626,1,0,0:0:0:0:
448,192,116784,1,0,0:0:0:0:
64,192,116942,1,0,0:0:0:0:
320,192,117100,1,0,0:0:0:0:
192,192,117257,1,8,0:0:0:0:
448,192,117257,1,0,0:0:0:0:
64,192,117415,1,0,0:0:0:0:
320,192,117573,1,0,0:0:0:0:
64,192,117731,1,0,0:0:0:0:
192,192,117889,1,8,0:0:0:0:
320,192,117889,1,0,0:0:0:0:
448,192,118047,1,0,0:0:0:0:
64,192,118205,1,0,0:0:0:0:
192,192,118363,1,0,0:0:0:0:
448,192,118521,1,8,0:0:0:0:
64,192,118521,1,0,0:0:0:0:
192,192,118678,1,0,0:0:0:0:
320,192,118836,1,0,0:0:0:0:
64,192,118994,1,0,0:0:0:0:
320,192,119152,1,8,0:0:0:0:
448,192,119152,1,0,0:0:0:0:
64,192,119310,1,0,0:0:0:0:
448,192,119468,1,0,0:0:0:0:
320,192,119626,1,0,0:0:0:0:
192,192,119784,1,8,0:0:0:0:
64,192,119784,1,0,0:0:0:0:
448,192,119942,1,0,0:0:0:0:
192,192,120100,1,0,0:0:0:0:
320,192,120257,1,0,0:0:0:0:
192,192,120415,1,8,0:0:0:0:
64,192,120415,1,0,0:0:0:0:
320,192,120573,1,0,0:0:0:0:
448,192,120731,1,0,0:0:0:0:
192,192,120889,1,0,0:0:0:0:
448,192,121047,1,8,0:0:0:0:
320,192,121047,1,0,0:0:0:0:
64,192,121205,1,0,0:0:0:0:
192,192,121363,1,0,0:0:0:0:
64,192,121521,1,0,0:0:0:0:
448,192,121678,1,8,0:0:0:0:
320,192,121678,1,0,0:0:0:0:
64,192,121836,1,0,0:0:0:0:
320,192,121994,1,0,0:0:0:0:
448,192,122152,1,0,0:0:0:0:
192,192,122310,1,8,0:0:0:0:
64,192,122310,1,0,0:0:0:0:
448,192,122468,1,0,0:0:0:0:
64,192,122626,1,8,0:0:0:0:
192,192,122626,1,0,0:0:0:0:
320,192,122784,5,0,0:0:0:0:
64,192,122942,1,0,0:0:0:0:
448,192,123100,1,8,0:0:0:0:
320,192,123100,1,0,0:0:0:0:
192,192,123257,1,0,0:0:0:0:
320,192,123415,1,0,0:0:0:0:
192,192,123573,1,8,0:0:0:0:
64,192,123573,1,0,0:0:0:0:
320,192,123731,1,0,0:0:0:0:
448,192,123889,5,4,0:0:0:0:
64,192,123889,1,2,0:0:0:0:
320,192,124205,1,0,0:0:0:0:
192,192,124363,1,0,0:0:0:0:
320,192,124521,1,8,3:0:0:0:
448,192,124521,1,0,0:0:0:0:
192,192,124836,1,0,0:0:0:0:
320,192,124994,1,0,0:0:0:0:
448,192,125152,1,4,0:0:0:0:
64,192,125152,1,2,0:0:0:0:
320,192,125468,1,0,0:0:0:0:
64,192,125626,1,0,0:0:0:0:
192,192,125784,1,8,3:0:0:0:
448,192,125784,1,0,0:0:0:0:
320,192,126100,1,0,0:0:0:0:
448,192,126257,1,0,0:0:0:0:
64,192,126415,1,8,3:0:0:0:
320,192,126415,1,10,0:0:0:0:
448,192,126731,1,8,3:0:0:0:
192,192,126731,1,10,0:0:0:0:
64,192,127047,1,10,0:0:0:0:
320,192,127047,1,8,3:0:0:0:
192,192,127363,1,0,0:0:0:0:
320,192,127521,1,4,0:0:0:0:
448,192,127521,1,2,0:0:0:0:
64,192,127836,1,0,0:0:0:0:
448,192,127994,1,8,3:0:0:0:
64,192,128152,1,0,0:0:0:0:
448,192,128310,1,8,3:0:0:0:
320,192,128310,1,0,0:0:0:0:
64,192,128626,1,4,0:0:0:0:
192,192,128626,1,10,0:0:0:0:
448,192,128942,1,4,3:0:0:0:
320,192,128942,1,0,0:0:0:0:
64,192,129100,1,0,0:0:0:0:
320,192,129257,1,8,0:0:0:0:
192,192,129257,1,0,0:0:0:0:
448,192,129415,1,0,0:0:0:0:
192,192,129573,1,8,3:0:0:0:
64,192,129731,1,0,0:0:0:0:
320,192,129889,1,8,0:0:0:0:
192,192,129889,1,0,0:0:0:0:
448,192,130047,1,0,0:0:0:0:
64,192,130205,1,4,3:0:0:0:
320,192,130363,1,0,0:0:0:0:
64,192,130521,1,8,0:0:0:0:
448,192,130521,1,0,0:0:0:0:
192,192,130678,1,0,0:0:0:0:
320,192,130836,1,8,3:0:0:0:
448,192,130994,1,0,0:0:0:0:
192,192,131152,1,8,0:0:0:0:
320,192,131152,1,0,0:0:0:0:
64,192,131310,1,0,0:0:0:0:
448,192,131468,1,4,0:0:0:0:
320,192,131468,1,8,0:0:0:0:
192,192,131626,1,12,0:0:0:0:
64,192,131784,1,8,0:0:0:0:
448,192,131784,1,4,0:0:0:0:
320,192,132100,1,4,0:0:0:0:
192,192,132100,1,8,0:0:0:0:
448,192,132257,1,12,0:0:0:0:
64,192,132415,1,4,0:0:0:0:
192,192,132415,1,8,0:0:0:0:
448,192,132731,1,4,0:0:0:0:
320,192,132731,1,8,0:0:0:0:
192,192,132889,1,12,0:0:0:0:
64,192,133047,1,8,0:0:0:0:
448,192,133047,1,4,0:0:0:0:
320,192,133363,1,4,0:0:0:0:
192,192,133363,1,8,0:0:0:0:
448,192,133521,1,12,0:0:0:0:
64,192,133678,1,4,0:0:0:0:
192,192,133678,1,8,0:0:0:0:
320,192,133994,1,4,0:0:0:0:
448,192,133994,1,4,1:0:0:0:
192,192,134152,1,0,0:0:0:0:
320,192,134310,1,8,0:0:0:0:
448,192,134310,1,0,0:0:0:0:
64,192,134468,1,0,0:0:0:0:
320,192,134626,1,8,3:0:0:0:
448,192,134784,1,0,0:0:0:0:
320,192,134942,1,8,0:0:0:0:
64,192,134942,1,0,0:0:0:0:
192,192,135100,1,0,0:0:0:0:
448,192,135257,1,4,3:0:0:0:
64,192,135415,1,0,0:0:0:0:
448,192,135573,1,8,0:0:0:0:
192,192,135573,1,0,0:0:0:0:
320,192,135731,1,0,0:0:0:0:
192,192,135889,1,8,3:0:0:0:
64,192,136047,1,0,0:0:0:0:
320,192,136205,1,8,0:0:0:0:
192,192,136205,1,0,0:0:0:0:
448,192,136363,1,0,0:0:0:0:
64,192,136521,1,8,3:0:0:0:
448,192,136678,1,0,0:0:0:0:
192,192,136836,1,8,0:0:0:0:
320,192,136836,1,0,0:0:0:0:
448,192,136994,1,0,0:0:0:0:
192,192,137152,1,8,3:0:0:0:
64,192,137310,1,0,0:0:0:0:
192,192,137468,1,8,0:0:0:0:
320,192,137468,1,0,0:0:0:0:
448,192,137626,1,0,0:0:0:0:
64,192,137784,1,4,3:0:0:0:
320,192,137942,1,0,0:0:0:0:
64,192,138100,1,8,0:0:0:0:
448,192,138100,1,0,0:0:0:0:
192,192,138257,1,0,0:0:0:0:
320,192,138415,1,8,3:0:0:0:
448,192,138573,1,0,0:0:0:0:
192,192,138731,1,8,0:0:0:0:
320,192,138731,1,0,0:0:0:0:
64,192,138889,1,0,0:0:0:0:
192,192,139047,1,8,3:0:0:0:
320,192,139205,1,0,0:0:0:0:
192,192,139363,1,8,0:0:0:0:
64,192,139363,1,0,0:0:0:0:
448,192,139521,1,0,0:0:0:0:
192,192,139678,1,8,3:0:0:0:
64,192,139836,1,0,0:0:0:0:
192,192,139994,1,8,0:0:0:0:
320,192,139994,1,0,0:0:0:0:
448,192,140152,1,0,0:0:0:0:
64,192,140310,1,4,3:0:0:0:
320,192,140468,1,0,0:0:0:0:
64,192,140626,1,8,0:0:0:0:
448,192,140626,1,0,0:0:0:0:
192,192,140784,1,0,0:0:0:0:
320,192,140942,1,8,3:0:0:0:
448,192,141100,1,0,0:0:0:0:
192,192,141257,1,8,0:0:0:0:
320,192,141257,1,0,0:0:0:0:
64,192,141415,1,0,0:0:0:0:
192,192,141573,1,8,3:0:0:0:
320,192,141731,1,0,0:0:0:0:
64,192,141889,1,8,0:0:0:0:
192,192,141889,1,0,0:0:0:0:
448,192,142047,1,0,0:0:0:0:
192,192,142205,1,8,3:0:0:0:
64,192,142363,1,0,0:0:0:0:
320,192,142521,1,8,0:0:0:0:
448,192,142521,1,0,0:0:0:0:
192,192,142678,1,0,0:0:0:0:
448,192,142836,1,8,0:0:0:0:
64,192,142836,1,0,0:0:0:0:
320,192,142994,1,0,0:0:0:0:
64,192,143152,1,0,0:0:0:0:
448,192,143310,1,8,0:0:0:0:
192,192,143310,1,0,0:0:0:0:
64,192,143468,1,0,0:0:0:0:
448,192,143626,1,0,0:0:0:0:
320,192,143784,1,8,0:0:0:0:
192,192,143784,1,0,0:0:0:0:
64,192,143942,1,0,0:0:0:0:
320,192,144100,1,4,0:0:0:0:
192,192,144100,1,2,0:0:0:0:
448,192,144415,1,0,0:0:0:0:
320,192,144573,1,0,0:0:0:0:
192,192,144731,1,8,3:0:0:0:
448,192,144731,1,0,0:0:0:0:
64,192,145047,1,0,0:0:0:0:
192,192,145205,1,0,0:0:0:0:
320,192,145363,1,4,0:0:0:0:
448,192,145363,1,2,0:0:0:0:
192,192,145678,1,0,0:0:0:0:
448,192,145836,1,0,0:0:0:0:
64,192,145994,1,8,3:0:0:0:
320,192,145994,1,0,0:0:0:0:
192,192,146310,1,0,0:0:0:0:
448,192,146468,1,0,0:0:0:0:
192,192,146626,1,8,3:0:0:0:
320,192,146626,1,10,0:0:0:0:
64,192,146942,1,8,3:0:0:0:
448,192,146942,1,10,0:0:0:0:
320,192,147257,1,10,0:0:0:0:
192,192,147257,1,8,3:0:0:0:
448,192,147573,1,0,0:0:0:0:
192,192,147731,1,4,0:0:0:0:
64,192,147731,1,2,0:0:0:0:
320,192,148047,1,0,0:0:0:0:
64,192,148205,1,8,3:0:0:0:
320,192,148363,1,0,0:0:0:0:
64,192,148521,1,8,3:0:0:0:
192,192,148521,1,0,0:0:0:0:
448,192,148836,1,4,0:0:0:0:
320,192,148836,1,10,0:0:0:0:
64,192,149152,1,4,3:0:0:0:
192,192,149152,1,0,0:0:0:0:
320,192,149310,1,0,0:0:0:0:
64,192,149468,1,8,0:0:0:0:
448,192,149468,1,0,0:0:0:0:
320,192,149626,1,0,0:0:0:0:
192,192,149784,1,8,3:0:0:0:
448,192,149942,1,0,0:0:0:0:
192,192,150100,1,8,0:0:0:0:
320,192,150100,1,0,0:0:0:0:
64,192,150257,1,0,0:0:0:0:
448,192,150415,1,4,3:0:0:0:
192,192,150573,1,0,0:0:0:0:
320,192,150731,1,8,0:0:0:0:
64,192,150731,1,0,0:0:0:0:
448,192,150889,1,0,0:0:0:0:
192,192,151047,1,8,3:0:0:0:
64,192,151205,1,0,0:0:0:0:
320,192,151363,1,8,0:0:0:0:
192,192,151363,1,0,0:0:0:0:
448,192,151521,1,0,0:0:0:0:
64,192,151678,1,4,0:0:0:0:
192,192,151678,1,8,0:0:0:0:
320,192,151836,1,12,0:0:0:0:
448,192,151994,1,8,0:0:0:0:
192,192,151994,1,4,0:0:0:0:
64,192,152310,1,4,0:0:0:0:
320,192,152310,1,8,0:0:0:0:
448,192,152468,1,12,0:0:0:0:
192,192,152626,1,4,0:0:0:0:
64,192,152626,1,8,0:0:0:0:
320,192,152942,1,4,0:0:0:0:
448,192,152942,1,8,0:0:0:0:
192,192,153100,1,12,0:0:0:0:
448,192,153257,1,8,0:0:0:0:
64,192,153257,1,4,0:0:0:0:
192,192,153573,1,4,0:0:0:0:
320,192,153573,1,8,0:0:0:0:
448,192,153731,1,12,0:0:0:0:
64,192,153889,1,4,0:0:0:0:
320,192,153889,1,8,0:0:0:0:
192,192,154205,1,4,0:0:0:0:
448,192,154205,1,4,1:0:0:0:
320,192,154363,1,0,0:0:0:0:
192,192,154521,1,8,0:0:0:0:
64,192,154521,1,0,0:0:0:0:
448,192,154678,1,0,0:0:0:0:
320,192,154836,1,8,3:0:0:0:
64,192,154994,1,0,0:0:0:0:
192,192,155152,1,8,0:0:0:0:
448,192,155152,1,0,0:0:0:0:
320,192,155310,1,0,0:0:0:0:
64,192,155468,1,4,3:0:0:0:
320,192,155626,1,0,0:0:0:0:
64,192,155784,1,8,0:0:0:0:
448,192,155784,1,0,0:0:0:0:
192,192,155942,1,0,0:0:0:0:
320,192,156100,1,8,3:0:0:0:
448,192,156257,1,0,0:0:0:0:
192,192,156415,1,8,0:0:0:0:
320,192,156415,1,0,0:0:0:0:
64,192,156573,1,0,0:0:0:0:
448,192,156731,1,8,3:0:0:0:
64,192,156889,1,0,0:0:0:0:
320,192,157047,1,8,0:0:0:0:
192,192,157047,1,0,0:0:0:0:
64,192,157205,1,0,0:0:0:0:
320,192,157363,1,8,3:0:0:0:
448,192,157521,1,0,0:0:0:0:
64,192,157678,1,8,0:0:0:0:
320,192,157678,1,0,0:0:0:0:
192,192,157836,1,0,0:0:0:0:
448,192,157994,1,4,3:0:0:0:
192,192,158152,1,0,0:0:0:0:
448,192,158310,1,8,0:0:0:0:
64,192,158310,1,0,0:0:0:0:
320,192,158468,1,0,0:0:0:0:
192,192,158626,1,8,3:0:0:0:
64,192,158784,1,0,0:0:0:0:
320,192,158942,1,8,0:0:0:0:
192,192,158942,1,0,0:0:0:0:
448,192,159100,1,0,0:0:0:0:
320,192,159257,1,8,3:0:0:0:
192,192,159415,1,0,0:0:0:0:
320,192,159573,1,8,0:0:0:0:
448,192,159573,1,0,0:0:0:0:
64,192,159731,1,0,0:0:0:0:
320,192,159889,1,8,3:0:0:0:
448,192,160047,1,0,0:0:0:0:
64,192,160205,1,8,0:0:0:0:
320,192,160205,1,0,0:0:0:0:
192,192,160363,1,0,0:0:0:0:
448,192,160521,1,4,3:0:0:0:
192,192,160678,1,0,0:0:0:0:
448,192,160836,1,8,0:0:0:0:
64,192,160836,1,0,0:0:0:0:
320,192,160994,1,0,0:0:0:0:
192,192,161152,1,8,3:0:0:0:
64,192,161310,1,0,0:0:0:0:
320,192,161468,1,8,0:0:0:0:
192,192,161468,1,0,0:0:0:0:
448,192,161626,1,0,0:0:0:0:
320,192,161784,1,8,3:0:0:0:
192,192,161942,1,0,0:0:0:0:
320,192,162100,1,8,0:0:0:0:
448,192,162100,1,0,0:0:0:0:
64,192,162257,1,0,0:0:0:0:
320,192,162415,1,8,3:0:0:0:
448,192,162573,1,0,0:0:0:0:
320,192,162731,1,8,0:0:0:0:
64,192,162731,1,0,0:0:0:0:
192,192,162889,1,0,0:0:0:0:
64,192,163047,1,8,0:0:0:0:
448,192,163047,1,0,0:0:0:0:
192,192,163205,1,0,0:0:0:0:
448,192,163363,1,0,0:0:0:0:
64,192,163521,1,8,0:0:0:0:
192,192,163521,1,0,0:0:0:0:
448,192,163678,1,0,0:0:0:0:
64,192,163836,1,0,0:0:0:0:
192,192,163994,1,8,0:0:0:0:
448,192,163994,1,0,0:0:0:0:
320,192,164152,1,0,0:0:0:0:
448,192,164310,1,4,1:0:0:0:
64,192,164310,1,8,3:0:0:0:
