osu file format v14

[General]
AudioFilename: audio.mp3
AudioLeadIn: 0
PreviewTime: -1
Countdown: 0
SampleSet: None
StackLeniency: 0.6
Mode: 0
LetterboxInBreaks: 0
WidescreenStoryboard: 0

[Editor]
DistanceSpacing: 1.4
BeatDivisor: 4
GridSize: 8
TimelineZoom: 1

[Metadata]
Title:Pauwi Nako
TitleUnicode:Pauwi Nako
Artist:O.C. Dawgs ft. Yuri Dope, Flow-G
ArtistUnicode:O.C. Dawgs ft. Yuri Dope, Flow-G
Creator:MerinGD
Version:Home
Source:
Tags:
BeatmapID:2022805
BeatmapSetID:966386

[Difficulty]
HPDrainRate:4.1
CircleSize:4.3
OverallDifficulty:7.3
ApproachRate:9.1
SliderMultiplier:1.5
SliderTickRate:1

[Events]
//Background and Video events
//Break Periods
//Storyboard Layer 0 (Background)
//Storyboard Layer 1 (Fail)
//Storyboard Layer 2 (Pass)
//Storyboard Layer 3 (Foreground)
//Storyboard Sound Samples

[TimingPoints]
251,437.956204379562,4,1,0,100,1,0
14265,-83.3333333333333,4,1,0,100,0,0
42294,-133.333333333333,4,1,0,100,0,0
52805,-100,4,1,0,100,0,0
56309,-76.9230769230769,4,1,0,100,0,0
56747,-66.6666666666667,4,1,0,100,0,0
56966,-76.9230769230769,4,1,0,100,0,0
94849,-83.3333333333333,4,1,0,100,0,0

[HitObjects]
123,218,251,6,0,P|113:258|112:306,1,84.375
165,200,688,1,0,0:0:0:0:
294,191,907,2,0,P|304:231|306:269,1,75
252,173,1345,1,0,0:0:0:0:
165,200,1564,1,0,0:0:0:0:
219,328,1783,1,0,0:0:0:0:
339,274,2002,6,0,P|349:234|350:186,1,84.375
303,106,2440,1,0,0:0:0:0:
400,110,2659,2,0,P|390:70|388:32,1,75
350,191,3097,1,0,0:0:0:0:
400,110,3316,1,0,0:0:0:0:
509,198,3535,1,0,0:0:0:0:
415,268,3754,6,0,P|405:306|413:355,1,84.375
489,315,4192,1,0,0:0:0:0:
352,211,4411,2,0,P|362:249|357:298,1,75
277,256,4849,1,0,0:0:0:0:
175,340,5068,6,0,P|173:302|187:256,1,84.375
231,168,5506,6,0,P|232:130|222:94,1,75
141,143,5944,1,0,0:0:0:0:
306,74,6163,1,0,0:0:0:0:
258,0,6382,6,0,P|225:38|222:94,2,112.5
306,74,7258,6,0,L|313:165,1,84.375
264,237,7696,1,0,0:0:0:0:
180,174,7915,2,0,L|172:261,1,75
244,326,8353,1,0,0:0:0:0:
173,248,8572,1,0,0:0:0:0:
92,312,8791,1,0,0:0:0:0:
30,236,9010,6,0,L|21:151,1,84.375
64,53,9448,1,0,0:0:0:0:
162,28,9667,2,0,L|236:21,1,75
333,88,10105,1,0,0:0:0:0:
226,133,10323,1,0,0:0:0:0:
236,21,10542,1,0,0:0:0:0:
333,88,10761,6,0,B|344:102|349:131|349:131|350:247|350:247|339:292|302:308,1,225
224,310,11637,2,0,B|188:297|174:259|174:259|155:225|78:181|68:308|143:264,1,225
222,174,12513,2,0,P|159:140|81:141,1,150
76,216,13389,2,0,L|82:141,1,75
150,48,13827,1,0,0:0:0:0:
82,141,14046,1,0,0:0:0:0:
167,229,14265,6,0,B|178:254|175:278|175:278|166:324,1,89.9999972534181
76,264,14703,1,0,0:0:0:0:
246,369,14922,1,0,0:0:0:0:
239,164,15141,2,0,B|247:125|247:125|253:101|273:83,1,89.9999972534181
301,244,15579,1,0,0:0:0:0:
346,33,15798,1,0,0:0:0:0:
392,203,16017,6,0,B|403:228|400:252|400:252|391:298,1,89.9999972534181
301,331,16455,2,0,B|290:306|293:282|293:282|302:236,1,89.9999972534181
446,120,16893,1,0,0:0:0:0:
487,291,17112,1,0,0:0:0:0:
341,72,17331,1,0,0:0:0:0:
300,243,17550,1,0,0:0:0:0:
420,104,17769,6,0,P|386:77|325:76,1,89.9999972534181
408,203,18207,1,0,0:0:0:0:
254,169,18426,2,0,P|227:203|226:264,1,89.9999972534181
311,239,18864,1,0,0:0:0:0:
167,337,19083,1,0,0:0:0:0:
152,164,19302,1,0,0:0:0:0:
221,248,19521,6,0,L|265:345,1,89.9999972534181
51,201,19959,2,0,B|12:287|12:287|3:342|25:387,1,179.999994506836
102,318,20615,1,0,0:0:0:0:
52,112,20834,1,0,0:0:0:0:
147,41,21053,1,0,0:0:0:0:
223,128,21272,6,0,B|230:163|230:163|215:229,1,89.9999972534181
183,297,21710,1,0,0:0:0:0:
301,252,21929,1,0,0:0:0:0:
177,204,22148,1,0,0:0:0:0:
289,332,22367,1,0,0:0:0:0:
349,233,22586,1,0,0:0:0:0:
134,315,22805,1,0,0:0:0:0:
336,345,23024,6,0,P|380:330|445:346,1,89.9999972534181
186,243,23462,2,0,P|143:229|77:244,1,89.9999972534181
134,315,23900,2,0,P|177:329|243:314,1,89.9999972534181
150,143,24338,1,0,0:0:0:0:
134,315,24557,1,0,0:0:0:0:
229,107,24776,5,0,0:0:0:0:
245,279,24995,1,0,0:0:0:0:
156,60,25214,1,0,0:0:0:0:
140,232,25433,1,0,0:0:0:0:
223,21,25652,1,0,0:0:0:0:
239,193,25871,1,0,0:0:0:0:
107,121,26090,1,0,0:0:0:0:
279,117,26309,1,0,0:0:0:0:
434,108,26528,5,0,0:0:0:0:
450,280,26747,1,0,0:0:0:0:
361,61,26966,1,0,0:0:0:0:
345,233,27185,1,0,0:0:0:0:
428,22,27404,1,0,0:0:0:0:
444,194,27623,2,0,L|453:302,1,89.9999972534181
428,22,28061,1,0,0:0:0:0:
332,134,28280,6,0,P|291:152|246:153,1,89.9999972534181
270,55,28718,1,0,0:0:0:0:
88,203,28937,2,0,P|128:221|173:222,1,89.9999972534181
150,124,29375,1,0,0:0:0:0:
114,31,29594,2,0,P|77:56|54:94,1,89.9999972534181
88,203,30032,6,0,B|112:218|135:224|135:224|158:275|155:357,1,179.999994506836
52,341,30688,1,0,0:0:0:0:
265,251,30907,2,0,P|265:303|271:368,1,89.9999972534181
385,294,31345,1,0,0:0:0:0:
335,124,31564,1,0,0:0:0:0:
496,184,31783,6,0,P|496:236|490:301,1,89.9999972534181
335,124,32221,1,0,0:0:0:0:
498,58,32440,1,0,0:0:0:0:
335,124,32659,2,0,P|335:176|341:241,1,89.9999972534181
347,342,33097,1,0,0:0:0:0:
229,201,33316,1,0,0:0:0:0:
128,336,33535,6,0,P|140:289|130:246,1,89.9999972534181
55,206,33973,2,0,P|43:253|53:296,1,89.9999972534181
131,249,34411,6,0,P|143:202|133:159,1,89.9999972534181
58,119,34849,2,0,P|46:166|56:209,1,89.9999972534181
234,249,35287,6,0,L|323:244,1,89.9999972534181
444,175,35725,1,0,0:0:0:0:
452,316,35944,1,0,0:0:0:0:
368,115,36163,2,0,P|412:90|467:84,1,89.9999972534181
406,275,36601,2,0,P|362:266|323:243,1,89.9999972534181
279,115,37039,6,0,P|235:90|180:84,1,89.9999972534181
121,265,37477,2,0,P|164:256|203:233,1,89.9999972534181
31,150,37915,2,0,P|6:194|0:249,1,89.9999972534181
57,346,38353,1,0,0:0:0:0:
95,66,38572,1,0,0:0:0:0:
279,226,38791,5,0,0:0:0:0:
266,49,39010,1,0,0:0:0:0:
152,255,39229,1,0,0:0:0:0:
165,78,39448,1,0,0:0:0:0:
298,260,39667,5,0,0:0:0:0:
282,47,39886,1,0,0:0:0:0:
145,294,40105,1,0,0:0:0:0:
161,82,40323,1,0,0:0:0:0:
357,117,40542,5,0,0:0:0:0:
370,294,40761,1,0,0:0:0:0:
484,88,40980,1,0,0:0:0:0:
471,265,41199,1,0,0:0:0:0:
338,83,41418,5,0,0:0:0:0:
354,296,41637,1,0,0:0:0:0:
491,49,41856,1,0,0:0:0:0:
475,261,42075,1,0,0:0:0:0:
325,62,42294,5,0,0:0:0:0:
297,54,42404,1,0,0:0:0:0:
269,52,42513,1,0,0:0:0:0:
242,56,42623,1,0,0:0:0:0:
215,65,42732,2,0,P|208:92|207:120,1,56.2500021457673
308,252,43170,2,0,P|305:224|296:197,1,56.2500021457673
163,215,43499,2,0,P|151:240|145:267,1,56.2500021457673
270,328,43937,1,0,0:0:0:0:
296,337,44046,5,0,0:0:0:0:
324,338,44156,1,0,0:0:0:0:
350,330,44265,1,0,0:0:0:0:
378,313,44375,2,0,P|375:285|366:258,1,56.2500021457673
287,145,44703,2,0,P|279:171|275:199,1,56.2500021457673
395,137,45141,1,0,0:0:0:0:
395,102,45250,2,0,P|392:74|383:47,2,56.2500021457673
275,199,45798,6,0,P|278:171|287:145,1,56.2500021457673
287,144,46126,1,0,0:0:0:0:
286,144,46236,2,0,P|297:169|303:195,1,28.1250010728836
227,292,46455,2,0,P|230:264|238:239,1,28.1250010728836
337,302,46674,2,0,P|352:339|360:376,1,56.2500021457673
227,292,47002,2,0,P|231:262|239:234,1,56.2500021457673
286,144,47331,1,0,0:0:0:0:
378,96,47550,5,0,0:0:0:0:
378,65,47659,2,0,P|374:35|366:7,1,56.2500021457673
177,27,48097,1,0,0:0:0:0:
165,55,48207,2,0,P|159:85|157:114,1,56.2500021457673
180,229,48645,1,0,0:0:0:0:
191,257,48754,2,0,P|197:286|199:315,1,56.2500021457673
197,341,49083,1,0,0:0:0:0:
78,367,49302,5,0,0:0:0:0:
59,313,49411,1,0,0:0:0:0:
57,256,49521,1,0,0:0:0:0:
76,202,49630,1,0,0:0:0:0:
86,153,49740,1,0,0:0:0:0:
87,131,49849,1,0,0:0:0:0:
82,110,49959,2,0,P|92:123|125:146,1,56.2500021457673
206,291,50396,1,0,0:0:0:0:
218,273,50506,2,0,P|226:246|227:218,1,56.2500021457673
227,199,50834,2,0,P|239:205|252:210,1,28.1250010728836
308,219,51053,5,0,0:0:0:0:
363,203,51163,1,0,0:0:0:0:
409,168,51272,1,0,0:0:0:0:
440,118,51382,1,0,0:0:0:0:
449,60,51491,2,0,P|450:91|463:131,1,56.2500021457673
512,261,51929,2,0,P|511:230|498:190,1,56.2500021457673
444,316,52258,1,0,0:0:0:0:
388,284,52477,2,0,P|357:285|334:292,1,42.1875016093255
174,320,52805,5,0,0:0:0:0:
120,321,52914,1,0,0:0:0:0:
65,321,53024,2,0,P|24:305|-14:271,1,75
140,227,53462,1,0,0:0:0:0:
194,228,53571,1,0,0:0:0:0:
250,229,53681,5,0,0:0:0:0:
304,230,53790,1,0,0:0:0:0:
359,230,53900,2,0,P|402:218|438:180,1,75
392,70,54338,1,0,0:0:0:0:
318,0,54448,2,0,P|334:41|368:79,1,75
392,70,54776,6,0,P|370:100|357:135,1,75
365,174,55105,1,0,0:0:0:0:
383,205,55214,1,0,0:0:0:0:
415,225,55323,1,0,0:0:0:0:
452,228,55433,1,0,0:0:0:0:
486,214,55542,1,0,0:0:0:0:
512,183,55652,6,0,P|519:146|512:108,1,75
439,146,56090,1,0,0:0:0:0:
378,228,56309,6,0,P|374:265|411:374,1,146.249993305207
406,367,56747,2,0,P|379:337|345:319,1,56.2500021457673
230,283,56966,1,0,0:0:0:0:
96,288,57185,2,0,B|68:303|53:335|53:335|48:386,1,97.4999955368044
230,283,57623,1,0,0:0:0:0:
168,137,57842,1,0,0:0:0:0:
313,94,58061,6,0,B|341:109|356:141|356:141|361:192,1,97.4999955368044
230,283,58499,1,0,0:0:0:0:
313,94,58718,2,0,B|341:109|356:141|356:141|361:192,1,97.4999955368044
230,283,59156,1,0,0:0:0:0:
168,137,59375,1,0,0:0:0:0:
313,94,59594,1,0,0:0:0:0:
470,157,59813,6,0,L|464:269,1,97.4999955368044
312,199,60250,2,0,L|318:311,1,97.4999955368044
158,173,60688,2,0,L|152:285,1,97.4999955368044
65,359,61126,1,0,0:0:0:0:
10,140,61345,2,0,L|16:252,1,97.4999955368044
163,75,61783,2,0,L|157:187,1,97.4999955368044
4,42,62221,1,0,0:0:0:0:
163,75,62440,2,0,L|157:187,1,97.4999955368044
15,237,62878,2,0,L|10:140,1,97.4999955368044
157,172,63316,6,0,P|246:197|311:131,1,194.999991073609
222,107,63973,1,0,0:0:0:0:
157,172,64192,2,0,L|176:292,1,97.4999955368044
295,227,64630,2,0,L|311:131,1,97.4999955368044
282,317,65068,6,0,P|340:308|378:257,1,97.4999955368044
408,132,65506,1,0,0:0:0:0:
490,58,65725,2,0,L|505:154,1,97.4999955368044
408,132,66163,1,0,0:0:0:0:
490,58,66382,2,0,L|505:154,1,97.4999955368044
461,250,66820,6,0,L|455:365,1,97.4999955368044
308,303,67258,1,0,0:0:0:0:
303,206,67476,1,0,0:0:0:0:
126,216,67696,6,0,L|119:336,1,97.4999955368044
305,305,68134,1,0,0:0:0:0:
300,203,68352,1,0,0:0:0:0:
471,249,68572,6,0,L|464:376,1,97.4999955368044
303,308,69010,1,0,0:0:0:0:
297,201,69228,1,0,0:0:0:0:
476,249,69448,6,0,L|470:382,1,97.4999955368044
300,311,69886,2,0,L|296:204,1,97.4999955368044
224,66,70323,6,0,P|207:111|220:163,1,97.4999955368044
296,213,70761,2,0,P|313:168|299:115,1,97.4999955368044
80,224,71199,2,0,P|69:271|87:317,1,97.4999955368044
165,262,71637,2,0,P|176:215|159:170,1,97.4999955368044
49,66,72075,6,0,B|79:87|79:87|159:72,1,97.4999955368044
273,35,72513,2,0,B|332:23|332:23|362:44,1,97.4999955368044
411,160,72951,2,0,B|381:181|381:181|321:169,1,97.4999955368044
191,126,73389,1,0,0:0:0:0:
273,35,73608,1,0,0:0:0:0:
322,170,73827,6,0,P|326:227|304:276,1,97.4999955368044
229,204,74265,2,0,P|223:155|238:109,1,97.4999955368044
416,174,74703,2,0,L|435:286,1,97.4999955368044
295,360,75141,2,0,L|312:264,1,97.4999955368044
188,96,75579,6,0,L|169:208,1,97.4999955368044
312,264,76017,2,0,L|295:167,1,97.4999955368044
205,0,76455,6,0,L|186:112,1,97.4999955368044
89,133,76893,2,0,L|72:36,1,97.4999955368044
43,207,77331,6,0,P|81:179|88:132,1,97.4999955368044
18,60,77769,5,0,0:0:0:0:
177,90,77988,1,0,0:0:0:0:
43,207,78207,1,0,0:0:0:0:
202,177,78426,1,0,0:0:0:0:
98,76,78645,1,0,0:0:0:0:
257,106,78864,1,0,0:0:0:0:
121,193,79083,6,0,B|216:175|216:175|239:186|268:185|268:185|295:172|322:169,1,194.999991073609
323,258,79740,1,0,0:0:0:0:
367,102,79959,1,0,0:0:0:0:
310,170,80178,1,0,0:0:0:0:
453,112,80396,2,0,P|441:53|408:23,1,97.4999955368044
404,192,80834,6,0,L|418:351,1,146.249993305207
416,337,81272,1,0,0:0:0:0:
300,150,81491,1,0,0:0:0:0:
304,198,81600,1,0,0:0:0:0:
308,247,81710,6,0,L|316:349,1,97.4999955368044
159,327,82148,2,0,L|168:230,1,97.4999955368044
324,150,82586,2,0,P|368:168|396:207,1,97.4999955368044
81,204,83024,2,0,P|109:165|154:147,1,97.4999955368044
234,237,83462,6,0,B|248:264|248:264|242:339,1,97.4999955368044
96,64,83900,2,0,P|144:51|204:57,1,97.4999955368044
324,150,84338,6,0,L|338:271,1,97.4999955368044
312,55,84776,1,0,0:0:0:0:
191,190,84995,2,0,L|179:286,1,97.4999955368044
203,95,85433,1,0,0:0:0:0:
335,246,85652,1,0,0:0:0:0:
312,55,85871,1,0,0:0:0:0:
180,287,86090,6,0,L|168:383,1,97.4999955368044
335,246,86528,2,0,L|346:342,1,97.4999955368044
89,238,86966,1,0,0:0:0:0:
211,218,87185,1,0,0:0:0:0:
148,342,87404,1,0,0:0:0:0:
23,324,87623,1,0,0:0:0:0:
281,331,87842,6,0,P|337:325|383:295,1,97.4999955368044
148,342,88280,1,0,0:0:0:0:
305,230,88499,2,0,P|344:189|359:136,1,97.4999955368044
148,342,88937,1,0,0:0:0:0:
254,146,89156,2,0,P|257:89|236:39,1,97.4999955368044
107,89,89594,6,0,B|99:106|96:130|96:130|119:152|124:195,1,97.4999955368044
110,309,90032,2,0,B|102:292|99:268|99:268|122:246|135:199|126:157|94:129,1,194.999991073609
24,199,90688,5,0,0:0:0:0:
213,155,90907,1,0,0:0:0:0:
110,66,91126,1,0,0:0:0:0:
123,262,91345,2,0,B|132:313|132:313|144:342|174:360,1,97.4999955368044
311,115,91783,1,0,0:0:0:0:
302,224,92002,2,0,B|293:275|293:275|281:304|251:322,1,97.4999955368044
158,38,92440,1,0,0:0:0:0:
167,147,92659,2,0,B|176:198|176:198|188:227|218:245,1,97.4999955368044
245,71,93097,6,0,P|205:43|157:37,1,97.4999955368044
290,177,93535,2,0,P|338:179|382:158,1,97.4999955368044
423,81,93973,2,0,L|426:200,1,97.4999955368044
428,299,94411,1,0,0:0:0:0:
425,178,94630,1,0,0:0:0:0:
216,306,94849,1,0,0:0:0:0:
388,322,95068,1,0,0:0:0:0:
180,227,95287,5,0,0:0:0:0:
352,211,95506,1,0,0:0:0:0:
133,300,95725,1,0,0:0:0:0:
305,316,95944,1,0,0:0:0:0:
94,233,96163,1,0,0:0:0:0:
266,217,96382,1,0,0:0:0:0:
194,349,96601,1,0,0:0:0:0:
190,177,96820,1,0,0:0:0:0:
181,22,97039,5,0,0:0:0:0:
353,6,97258,1,0,0:0:0:0:
134,95,97477,1,0,0:0:0:0:
306,111,97696,1,0,0:0:0:0:
95,28,97915,1,0,0:0:0:0:
267,12,98134,2,0,L|375:3,1,89.9999972534181
95,28,98572,2,0,B|11:35|11:35|63:126|-24:146|28:240,1,269.999991760254
