osu file format v14

[General]
AudioFilename: audio.mp3
AudioLeadIn: 0
PreviewTime: 28686
Countdown: 0
SampleSet: Normal
StackLeniency: 0
Mode: 1
LetterboxInBreaks: 0
WidescreenStoryboard: 1

[Editor]
Bookmarks: 115,11543,17257,28686,40114,45829,55829,57257,68686,71543,74400,77257,88685,94400,100114,111542,117257,122971,123664,134144,136078
DistanceSpacing: 2.7
BeatDivisor: 4
GridSize: 32
TimelineZoom: 2.319999

[Metadata]
Title:Gesui Meidoushite Nezumi Ippiki
TitleUnicode:下水鳴動して鼠一匹
Artist:O-SE
ArtistUnicode:O-SE
Creator:Skidooskei
Version:Oni
Source:G2R2018 Climax
Tags:mouse electronic tech q/stol BOFU2018 bms of fighters go back 2 your roots 2018 trap death a rat from sewer video game instrumental
BeatmapID:4121542
BeatmapSetID:1128544

[Difficulty]
HPDrainRate:5.5
CircleSize:2
OverallDifficulty:6
ApproachRate:9
SliderMultiplier:1.4
SliderTickRate:1

[Events]
//Background and Video events
0,0,"RatFromSewer.jpg",0,0
//Break Periods
//Storyboard Layer 0 (Background)
//Storyboard Layer 1 (Fail)
//Storyboard Layer 2 (Pass)
//Storyboard Layer 3 (Foreground)
//Storyboard Layer 4 (Overlay)
//Storyboard Sound Samples

[TimingPoints]
115,357.142857142857,4,1,0,50,1,0
10290,-101.914916378419,4,1,0,50,0,0
10379,-102.894585253456,4,1,0,50,0,0
10469,-103.904602632153,4,1,0,50,0,0
10558,-104.923088219098,4,1,0,50,0,0
10647,-105.961738098769,4,1,0,50,0,0
10826,-108.114242481559,4,1,0,50,0,0
10915,-109.217364720269,4,1,0,50,0,0
11004,-110.34322999112,4,1,0,50,0,0
11183,-112.679388109131,4,1,0,50,0,0
11361,-115.102698348772,4,1,0,50,0,0
11543,-117.647058823529,4,1,0,40,0,0
14043,-83.3333333333333,4,1,0,40,0,0
14400,-117.647058823529,4,1,0,40,0,0
15826,-113.915077621039,4,1,0,40,0,0
16004,-110.43155579989,4,1,0,40,0,0
16183,-107.136904563485,4,1,0,40,0,0
16361,-104.049985431707,4,1,0,40,0,0
16540,-101.120060407752,4,1,0,40,0,0
16722,-98.3506227240736,4,1,0,60,0,0
16808,-97.0293442820915,4,1,0,60,0,0
16897,-95.7430963090947,4,1,0,60,0,0
16986,-94.4905039101546,4,1,0,60,0,0
17076,-93.2567316620241,4,1,0,60,0,0
17257,-90.9090909090909,4,1,0,90,0,0
21543,-80,4,1,0,95,0,0
21719,-81.3987562270049,4,1,0,95,0,0
21897,-82.8390602737003,4,1,0,95,0,0
22076,-84.3397881384522,4,1,0,95,0,0
22165,-85.1063829787234,4,1,0,95,0,0
22254,-85.8870413631991,4,1,0,95,0,0
22344,-86.6911713711076,4,1,0,95,0,0
22433,-87.5013125196878,4,1,0,95,0,0
22611,-89.1678852944324,4,1,0,95,0,0
22701,-90.034933554219,4,1,0,95,0,0
22790,-90.9090909090909,4,1,0,95,0,0
22972,-90.9090909090909,4,1,0,90,0,0
25829,-90.9090909090909,4,1,0,95,0,0
26004,-89.8904695958706,4,1,0,95,0,0
26183,-88.8888888888889,4,1,0,95,0,0
26272,-88.3991581032562,4,1,0,95,0,0
26361,-87.9147940651358,4,1,0,95,0,0
26540,-86.9565217391304,4,1,0,95,0,0
26718,-86.0240963855422,4,1,0,95,0,0
26897,-85.1063829787234,4,1,0,95,0,0
26986,-84.6573393407636,4,1,0,95,0,0
27075,-84.2130093766586,4,1,0,95,0,0
27254,-83.3333333333333,4,1,0,95,0,0
27433,-85.1101846337105,4,1,0,95,0,0
27611,-86.9538761105026,4,1,0,95,0,0
27790,-88.8902712117442,4,1,0,95,0,0
27969,-90.914874665988,4,1,0,95,0,0
28058,-91.956241956242,4,1,0,100,0,0
28147,-93.0217419606822,4,1,0,100,0,0
28236,-94.1122233930453,4,1,0,100,0,0
28326,-95.2412689949347,4,1,0,100,0,0
28504,-97.5559803386128,4,1,0,90,0,0
28594,-98.7696986452862,4,1,0,90,0,0
28683,-100,4,1,0,90,0,0
38683,-100,4,1,0,85,0,0
38772,-100.627158057924,4,1,0,85,0,0
38861,-101.262232307474,4,1,0,85,0,0
39040,-102.564102564103,4,1,0,85,0,0
39129,-103.223941014891,4,1,0,85,0,0
39219,-103.899883585565,4,1,0,85,0,0
39397,-105.263157894737,4,1,0,85,0,0
39486,-105.958299324776,4,1,0,85,0,0
39576,-106.670650631209,4,1,0,85,0,0
39754,-108.108108108108,4,1,0,85,0,0
39844,-108.849759890236,4,1,0,85,0,0
39933,-109.593246354566,4,1,0,85,0,0
40111,-111.111111111111,4,1,0,85,0,0
45829,-83.3333333333333,4,1,0,95,0,1
55829,-83.3333333333333,4,1,0,70,0,0
56004,-84.2080434013445,4,1,0,70,0,0
56183,-85.1063829787234,4,1,0,70,0,0
56361,-86.0189145232215,4,1,0,70,0,0
56540,-86.9565217391304,4,1,0,70,0,0
56719,-87.9147940651358,4,1,0,70,0,0
56897,-88.8888888888889,4,1,0,70,0,0
57076,-89.8904695958706,4,1,0,70,0,0
57257,-90.9090909090909,4,1,0,90,0,1
62433,-83.3333333333333,4,1,0,90,0,1
62522,-83.6492184505303,4,1,0,90,0,1
62611,-83.9675074818298,4,1,0,90,0,1
62790,-84.6150532075309,4,1,0,90,0,1
62969,-85.2726641194859,4,1,0,90,0,1
63058,-85.6034520332999,4,1,0,90,0,1
63147,-85.9368163122429,4,1,0,90,0,1
63236,-86.2727871732923,4,1,0,90,0,1
63326,-86.6152149944873,4,1,0,90,0,1
63504,-87.3005289594168,4,1,0,90,0,1
63594,-87.6511804346856,4,1,0,90,0,1
63683,-88.0007169101174,4,1,0,90,0,1
63861,-88.7082204155375,4,1,0,90,0,1
64040,-89.4312645143664,4,1,0,90,0,1
64129,-89.7951719092904,4,1,0,90,0,1
64219,-90.1661922688458,4,1,0,90,0,1
64397,-90.9090909090909,4,1,0,90,0,1
67254,-83.3333333333333,4,1,0,90,0,1
67344,-84.2173503064592,4,1,0,90,0,1
67433,-85.1101846337105,4,1,0,90,0,1
67522,-86.0221526607272,4,1,0,90,0,1
67611,-86.9538761105026,4,1,0,90,0,1
67790,-88.8902712117442,4,1,0,90,0,1
67879,-89.885520191219,4,1,0,90,0,1
67969,-90.914874665988,4,1,0,90,0,1
68147,-93.0217419606822,4,1,0,90,0,1
68326,-95.2412689949347,4,1,0,90,0,1
68415,-96.3847295292054,4,1,0,90,0,1
68504,-97.5559803386128,4,1,0,90,0,1
68686,-100,4,1,0,80,0,0
70114,-100,4,1,0,50,0,0
71543,357.142857142857,4,1,0,60,1,0
71543,-117.647058823529,4,1,0,60,0,0
74043,-86.9565217391304,4,1,0,85,0,0
76004,-89.3907168772676,4,1,0,85,0,0
76093,-90.6524566244806,4,1,0,85,0,0
76182,-91.9503249469146,4,1,0,85,0,0
76272,-93.3011230086184,4,1,0,85,0,0
76361,-94.6765163812237,4,1,0,85,0,0
76540,-97.5693021985525,4,1,0,85,0,0
76718,-100.626716428421,4,1,0,85,0,0
76807,-102.228422219838,4,1,0,85,0,0
76897,-103.900825244483,4,1,0,85,0,0
77075,-107.37498591126,4,1,0,85,0,0
77165,-109.221538579126,4,1,0,85,0,0
77254,-111.111111111111,4,1,0,85,0,0
87879,-112.356719989923,4,1,0,85,0,0
87968,-113.630573248408,4,1,0,85,0,0
88057,-114.933642571834,4,1,0,85,0,0
88147,-116.282101420936,4,1,0,85,0,0
88325,-119.044441478713,4,1,0,85,0,0
88504,-121.957888980038,4,1,0,85,0,0
88593,-123.460207612457,4,1,0,85,0,0
88682,-125,4,1,0,85,0,0
94754,-121.213406873144,4,1,0,85,0,0
95111,-117.649481139845,4,1,0,85,0,0
95468,-114.289143131451,4,1,0,85,0,0
95825,-111.115432482887,4,1,0,85,0,0
96182,-108.113221826989,4,1,0,85,0,0
96539,-105.268975681651,4,1,0,85,0,0
96897,-102.563182079265,4,1,0,85,0,0
97254,-100,4,1,0,85,0,0
97432,-98.7692733181221,4,1,0,80,0,0
97522,-98.1584553013125,4,1,0,80,0,0
97611,-97.5618084961071,4,1,0,80,0,0
97789,-96.3900134952766,4,1,0,80,0,0
97968,-95.2396826455097,4,1,0,80,0,0
98147,-94.1164843852945,4,1,0,80,0,0
98325,-93.0255274811149,4,1,0,80,0,0
98414,-92.4894787957268,4,1,0,80,0,0
98504,-91.9536530415191,4,1,0,80,0,0
98593,-91.4298515104967,4,1,0,80,0,0
98682,-90.9119837077579,4,1,0,80,0,0
98861,-89.8879939592248,4,1,0,80,0,0
99039,-88.8923459863099,4,1,0,80,0,0
99218,-87.9131023447597,4,1,0,80,0,0
99307,-87.4342024727629,4,1,0,80,0,0
99397,-86.9551984416849,4,1,0,80,0,0
99575,-86.023124171986,4,1,0,80,0,0
99754,-85.1057491808162,4,1,0,80,0,0
99932,-84.2126982255497,4,1,0,80,0,0
100114,-83.3333333333333,4,1,0,90,0,1
108682,-76.9230769230769,4,1,0,90,0,1
108772,-77.2224143894846,4,1,0,90,0,1
108861,-77.520725725943,4,1,0,90,0,1
108950,-77.8213507625272,4,1,0,90,0,1
109039,-78.124316521587,4,1,0,90,0,1
109218,-78.7408517767393,4,1,0,90,0,1
109307,-79.0510335059532,4,1,0,90,0,1
109397,-79.3671954850464,4,1,0,90,0,1
109575,-80,4,1,0,90,0,1
109754,-80.6466178993949,4,1,0,90,0,1
109843,-80.9720270209004,4,1,0,90,0,1
109932,-81.3000728332119,4,1,0,90,0,1
110111,-81.9679654871724,4,1,0,90,0,1
110200,-82.3041474654378,4,1,0,90,0,1
110289,-82.6430984220999,4,1,0,90,0,1
110379,-82.9887087031272,4,1,0,90,0,1
110468,-83.3333333333333,4,1,0,90,0,1
110650,-83.3333333333333,4,1,0,90,0,0
111542,-83.3333333333333,4,1,0,90,0,1
117254,-100,4,1,0,90,0,1
117432,-98.7692733181221,4,1,0,100,0,1
117522,-98.1584553013125,4,1,0,100,0,1
117611,-97.5618084961071,4,1,0,100,0,1
117789,-96.3900134952766,4,1,0,100,0,1
117879,-95.8081824279007,4,1,0,100,0,1
117968,-95.2396826455097,4,1,0,100,0,1
118147,-94.1164843852945,4,1,0,100,0,1
118325,-93.0255274811149,4,1,0,100,0,1
118414,-92.4894787957268,4,1,0,100,0,1
118504,-91.9536530415191,4,1,0,100,0,1
118682,-90.9119837077579,4,1,0,100,0,1
118861,-89.8879939592248,4,1,0,100,0,1
119039,-88.8923459863099,4,1,0,100,0,1
119129,-88.3972772277228,4,1,0,100,0,1
119218,-87.9131023447597,4,1,0,100,0,1
119307,-87.4342024727629,4,1,0,100,0,1
119397,-86.9551984416849,4,1,0,100,0,1
119575,-86.023124171986,4,1,0,100,0,1
119754,-85.1057491808162,4,1,0,100,0,1
119843,-84.6568685551736,4,1,0,100,0,1
119932,-84.2126982255497,4,1,0,100,0,1
120022,-83.7682519204832,4,1,0,100,0,1
120111,-83.3333333333333,4,1,0,100,0,1
122971,346.820809248555,4,1,0,100,1,8
123664,346.820809248555,4,1,0,80,1,0
124007,-98.8802347407711,4,1,0,80,0,0
124181,-98.3265393692341,4,1,0,80,0,0
124267,-98.0551573632299,4,1,0,80,0,0
124354,-97.7821397710665,4,1,0,80,0,0
124528,-97.2406403496674,4,1,0,80,0,0
124701,-96.7081662798059,4,1,0,80,0,0
124874,-96.181491935907,4,1,0,80,0,0
124961,-95.9187944746756,4,1,0,80,0,0
125048,-95.6575280992684,4,1,0,80,0,0
125221,-95.1422046917168,4,1,0,80,0,0
125308,-94.8851461164998,4,1,0,80,0,0
125395,-94.6294728582932,4,1,0,80,0,0
125568,-94.1251373471211,4,1,0,80,0,0
125741,-93.6261491317671,4,1,0,80,0,0
125915,-93.1295848489159,4,1,0,80,0,0
126088,-92.6410689198613,4,1,0,80,0,0
126175,-92.3973306989778,4,1,0,80,0,0
126262,-92.1548716608186,4,1,0,80,0,0
126438,333.333333333333,4,1,0,85,1,0
126438,-95.3859555991756,4,1,0,85,0,0
126768,-94.4423070945701,4,1,0,85,0,0
126935,-93.9760609045621,4,1,0,85,0,0
127018,-93.7460421377631,4,1,0,85,0,0
127101,-93.5171466240123,4,1,0,85,0,0
127268,-93.0599683133144,4,1,0,85,0,0
127435,-92.6072382816102,4,1,0,85,0,0
127601,-92.1615637100578,4,1,0,85,0,0
127685,-91.9376722006399,4,1,0,85,0,0
127768,-91.717511975426,4,1,0,85,0,0
127935,-91.277718771815,4,1,0,85,0,0
128101,-90.8447191152293,4,1,0,85,0,0
128185,-90.6271724638587,4,1,0,85,0,0
128268,-90.4132366276085,4,1,0,85,0,0
128435,-89.9858335634049,4,1,0,85,0,0
128601,-89.5649757016977,4,1,0,85,0,0
128685,-89.3535079705878,4,1,0,85,0,0
128768,-89.1455362421063,4,1,0,85,0,0
128851,-88.938530380647,4,1,0,85,0,0
128935,-88.7300070031892,4,1,0,85,0,0
129104,315.789473684211,4,1,0,90,1,0
129104,-93.227497706169,4,1,0,90,0,0
129416,-92.4186844371093,4,1,0,90,0,0
129495,-92.2180356013276,4,1,0,90,0,0
129574,-92.0182561295088,4,1,0,90,0,0
129732,-91.6212827747684,4,1,0,90,0,0
129890,-91.2277198502191,4,1,0,90,0,0
130048,-90.8375235949155,4,1,0,90,0,0
130127,-90.6436744972188,4,1,0,90,0,0
130206,-90.4506509934151,4,1,0,90,0,0
130364,-90.0670597599704,4,1,0,90,0,0
130679,-89.3119328771238,4,1,0,90,0,0
130758,-89.124533667804,4,1,0,90,0,0
130837,-88.9379192344783,4,1,0,90,0,0
130995,-88.5670250594933,4,1,0,90,0,0
131153,-88.1992114872795,4,1,0,90,0,0
131232,-88.0164479581031,4,1,0,90,0,0
131311,-87.8344402958915,4,1,0,90,0,0
131390,-87.6531838211893,4,1,0,90,0,0
131469,-87.4726738930879,4,1,0,90,0,0
131630,300,4,1,0,95,1,0
131630,-91.6988161088589,4,1,0,95,0,0
131927,-90.9901577556502,4,1,0,95,0,0
132002,-90.8147013010252,4,1,0,95,0,0
132077,-90.6399202099729,4,1,0,95,0,0
132227,-90.292368580817,4,1,0,95,0,0
132377,-89.9474720893956,4,1,0,95,0,0
132452,-89.7760100303095,4,1,0,95,0,0
132527,-89.6052004254048,4,1,0,95,0,0
132677,-89.2655237381433,4,1,0,95,0,0
132827,-88.9284126278346,4,1,0,95,0,0
133430,357.142857142857,4,1,0,100,1,8
133430,-74.6998666074076,4,1,0,100,0,8
133605,-77.3666419623841,4,1,0,100,0,8
133784,-80.2475639132485,4,1,0,100,0,8
133962,-83.3333333333333,4,1,0,100,0,8
134144,357.142857142857,7,1,0,50,1,0
134144,-33.3333333333333,7,1,0,50,0,0
136078,357.142857142857,4,1,0,50,1,8

[Colours]
Combo1 : 199,250,84
Combo2 : 149,202,255
Combo3 : 255,255,128
Combo4 : 255,170,200

[HitObjects]
256,192,115,5,8,1:0:0:0:
256,192,293,1,8,1:0:0:0:
256,192,472,1,0,1:0:0:0:
256,192,829,1,8,1:0:0:0:
256,192,1186,1,0,1:0:0:0:
256,192,1543,1,8,1:0:0:0:
256,192,1722,1,8,1:0:0:0:
256,192,1900,1,0,1:0:0:0:
256,192,2257,1,8,1:0:0:0:
256,192,2436,1,0,1:0:0:0:
256,192,2614,1,8,1:0:0:0:
256,192,2793,1,0,1:0:0:0:
256,192,2972,1,8,1:0:0:0:
256,192,3150,1,8,1:0:0:0:
256,192,3329,1,0,1:0:0:0:
256,192,3686,1,8,1:0:0:0:
256,192,4043,1,0,1:0:0:0:
256,192,4400,1,8,1:0:0:0:
256,192,4579,1,8,1:0:0:0:
256,192,4757,1,0,1:0:0:0:
256,192,4936,1,8,1:0:0:0:
256,192,5114,1,8,1:0:0:0:
256,192,5382,1,0,1:0:0:0:
256,192,5472,1,8,1:0:0:0:
256,192,5650,1,0,1:0:0:0:
256,192,5829,1,8,1:0:0:0:
256,192,6007,1,8,1:0:0:0:
256,192,6186,1,0,1:0:0:0:
256,192,6543,1,8,1:0:0:0:
256,192,6900,1,0,1:0:0:0:
256,192,7257,1,8,1:0:0:0:
256,192,7436,1,8,1:0:0:0:
256,192,7614,1,0,1:0:0:0:
256,192,7972,1,8,1:0:0:0:
256,192,8150,1,0,1:0:0:0:
256,192,8329,1,8,1:0:0:0:
256,192,8507,1,0,1:0:0:0:
256,192,8686,1,8,1:0:0:0:
256,192,8864,1,8,1:0:0:0:
256,192,9043,1,0,1:0:0:0:
256,192,9400,1,8,1:0:0:0:
256,192,9757,1,0,1:0:0:0:
256,192,10114,1,8,1:0:0:0:
256,192,10293,1,0,1:0:0:0:
256,192,10382,1,0,1:0:0:0:
256,192,10472,1,8,1:0:0:0:
256,192,10561,1,8,1:0:0:0:
256,192,10650,1,0,1:0:0:0:
256,192,10829,1,8,1:0:0:0:
256,192,10918,1,8,1:0:0:0:
256,192,11007,1,8,1:0:0:0:
256,192,11186,1,0,1:0:0:0:
256,192,11364,1,0,1:0:0:0:
256,192,11543,1,0,1:0:0:0:
256,192,11900,1,8,1:0:0:0:
256,192,12257,1,8,1:0:0:0:
256,192,12793,1,8,1:0:0:0:
256,192,12972,1,0,1:0:0:0:
256,192,13150,1,8,1:0:0:0:
256,192,13329,1,8,1:0:0:0:
256,192,13507,1,0,1:0:0:0:
256,192,13686,1,0,1:0:0:0:
256,192,13864,1,8,1:0:0:0:
256,192,14043,2,0,L|256:285,1,83.9999974365235,0|0,1:0|1:0,1:0:0:0:
256,192,14400,1,0,1:0:0:0:
256,192,14757,1,8,1:0:0:0:
256,192,15114,1,8,1:0:0:0:
256,192,15650,1,8,1:0:0:0:
256,192,15829,1,0,1:0:0:0:
256,192,16007,1,8,1:0:0:0:
256,192,16186,1,8,1:0:0:0:
256,192,16364,1,0,1:0:0:0:
256,192,16543,1,8,1:0:0:0:
256,192,16722,1,0,1:0:0:0:
256,192,16811,1,0,1:0:0:0:
256,192,16900,1,8,1:0:0:0:
256,192,16989,1,8,1:0:0:0:
256,192,17079,1,0,1:0:0:0:
256,192,17257,1,4,1:0:0:0:
256,192,17614,1,8,1:0:0:0:
256,192,17793,1,0,1:0:0:0:
256,192,17882,1,0,1:0:0:0:
256,192,17972,1,8,1:0:0:0:
256,192,18150,1,0,1:0:0:0:
256,192,18329,1,8,1:0:0:0:
256,192,18418,1,8,1:0:0:0:
256,192,18507,1,0,1:0:0:0:
256,192,18686,1,8,1:0:0:0:
256,192,18864,1,0,1:0:0:0:
256,192,19043,1,0,1:0:0:0:
256,192,19132,1,8,1:0:0:0:
256,192,19222,1,0,1:0:0:0:
256,192,19400,1,8,1:0:0:0:
256,192,19579,1,0,1:0:0:0:
256,192,19668,1,0,1:0:0:0:
256,192,19757,1,8,1:0:0:0:
256,192,19847,1,8,1:0:0:0:
256,192,19936,1,0,1:0:0:0:
256,192,20114,1,8,1:0:0:0:
256,192,20293,1,0,1:0:0:0:
256,192,20472,1,8,1:0:0:0:
256,192,20561,1,8,1:0:0:0:
256,192,20650,1,0,1:0:0:0:
256,192,20829,1,0,1:0:0:0:
256,192,21007,1,8,1:0:0:0:
256,192,21097,1,0,1:0:0:0:
256,192,21186,1,0,1:0:0:0:
256,192,21364,1,0,1:0:0:0:
256,192,21543,1,12,1:0:0:0:
256,192,21722,1,0,1:0:0:0:
256,192,21900,1,12,1:0:0:0:
256,192,22079,1,0,1:0:0:0:
256,192,22168,1,0,1:0:0:0:
256,192,22257,1,8,1:0:0:0:
256,192,22347,1,0,1:0:0:0:
256,192,22436,1,0,1:0:0:0:
256,192,22614,1,8,1:0:0:0:
256,192,22704,1,0,1:0:0:0:
256,192,22793,1,8,1:0:0:0:
256,192,22972,1,12,1:0:0:0:
256,192,23329,1,0,1:0:0:0:
256,192,23507,1,8,1:0:0:0:
256,192,23597,1,0,1:0:0:0:
256,192,23686,1,0,1:0:0:0:
256,192,23864,1,0,1:0:0:0:
256,192,24043,1,8,1:0:0:0:
256,192,24132,1,8,1:0:0:0:
256,192,24222,1,0,1:0:0:0:
256,192,24400,1,0,1:0:0:0:
256,192,24579,1,8,1:0:0:0:
256,192,24757,1,0,1:0:0:0:
256,192,24847,1,0,1:0:0:0:
256,192,24936,1,8,1:0:0:0:
256,192,25114,1,8,1:0:0:0:
256,192,25293,1,8,1:0:0:0:
256,192,25382,1,8,1:0:0:0:
256,192,25472,1,0,1:0:0:0:
256,192,25561,1,0,1:0:0:0:
256,192,25650,1,8,1:0:0:0:
256,192,25829,1,8,1:0:0:0:
256,192,26007,1,0,1:0:0:0:
256,192,26186,1,8,1:0:0:0:
256,192,26275,1,0,1:0:0:0:
256,192,26364,1,0,1:0:0:0:
256,192,26543,1,8,1:0:0:0:
256,192,26721,1,0,1:0:0:0:
256,192,26900,1,8,1:0:0:0:
256,192,26989,1,0,1:0:0:0:
256,192,27078,1,0,1:0:0:0:
256,192,27257,1,12,1:0:0:0:
256,192,27436,1,0,1:0:0:0:
256,192,27614,1,12,1:0:0:0:
256,192,27793,1,0,1:0:0:0:
256,192,27972,1,8,1:0:0:0:
256,192,28061,1,0,1:0:0:0:
256,192,28150,1,8,1:0:0:0:
256,192,28239,1,8,1:0:0:0:
256,192,28329,1,0,1:0:0:0:
256,192,28507,1,8,1:0:0:0:
256,192,28597,1,8,1:0:0:0:
256,192,28686,1,4,1:0:0:0:
256,192,28864,1,8,1:0:0:0:
256,192,29222,1,8,1:0:0:0:
256,192,29400,1,0,1:0:0:0:
256,192,29489,1,0,1:0:0:0:
256,192,29579,1,0,1:0:0:0:
256,192,29757,1,8,1:0:0:0:
256,192,29936,1,0,1:0:0:0:
256,192,30114,1,8,1:0:0:0:
256,192,30204,1,8,1:0:0:0:
256,192,30293,1,8,1:0:0:0:
256,192,30472,1,0,1:0:0:0:
256,192,30650,1,0,1:0:0:0:
256,192,30829,1,8,1:0:0:0:
256,192,30918,1,0,1:0:0:0:
256,192,31007,1,8,1:0:0:0:
256,192,31186,1,12,1:0:0:0:
256,192,31364,1,0,1:0:0:0:
256,192,31543,1,0,1:0:0:0:
256,192,31722,1,8,1:0:0:0:
256,192,32079,1,8,1:0:0:0:
256,192,32257,1,0,1:0:0:0:
256,192,32347,1,0,1:0:0:0:
256,192,32436,1,0,1:0:0:0:
256,192,32614,1,8,1:0:0:0:
256,192,32793,1,0,1:0:0:0:
256,192,32972,1,8,1:0:0:0:
256,192,33150,1,8,1:0:0:0:
256,192,33329,1,0,1:0:0:0:
256,192,33507,1,8,1:0:0:0:
256,192,33597,1,8,1:0:0:0:
256,192,33686,1,8,1:0:0:0:
256,192,33864,1,0,1:0:0:0:
256,192,34043,1,8,1:0:0:0:
256,192,34222,1,8,1:0:0:0:
256,192,34400,1,4,1:0:0:0:
256,192,34757,1,0,1:0:0:0:
256,192,34847,1,8,1:0:0:0:
256,192,34936,1,8,1:0:0:0:
256,192,35025,1,8,1:0:0:0:
256,192,35114,1,0,1:0:0:0:
256,192,35293,1,0,1:0:0:0:
256,192,35472,1,8,1:0:0:0:
256,192,35561,1,8,1:0:0:0:
256,192,35650,1,0,1:0:0:0:
256,192,35829,1,8,1:0:0:0:
256,192,35918,1,8,1:0:0:0:
256,192,36007,1,8,1:0:0:0:
256,192,36186,1,0,1:0:0:0:
256,192,36364,1,0,1:0:0:0:
256,192,36543,1,8,1:0:0:0:
256,192,36632,1,0,1:0:0:0:
256,192,36722,1,8,1:0:0:0:
256,192,36900,1,12,1:0:0:0:
256,192,37079,1,0,1:0:0:0:
256,192,37257,1,8,1:0:0:0:
256,192,37347,1,0,1:0:0:0:
256,192,37436,1,8,1:0:0:0:
256,192,37614,1,12,1:0:0:0:
256,192,37793,1,0,1:0:0:0:
256,192,37972,1,8,1:0:0:0:
256,192,38061,1,0,1:0:0:0:
256,192,38150,1,8,1:0:0:0:
256,192,38329,1,12,1:0:0:0:
256,192,38507,1,0,1:0:0:0:
256,192,38686,1,8,1:0:0:0:
256,192,38775,1,8,1:0:0:0:
256,192,38864,1,8,1:0:0:0:
256,192,39043,1,0,1:0:0:0:
256,192,39132,1,0,1:0:0:0:
256,192,39222,1,0,1:0:0:0:
256,192,39400,1,8,1:0:0:0:
256,192,39489,1,8,1:0:0:0:
256,192,39579,1,0,1:0:0:0:
256,192,39757,1,8,1:0:0:0:
256,192,39847,1,0,1:0:0:0:
256,192,39936,1,0,1:0:0:0:
256,192,40114,1,0,1:0:0:0:
256,192,40472,1,8,1:0:0:0:
256,192,40829,1,8,1:0:0:0:
256,192,41186,1,8,1:0:0:0:
256,192,41543,1,0,1:0:0:0:
256,192,41900,1,0,1:0:0:0:
256,192,42079,1,8,1:0:0:0:
256,192,42257,1,8,1:0:0:0:
256,192,42436,1,0,1:0:0:0:
256,192,42525,1,0,1:0:0:0:
256,192,42614,1,0,1:0:0:0:
256,192,42793,1,8,1:0:0:0:
256,192,42972,1,0,1:0:0:0:
256,192,43329,1,8,1:0:0:0:
256,192,43686,1,8,1:0:0:0:
256,192,44043,1,8,1:0:0:0:
256,192,44400,1,0,1:0:0:0:
256,192,44579,1,0,1:0:0:0:
256,192,44936,1,0,1:0:0:0:
256,192,45114,1,8,1:0:0:0:
256,192,45293,1,0,1:0:0:0:
256,192,45650,1,8,1:0:0:0:
256,192,45829,1,12,1:0:0:0:
256,192,46007,1,0,1:0:0:0:
256,192,46186,1,8,1:0:0:0:
256,192,46364,1,0,1:0:0:0:
256,192,46543,1,12,1:0:0:0:
256,192,46722,1,0,1:0:0:0:
256,192,46900,1,8,1:0:0:0:
256,192,47079,1,0,1:0:0:0:
256,192,47257,1,12,1:0:0:0:
256,192,47436,1,0,1:0:0:0:
256,192,47614,1,8,1:0:0:0:
256,192,47793,1,0,1:0:0:0:
256,192,47972,1,12,1:0:0:0:
256,192,48150,1,12,1:0:0:0:
256,192,48329,1,4,1:0:0:0:
256,192,48686,1,4,1:0:0:0:
256,192,48864,1,8,1:0:0:0:
256,192,49043,1,0,1:0:0:0:
256,192,49222,1,8,1:0:0:0:
256,192,49400,1,4,1:0:0:0:
256,192,49579,1,8,1:0:0:0:
256,192,49758,1,0,1:0:0:0:
256,192,49937,1,8,1:0:0:0:
256,192,50114,1,4,1:0:0:0:
256,192,50293,1,8,1:0:0:0:
256,192,50472,1,0,1:0:0:0:
256,192,50651,1,8,1:0:0:0:
256,192,50829,1,4,1:0:0:0:
256,192,51007,1,4,1:0:0:0:
256,192,51186,1,12,1:0:0:0:
256,192,51543,1,12,1:0:0:0:
256,192,51722,1,0,1:0:0:0:
256,192,51900,1,8,1:0:0:0:
256,192,52079,1,0,1:0:0:0:
256,192,52257,1,12,1:0:0:0:
256,192,52436,1,0,1:0:0:0:
256,192,52614,1,8,1:0:0:0:
256,192,52793,1,0,1:0:0:0:
256,192,52972,1,12,1:0:0:0:
256,192,53150,1,0,1:0:0:0:
256,192,53328,1,8,1:0:0:0:
256,192,53507,1,0,1:0:0:0:
256,192,53686,1,12,1:0:0:0:
256,192,53864,1,12,1:0:0:0:
256,192,54043,1,4,1:0:0:0:
256,192,54400,1,12,1:0:0:0:
256,192,54579,1,0,1:0:0:0:
256,192,54757,1,8,1:0:0:0:
256,192,54936,1,0,1:0:0:0:
256,192,55114,1,12,1:0:0:0:
256,192,55293,1,0,1:0:0:0:
256,192,55472,1,12,1:0:0:0:
256,192,55650,1,0,1:0:0:0:
256,192,55829,1,8,1:0:0:0:
256,192,56007,1,8,1:0:0:0:
256,192,56186,1,8,1:0:0:0:
256,192,56364,1,0,1:0:0:0:
256,192,56543,1,0,1:0:0:0:
256,192,56722,1,0,1:0:0:0:
256,192,56900,1,8,1:0:0:0:
256,192,57079,1,8,1:0:0:0:
256,192,57257,1,4,1:0:0:0:
256,192,57436,1,8,1:0:0:0:
256,192,57525,1,8,1:0:0:0:
256,192,57614,1,0,1:0:0:0:
256,192,57793,1,8,1:0:0:0:
256,192,57882,1,8,1:0:0:0:
256,192,57972,1,8,1:0:0:0:
256,192,58061,1,8,1:0:0:0:
256,192,58150,1,0,1:0:0:0:
256,192,58329,1,4,1:0:0:0:
256,192,58507,1,12,1:0:0:0:
256,192,58864,1,0,1:0:0:0:
256,192,58954,1,0,1:0:0:0:
256,192,59043,1,8,1:0:0:0:
256,192,59222,1,0,1:0:0:0:
256,192,59311,1,8,1:0:0:0:
256,192,59400,1,8,1:0:0:0:
256,192,59489,1,0,1:0:0:0:
256,192,59579,1,8,1:0:0:0:
256,192,59757,1,0,1:0:0:0:
256,192,59936,1,12,1:0:0:0:
256,192,60293,1,0,1:0:0:0:
256,192,60472,1,8,1:0:0:0:
256,192,60650,1,12,1:0:0:0:
256,192,60829,1,0,1:0:0:0:
256,192,61007,1,0,1:0:0:0:
256,192,61097,1,8,1:0:0:0:
256,192,61186,1,8,1:0:0:0:
256,192,61364,1,4,1:0:0:0:
256,192,61722,1,8,1:0:0:0:
256,192,61900,1,0,1:0:0:0:
256,192,62079,1,12,1:0:0:0:
256,192,62436,1,8,1:0:0:0:
256,192,62525,1,0,1:0:0:0:
256,192,62614,1,8,1:0:0:0:
256,192,62793,1,0,1:0:0:0:
256,192,62972,1,0,1:0:0:0:
256,192,63061,1,8,1:0:0:0:
256,192,63150,1,8,1:0:0:0:
256,192,63239,1,0,1:0:0:0:
256,192,63329,1,8,1:0:0:0:
256,192,63507,1,0,1:0:0:0:
256,192,63597,1,0,1:0:0:0:
256,192,63686,1,8,1:0:0:0:
256,192,63864,1,0,1:0:0:0:
256,192,64043,1,8,1:0:0:0:
256,192,64132,1,8,1:0:0:0:
256,192,64222,1,0,1:0:0:0:
256,192,64400,1,8,1:0:0:0:
256,192,64579,1,0,1:0:0:0:
256,192,64757,1,8,1:0:0:0:
256,192,64936,1,0,1:0:0:0:
256,192,65114,1,0,1:0:0:0:
256,192,65293,1,8,1:0:0:0:
256,192,65650,1,4,1:0:0:0:
256,192,66007,1,0,1:0:0:0:
256,192,66186,1,8,1:0:0:0:
256,192,66364,1,12,1:0:0:0:
256,192,66722,1,0,1:0:0:0:
256,192,66900,1,8,1:0:0:0:
256,192,67079,1,0,1:0:0:0:
256,192,67257,1,8,1:0:0:0:
256,192,67347,1,8,1:0:0:0:
256,192,67436,1,0,1:0:0:0:
256,192,67525,1,0,1:0:0:0:
256,192,67614,1,8,1:0:0:0:
256,192,67793,1,0,1:0:0:0:
256,192,67882,1,8,1:0:0:0:
256,192,67972,1,8,1:0:0:0:
256,192,68150,1,0,1:0:0:0:
256,192,68329,1,8,1:0:0:0:
256,192,68418,1,0,1:0:0:0:
256,192,68507,1,0,1:0:0:0:
256,192,68686,1,0,1:0:0:0:
256,192,69043,12,0,70114,1:0:0:0:
256,192,71543,5,0,1:0:0:0:
256,192,71900,1,8,1:0:0:0:
256,192,72257,1,8,1:0:0:0:
256,192,72793,1,8,1:0:0:0:
256,192,72971,1,0,1:0:0:0:
256,192,73150,1,8,1:0:0:0:
256,192,73328,1,8,1:0:0:0:
256,192,73507,1,0,1:0:0:0:
256,192,73685,1,0,1:0:0:0:
256,192,73864,1,8,1:0:0:0:
256,192,74043,1,4,1:0:0:0:
256,192,74221,1,0,1:0:0:0:
256,192,74400,1,12,1:0:0:0:
256,192,74578,1,0,1:0:0:0:
256,192,74757,1,12,1:0:0:0:
256,192,74935,1,0,1:0:0:0:
256,192,75114,1,12,1:0:0:0:
256,192,75293,1,0,1:0:0:0:
256,192,75471,1,8,1:0:0:0:
256,192,75650,1,8,1:0:0:0:
256,192,75739,1,0,1:0:0:0:
256,192,75828,1,0,1:0:0:0:
256,192,76007,1,0,1:0:0:0:
256,192,76096,1,0,1:0:0:0:
256,192,76185,1,8,1:0:0:0:
256,192,76275,1,0,1:0:0:0:
256,192,76364,1,8,1:0:0:0:
256,192,76543,1,0,1:0:0:0:
256,192,76721,1,8,1:0:0:0:
256,192,76810,1,0,1:0:0:0:
256,192,76900,1,8,1:0:0:0:
256,192,77078,1,8,1:0:0:0:
256,192,77168,1,8,1:0:0:0:
256,192,77257,1,0,1:0:0:0:
256,192,77614,1,0,1:0:0:0:
256,192,77882,1,8,1:0:0:0:
256,192,77971,1,8,1:0:0:0:
256,192,78150,1,0,1:0:0:0:
256,192,78328,1,0,1:0:0:0:
256,192,78596,1,8,1:0:0:0:
256,192,78685,1,8,1:0:0:0:
256,192,78864,1,8,1:0:0:0:
256,192,79043,1,0,1:0:0:0:
256,192,79221,1,0,1:0:0:0:
256,192,79400,1,8,1:0:0:0:
256,192,79578,1,0,1:0:0:0:
256,192,79757,1,0,1:0:0:0:
256,192,80114,1,8,1:0:0:0:
256,192,80293,1,0,1:0:0:0:
256,192,80471,1,8,1:0:0:0:
256,192,80650,1,0,1:0:0:0:
256,192,80739,1,8,1:0:0:0:
256,192,80918,1,8,1:0:0:0:
256,192,81007,1,0,1:0:0:0:
256,192,81185,1,0,1:0:0:0:
256,192,81364,1,8,1:0:0:0:
256,192,81543,1,8,1:0:0:0:
256,192,81721,1,0,1:0:0:0:
256,192,81900,1,8,1:0:0:0:
256,192,82257,1,8,1:0:0:0:
256,192,82614,1,8,1:0:0:0:
256,192,82793,1,0,1:0:0:0:
256,192,82971,1,8,1:0:0:0:
256,192,83328,1,0,1:0:0:0:
256,192,83507,1,8,1:0:0:0:
256,192,83685,1,0,1:0:0:0:
256,192,83864,1,0,1:0:0:0:
256,192,83953,1,8,1:0:0:0:
256,192,84043,1,0,1:0:0:0:
256,192,84132,1,8,1:0:0:0:
256,192,84221,1,0,1:0:0:0:
256,192,84310,1,8,1:0:0:0:
256,192,84578,1,8,1:0:0:0:
256,192,84757,1,0,1:0:0:0:
256,192,84846,1,0,1:0:0:0:
256,192,84935,1,0,1:0:0:0:
256,192,85114,1,8,1:0:0:0:
256,192,85471,1,8,1:0:0:0:
256,192,85650,1,0,1:0:0:0:
256,192,85828,1,8,1:0:0:0:
256,192,86185,1,0,1:0:0:0:
256,192,86364,1,0,1:0:0:0:
256,192,86453,1,0,1:0:0:0:
256,192,86543,1,8,1:0:0:0:
256,192,86900,1,0,1:0:0:0:
256,192,87079,1,0,1:0:0:0:
256,192,87168,1,0,1:0:0:0:
256,192,87258,1,8,1:0:0:0:
256,192,87614,1,0,1:0:0:0:
256,192,87793,1,0,1:0:0:0:
256,192,87882,1,8,1:0:0:0:
256,192,87971,1,0,1:0:0:0:
256,192,88060,1,8,1:0:0:0:
256,192,88150,1,0,1:0:0:0:
256,192,88328,1,0,1:0:0:0:
256,192,88507,1,0,1:0:0:0:
256,192,88596,1,8,1:0:0:0:
256,192,88685,1,0,1:0:0:0:
256,192,89043,1,8,1:0:0:0:
256,192,89221,1,0,1:0:0:0:
256,192,89400,1,8,1:0:0:0:
256,192,89757,1,0,1:0:0:0:
256,192,89935,1,0,1:0:0:0:
256,192,90114,1,8,1:0:0:0:
256,192,90293,1,8,1:0:0:0:
256,192,90471,1,0,1:0:0:0:
256,192,90650,1,8,1:0:0:0:
256,192,90828,1,8,1:0:0:0:
256,192,90918,1,0,1:0:0:0:
256,192,91007,1,0,1:0:0:0:
256,192,91185,1,8,1:0:0:0:
256,192,91364,1,8,1:0:0:0:
256,192,91543,1,8,1:0:0:0:
256,192,91900,1,0,1:0:0:0:
256,192,92078,1,8,1:0:0:0:
256,192,92257,1,0,1:0:0:0:
256,192,92346,1,8,1:0:0:0:
256,192,92435,1,0,1:0:0:0:
256,192,92614,1,0,1:0:0:0:
256,192,92703,1,0,1:0:0:0:
256,192,92793,1,0,1:0:0:0:
256,192,92971,1,8,1:0:0:0:
256,192,93328,1,8,1:0:0:0:
256,192,93507,1,0,1:0:0:0:
256,192,93685,1,8,1:0:0:0:
256,192,94042,1,0,1:0:0:0:
256,192,94221,1,8,1:0:0:0:
256,192,94310,1,8,1:0:0:0:
256,192,94400,1,0,1:0:0:0:
256,192,94757,1,8,1:0:0:0:
256,192,95114,1,0,1:0:0:0:
256,192,95471,1,8,1:0:0:0:
256,192,95828,1,0,1:0:0:0:
256,192,96185,1,8,1:0:0:0:
256,192,96542,1,0,1:0:0:0:
256,192,96900,1,8,1:0:0:0:
256,192,97257,1,8,1:0:0:0:
256,192,97435,1,0,1:0:0:0:
256,192,97525,1,0,1:0:0:0:
256,192,97614,1,8,1:0:0:0:
256,192,97792,1,0,1:0:0:0:
256,192,97971,1,8,1:0:0:0:
256,192,98150,1,0,1:0:0:0:
256,192,98328,1,8,1:0:0:0:
256,192,98417,1,0,1:0:0:0:
256,192,98507,1,0,1:0:0:0:
256,192,98596,1,0,1:0:0:0:
256,192,98685,1,8,1:0:0:0:
256,192,98864,1,0,1:0:0:0:
256,192,99042,1,8,1:0:0:0:
256,192,99221,1,8,1:0:0:0:
256,192,99310,1,8,1:0:0:0:
256,192,99400,1,0,1:0:0:0:
256,192,99578,1,0,1:0:0:0:
256,192,99757,1,8,1:0:0:0:
256,192,99935,1,8,1:0:0:0:
256,192,100114,1,4,1:0:0:0:
256,192,100292,1,0,1:0:0:0:
256,192,100471,1,8,1:0:0:0:
256,192,100560,1,8,1:0:0:0:
256,192,100650,1,0,1:0:0:0:
256,192,100828,1,8,1:0:0:0:
256,192,100917,1,0,1:0:0:0:
256,192,101007,1,8,1:0:0:0:
256,192,101096,1,8,1:0:0:0:
256,192,101185,1,0,1:0:0:0:
256,192,101364,1,8,1:0:0:0:
256,192,101542,1,0,1:0:0:0:
256,192,101810,1,0,1:0:0:0:
256,192,101900,1,8,1:0:0:0:
256,192,102078,1,8,1:0:0:0:
256,192,102167,1,0,1:0:0:0:
256,192,102257,1,8,1:0:0:0:
256,192,102435,1,0,1:0:0:0:
256,192,102614,1,8,1:0:0:0:
256,192,102792,1,0,1:0:0:0:
256,192,102971,1,8,1:0:0:0:
256,192,103060,1,0,1:0:0:0:
256,192,103150,1,8,1:0:0:0:
256,192,103239,1,0,1:0:0:0:
256,192,103328,1,0,1:0:0:0:
256,192,103507,1,8,1:0:0:0:
256,192,103596,1,0,1:0:0:0:
256,192,103685,1,0,1:0:0:0:
256,192,103864,1,0,1:0:0:0:
256,192,104042,1,8,1:0:0:0:
256,192,104132,1,8,1:0:0:0:
256,192,104221,1,0,1:0:0:0:
256,192,104400,1,8,1:0:0:0:
256,192,104578,1,0,1:0:0:0:
256,192,104757,1,12,1:0:0:0:
256,192,105114,1,12,1:0:0:0:
256,192,105471,1,12,1:0:0:0:
256,192,105650,1,0,1:0:0:0:
256,192,105828,1,8,1:0:0:0:
256,192,106007,1,0,1:0:0:0:
256,192,106096,1,0,1:0:0:0:
256,192,106185,1,8,1:0:0:0:
256,192,106364,1,8,1:0:0:0:
256,192,106453,1,0,1:0:0:0:
256,192,106542,1,8,1:0:0:0:
256,192,106721,1,0,1:0:0:0:
256,192,106900,1,8,1:0:0:0:
256,192,106989,1,8,1:0:0:0:
256,192,107078,1,8,1:0:0:0:
256,192,107167,1,8,1:0:0:0:
256,192,107257,1,8,1:0:0:0:
256,192,107435,1,8,1:0:0:0:
256,192,107614,1,0,1:0:0:0:
256,192,107792,1,8,1:0:0:0:
256,192,107971,1,8,1:0:0:0:
256,192,108060,1,8,1:0:0:0:
256,192,108150,1,0,1:0:0:0:
256,192,108328,1,8,1:0:0:0:
256,192,108685,1,8,1:0:0:0:
256,192,108775,1,8,1:0:0:0:
256,192,108864,1,0,1:0:0:0:
256,192,108953,1,0,1:0:0:0:
256,192,109042,1,8,1:0:0:0:
256,192,109221,1,8,1:0:0:0:
256,192,109310,1,8,1:0:0:0:
256,192,109400,1,0,1:0:0:0:
256,192,109578,1,0,1:0:0:0:
256,192,109757,1,8,1:0:0:0:
256,192,109846,1,0,1:0:0:0:
256,192,109935,1,8,1:0:0:0:
256,192,110114,1,0,1:0:0:0:
256,192,110203,1,0,1:0:0:0:
256,192,110292,1,0,1:0:0:0:
256,192,110382,1,0,1:0:0:0:
256,192,110471,1,8,1:0:0:0:
256,192,110650,1,0,1:0:0:0:
256,192,110828,1,8,1:0:0:0:
256,192,111007,1,8,1:0:0:0:
256,192,111185,1,0,1:0:0:0:
256,192,111364,1,8,1:0:0:0:
256,192,111542,1,4,1:0:0:0:
256,192,111900,1,12,1:0:0:0:
256,192,112257,1,4,1:0:0:0:
256,192,112614,1,0,1:0:0:0:
256,192,112792,1,8,1:0:0:0:
256,192,112971,1,0,1:0:0:0:
256,192,113060,1,0,1:0:0:0:
256,192,113150,1,8,1:0:0:0:
256,192,113328,1,0,1:0:0:0:
256,192,113417,1,8,1:0:0:0:
256,192,113507,1,8,1:0:0:0:
256,192,113685,1,8,1:0:0:0:
256,192,113864,1,0,1:0:0:0:
256,192,114042,1,12,1:0:0:0:
256,192,114221,1,0,1:0:0:0:
256,192,114400,1,12,1:0:0:0:
256,192,114578,1,0,1:0:0:0:
256,192,114935,1,8,1:0:0:0:
256,192,115114,1,0,1:0:0:0:
256,192,115292,1,8,1:0:0:0:
256,192,115382,1,8,1:0:0:0:
256,192,115471,1,0,1:0:0:0:
256,192,115560,1,0,1:0:0:0:
256,192,115650,1,8,1:0:0:0:
256,192,115828,1,0,1:0:0:0:
256,192,116007,1,0,1:0:0:0:
256,192,116185,1,8,1:0:0:0:
256,192,116275,1,8,1:0:0:0:
256,192,116364,1,0,1:0:0:0:
256,192,116542,1,12,1:0:0:0:
256,192,116721,1,0,1:0:0:0:
256,192,116900,1,4,1:0:0:0:
256,192,117257,1,4,1:0:0:0:
256,192,117435,1,8,1:0:0:0:
256,192,117525,1,8,1:0:0:0:
256,192,117614,1,0,1:0:0:0:
256,192,117792,1,8,1:0:0:0:
256,192,117882,1,0,1:0:0:0:
256,192,117971,1,0,1:0:0:0:
256,192,118150,1,0,1:0:0:0:
256,192,118328,1,8,1:0:0:0:
256,192,118417,1,8,1:0:0:0:
256,192,118507,1,0,1:0:0:0:
256,192,118685,1,8,1:0:0:0:
256,192,118864,1,8,1:0:0:0:
256,192,119042,1,0,1:0:0:0:
256,192,119132,1,0,1:0:0:0:
256,192,119221,1,0,1:0:0:0:
256,192,119310,1,0,1:0:0:0:
256,192,119400,1,8,1:0:0:0:
256,192,119578,1,8,1:0:0:0:
256,192,119757,1,0,1:0:0:0:
256,192,119846,1,0,1:0:0:0:
256,192,119935,1,8,1:0:0:0:
256,192,120025,1,8,1:0:0:0:
256,192,120114,1,8,1:0:0:0:
256,192,120292,1,0,1:0:0:0:
256,192,120471,1,8,1:0:0:0:
256,192,120650,1,0,1:0:0:0:
256,192,120739,1,8,1:0:0:0:
256,192,120828,1,8,1:0:0:0:
256,192,121007,1,8,1:0:0:0:
256,192,121185,1,0,1:0:0:0:
256,192,121275,1,0,1:0:0:0:
256,192,121364,1,8,1:0:0:0:
256,192,121453,1,8,1:0:0:0:
256,192,121542,1,0,1:0:0:0:
256,192,121721,1,0,1:0:0:0:
256,192,121900,1,8,1:0:0:0:
256,192,121989,1,0,1:0:0:0:
256,192,122078,1,8,1:0:0:0:
256,192,122167,1,8,1:0:0:0:
256,192,122257,1,0,1:0:0:0:
256,192,122435,1,8,1:0:0:0:
256,192,122525,1,8,1:0:0:0:
256,192,122614,1,0,1:0:0:0:
256,192,122703,1,0,1:0:0:0:
256,192,122792,1,8,1:0:0:0:
256,192,123664,1,4,1:0:0:0:
256,192,124010,1,0,1:0:0:0:
256,192,124184,1,8,1:0:0:0:
256,192,124270,1,0,1:0:0:0:
256,192,124357,1,8,1:0:0:0:
256,192,124531,1,0,1:0:0:0:
256,192,124704,1,8,1:0:0:0:
256,192,124877,1,8,1:0:0:0:
256,192,124964,1,8,1:0:0:0:
256,192,125051,1,0,1:0:0:0:
256,192,125224,1,8,1:0:0:0:
256,192,125311,1,8,1:0:0:0:
256,192,125398,1,0,1:0:0:0:
256,192,125571,1,8,1:0:0:0:
256,192,125744,1,0,1:0:0:0:
256,192,125918,1,8,1:0:0:0:
256,192,126091,1,0,1:0:0:0:
256,192,126178,1,0,1:0:0:0:
256,192,126265,1,8,1:0:0:0:
256,192,126438,1,4,1:0:0:0:
256,192,126771,1,0,1:0:0:0:
256,192,126938,1,8,1:0:0:0:
256,192,127021,1,0,1:0:0:0:
256,192,127104,1,8,1:0:0:0:
256,192,127271,1,0,1:0:0:0:
256,192,127438,1,8,1:0:0:0:
256,192,127604,1,8,1:0:0:0:
256,192,127688,1,8,1:0:0:0:
256,192,127771,1,0,1:0:0:0:
256,192,127938,1,8,1:0:0:0:
256,192,128104,1,0,1:0:0:0:
256,192,128188,1,8,1:0:0:0:
256,192,128271,1,0,1:0:0:0:
256,192,128438,1,8,1:0:0:0:
256,192,128604,1,0,1:0:0:0:
256,192,128688,1,0,1:0:0:0:
256,192,128771,1,8,1:0:0:0:
256,192,128854,1,8,1:0:0:0:
256,192,128938,1,8,1:0:0:0:
256,192,129104,1,4,1:0:0:0:
256,192,129419,1,8,1:0:0:0:
256,192,129498,1,8,1:0:0:0:
256,192,129577,1,0,1:0:0:0:
256,192,129735,1,8,1:0:0:0:
256,192,129893,1,0,1:0:0:0:
256,192,130051,1,8,1:0:0:0:
256,192,130130,1,0,1:0:0:0:
256,192,130209,1,8,1:0:0:0:
256,192,130367,1,4,1:0:0:0:
256,192,130682,1,0,1:0:0:0:
256,192,130761,1,0,1:0:0:0:
256,192,130840,1,8,1:0:0:0:
256,192,130998,1,0,1:0:0:0:
256,192,131156,1,8,1:0:0:0:
256,192,131235,1,8,1:0:0:0:
256,192,131314,1,0,1:0:0:0:
256,192,131393,1,0,1:0:0:0:
256,192,131472,1,8,1:0:0:0:
256,192,131630,1,4,1:0:0:0:
256,192,131930,1,0,1:0:0:0:
256,192,132005,1,0,1:0:0:0:
256,192,132080,1,8,1:0:0:0:
256,192,132230,1,0,1:0:0:0:
256,192,132380,1,8,1:0:0:0:
256,192,132455,1,8,1:0:0:0:
256,192,132530,1,0,1:0:0:0:
256,192,132680,1,8,1:0:0:0:
256,192,132830,1,0,1:0:0:0:
256,192,132905,1,0,1:0:0:0:
256,192,132980,1,8,1:0:0:0:
256,192,133055,1,8,1:0:0:0:
256,192,133130,1,0,1:0:0:0:
256,192,133280,1,8,1:0:0:0:
256,192,133355,1,8,1:0:0:0:
256,192,133430,1,0,1:0:0:0:
256,192,133608,1,8,1:0:0:0:
256,192,133787,1,0,1:0:0:0:
256,192,133965,1,8,1:0:0:0:
256,192,134144,12,0,136078,1:0:0:0:
