osu file format v14

[General]
AudioFilename: audio.mp3
AudioLeadIn: 0
PreviewTime: 28686
Countdown: 0
SampleSet: Soft
StackLeniency: 0.6
Mode: 0
LetterboxInBreaks: 0
WidescreenStoryboard: 1

[Editor]
Bookmarks:115,11543,17257,28686,40114,45829,55829,57257,68686,71543,74400,77257,88685,94400,100114,111542,117257,122971,123664,134144,136078
DistanceSpacing: 1
BeatDivisor: 2
GridSize: 4
TimelineZoom: 1.42

[Metadata]
Title:Gesui Meidoushite Nezumi Ippiki
TitleUnicode:下水鳴動して鼠一匹
Artist:O-SE
ArtistUnicode:O-SE
Creator:Skidooskei
Version:Normal
Source:G2R2018 Climax
Tags:mouse electronic tech q/stol BOFU2018 bms of fighters go back 2 your roots 2018 trap death a rat from sewer video game instrumental
BeatmapID:2362762
BeatmapSetID:1128544

[Difficulty]
HPDrainRate:4
CircleSize:3
OverallDifficulty:4
ApproachRate:5
SliderMultiplier:1.19999990463257
SliderTickRate:1

[Events]
//Background and Video events
0,0,"RatFromSewer.jpg",0,0
//Break Periods
2,11743,16057
2,40314,44629
2,77457,84628
//Storyboard Layer 0 (Background)
//Storyboard Layer 1 (Fail)
//Storyboard Layer 2 (Pass)
//Storyboard Layer 3 (Foreground)
//Storyboard Layer 4 (Overlay)
//Storyboard Sound Samples

[TimingPoints]
115,357.142857142857,4,2,1,60,1,0
115,-111.111111111111,4,2,1,60,0,0
11543,-111.111111111111,4,2,1,50,0,0
17257,-100,4,2,1,75,0,0
21543,-100,4,2,1,80,0,0
22972,-100,4,2,1,75,0,0
27257,-100,4,2,1,80,0,0
28328,-100,4,2,1,65,0,0
28686,-100,4,2,1,75,0,0
40114,-100,4,2,1,50,0,0
45829,-90.9090909090909,4,2,1,85,0,1
55829,-100,4,2,1,70,0,0
57257,-100,4,2,1,85,0,1
57436,-90.9090909090909,4,2,1,85,0,1
67972,-90.9090909090909,4,2,2,85,0,1
68328,-90.9090909090909,4,2,1,85,0,1
68686,-90.9090909090909,4,2,1,75,0,0
71543,357.142857142857,4,2,1,60,1,0
71543,-111.111111111111,4,2,1,60,0,0
74043,-111.111111111111,4,2,1,75,0,0
74400,-100,4,2,1,75,0,0
76900,-100,4,2,1,60,0,0
88685,-111.111111111111,4,2,1,60,0,0
100114,-100,4,2,1,80,0,1
110650,-100,4,2,1,80,0,0
111542,-83.3333333333333,4,2,1,90,0,1
122435,-83.3333333333333,4,2,1,80,0,1
122614,-83.3333333333333,4,2,1,70,0,1
122971,346.820809248555,4,2,1,70,1,0
123664,346.820809248555,4,2,1,75,1,0
126438,333.333333333333,4,2,1,75,1,0
129104,315.789473684211,4,2,1,80,1,0
131630,300,4,2,1,90,1,0
133430,357.142857142857,4,2,1,85,1,8
133608,-100,4,2,1,80,0,8
133787,-100,4,2,2,75,0,8
133965,-100,4,2,1,70,0,8
134144,357.142857142857,7,2,1,70,1,0
136078,357.142857142857,4,2,1,10,1,0

[Colours]
Combo1 : 199,250,84
Combo2 : 149,202,255
Combo3 : 255,255,128
Combo4 : 255,170,200

[HitObjects]
68,130,115,6,0,P|120:128|167:167,1,107.999988121033,0|2,1:0|2:0,2:0:0:0:
154,268,829,2,0,L|148:326,2,53.9999940605165,8|0|2,2:0|2:0|2:0,2:0:0:0:
253,227,1543,2,0,L|243:338,2,107.999988121033,0|2|8,1:0|2:0|2:0,2:0:0:0:
268,123,2614,1,2,2:0:0:0:
268,123,2972,6,0,P|324:120|366:159,1,107.999988121033,0|2,1:0|2:0,2:0:0:0:
403,251,3686,2,0,L|467:258,2,53.9999940605166,8|0|2,2:0|2:0|2:0,2:0:0:0:
304,296,4400,1,0,1:0:0:0:
213,237,4757,2,0,P|191:281|183:343,1,107.999988121033,8|0,2:0|1:0,2:0:0:0:
65,157,5829,6,0,P|107:125|166:130,1,107.999988121033,0|2,1:0|2:0,2:0:0:0:
261,165,6543,2,0,L|322:158,2,53.9999940605166,8|0|2,2:0|2:0|2:0,2:0:0:0:
243,271,7257,2,0,L|360:261,2,107.999988121033,0|2|8,1:0|2:0|2:0,2:0:0:0:
139,283,8329,1,2,2:0:0:0:
139,283,8686,6,0,B|128:222|172:237|160:168,1,107.999988121033,0|2,1:0|2:0,2:0:0:0:
96,94,9400,2,0,L|29:99,2,53.9999940605166,8|0|2,2:0|2:0|2:0,2:0:0:0:
203,88,10114,2,0,B|248:58|248:58|317:76,1,107.999988121033,0|8,1:0|2:0,2:0:0:0:
311,179,10829,2,0,B|363:193|363:193|408:163,2,107.999988121033,0|0|2,2:0|2:0|2:0,2:0:0:0:
118,138,17257,6,0,P|177:113|230:124,1,119.999990463257,4|2,2:0|2:0,2:0:0:0:
283,161,17793,1,8,2:0:0:0:
283,161,17972,1,8,2:0:0:0:
345,58,18329,1,2,2:0:0:0:
428,143,18686,2,0,L|416:262,1,119.999990463257,8|2,2:0|2:0,2:0:0:0:
391,317,19222,2,0,L|396:380,1,59.9999952316285,0|8,2:0|2:0,2:0:0:0:
304,299,19757,1,10,2:0:0:0:
202,362,20114,6,0,P|144:370|87:335,1,119.999990463257,8|2,2:0|2:0,2:0:0:0:
110,234,20829,2,0,P|123:207|146:184,2,59.9999952316285,8|0|10,2:0|2:0|2:0,2:0:0:0:
13,304,21543,2,0,L|1:174,1,119.999990463257,4|10,2:0|2:0,2:0:0:0:
66,83,22257,2,0,L|60:18,2,59.9999952316285,10|0|2,2:0|2:0|2:0,2:0:0:0:
77,146,22793,1,2,2:0:0:0:
77,146,22972,6,0,P|123:180|193:175,1,119.999990463257,8|2,2:0|2:0,2:0:0:0:
282,111,23686,2,0,L|270:237,1,119.999990463257,8|2,2:0|2:0,2:0:0:0:
238,282,24222,1,8,2:0:0:0:
238,282,24400,2,0,L|358:293,1,119.999990463257,8|2,2:0|2:0,2:0:0:0:
387,345,24936,2,0,L|458:339,1,59.9999952316285,8|8,2:0|2:0,2:0:0:0:
504,234,25472,1,10,2:0:0:0:
416,152,25829,6,0,P|405:86|429:35,1,119.999990463257,2|2,2:0|2:0,2:0:0:0:
306,22,26543,2,0,P|317:88|293:139,1,119.999990463257,2|2,2:0|2:0,2:0:0:0:
223,230,27257,6,0,L|163:236,1,59.9999952316285,0|0,1:0|2:0,2:0:0:0:
125,282,27614,2,0,L|65:276,1,59.9999952316285,0|10,1:0|2:0,2:0:0:0:
17,311,27972,1,8,2:1:0:0:
17,311,28150,2,0,P|11:340|15:381,1,59.9999952316285,8|2,2:1|2:0,2:0:0:0:
132,377,28686,6,0,P|188:342|252:346,1,119.999990463257,4|8,2:0|2:1,2:0:0:0:
298,320,29222,1,2,2:0:0:0:
298,320,29400,2,0,P|326:328|358:327,1,59.9999952316285,0|2,1:0|2:0,2:0:0:0:
399,217,29936,1,2,2:0:0:0:
399,217,30114,2,0,P|372:203|285:208,1,119.999990463257,0|8,1:0|2:1,2:0:0:0:
210,113,30829,2,0,L|217:51,2,59.9999952316285,0|8|8,1:0|2:0|2:1,2:0:0:0:
206,176,31364,1,2,2:0:0:0:
206,176,31543,6,0,L|86:164,1,119.999990463257,0|8,1:0|2:1,2:0:0:0:
31,159,32079,1,2,2:0:0:0:
31,159,32257,2,0,L|28:223,1,59.9999952316285,0|2,1:0|2:0,2:0:0:0:
147,255,32793,1,2,2:0:0:0:
147,255,32972,2,0,P|156:292|156:319,1,59.9999952316285,0|8,1:0|2:0,2:0:0:0:
200,354,33329,2,0,P|237:345|264:344,1,59.9999952316285,8|8,2:1|2:0,2:0:0:0:
314,365,33686,2,0,P|365:342|442:344,1,119.999990463257,0|8,1:0|2:1,2:0:0:0:
336,263,34400,6,0,B|323:167|391:201|381:93,1,179.999985694886,0|2,1:0|2:0,2:0:0:0:
325,72,35114,2,0,P|324:42|340:7,2,59.9999952316285,0|10|8,1:0|2:0|2:1,2:0:0:0:
221,132,35829,2,0,P|172:87|115:88,1,119.999990463257,0|8,1:0|2:1,2:0:0:0:
97,203,36543,2,0,L|171:209,2,59.9999952316285,0|8|8,1:0|2:0|2:1,2:0:0:0:
41,201,37079,1,2,2:0:0:0:
41,201,37257,6,0,P|40:225|50:270,1,59.9999952316285,0|2,1:0|2:0,2:0:0:0:
54,319,37614,2,0,P|101:302|173:298,1,119.999990463257,8|0,2:1|1:0,2:0:0:0:
218,342,38150,1,2,2:0:0:0:
218,342,38329,2,0,P|249:352|280:352,1,59.9999952316285,8|2,2:1|2:0,2:0:0:0:
325,318,38686,2,0,L|314:192,1,119.999990463257,0|8,1:0|2:0,2:0:0:0:
245,109,39400,2,0,L|183:117,2,59.9999952316285,0|2|0,1:0|2:0|1:0,2:0:0:0:
308,105,39936,1,8,2:0:0:0:
308,105,40114,1,2,2:0:0:0:
82,142,45829,6,0,B|132:137|132:137|160:147|160:147|211:142,1,131.999993537903,4|8,2:1|2:1,2:0:0:0:
276,119,46364,1,2,2:0:0:0:
276,119,46543,2,0,B|292:147|292:147|295:188,1,65.9999967689514,0|2,1:0|2:0,2:0:0:0:
281,245,46900,1,8,2:1:0:0:
407,205,47257,2,0,L|390:342,1,131.999993537903,0|8,1:0|2:1,2:0:0:0:
333,369,47793,1,2,2:0:0:0:
273,340,47972,2,0,L|209:328,2,65.9999967689514,0|2|8,1:0|2:0|2:1,2:0:0:0:
324,210,48686,6,0,L|191:189,1,131.999993537903,0|8,1:0|2:1,2:0:0:0:
119,298,49400,2,0,B|89:309|89:309|52:304,1,65.9999967689514,0|2,1:0|2:0,2:0:0:0:
6,260,49757,2,0,B|-5:230|-5:230|0:193,1,65.9999967689514,8|2,2:1|2:0,2:0:0:0:
14,131,50114,1,0,1:0:0:0:
116,214,50472,1,8,2:1:0:0:
188,103,50829,2,0,L|184:35,2,65.9999967689514,0|2|8,1:0|2:0|2:1,2:0:0:0:
278,198,51543,6,0,B|334:193|334:193|353:183|353:183|408:178,1,131.999993537903,0|8,1:0|2:1,2:0:0:0:
459,227,52079,1,2,2:0:0:0:
459,227,52257,2,0,B|465:261|465:261|459:295,1,65.9999967689514,0|2,1:0|2:0,2:0:0:0:
419,344,52614,1,8,2:1:0:0:
293,303,52972,2,0,L|159:319,1,131.999993537903,0|8,1:0|2:1,2:0:0:0:
101,345,53507,1,2,2:0:0:0:
66,288,53686,2,0,L|0:295,2,65.9999967689514,0|2|8,1:0|2:0|2:1,2:0:0:0:
155,190,54400,6,0,L|149:115,2,65.9999967689514,0|2|8,1:0|2:0|2:1,2:0:0:0:
262,113,55114,2,0,L|267:178,2,65.9999967689514,0|2|8,1:0|2:0|2:1,2:0:0:0:
379,86,55829,6,0,B|344:115|339:143|363:324,1,239.999980926514,8|10,2:0|2:0,2:0:0:0:
102,309,57257,5,4,2:1:0:0:
102,309,57436,2,0,B|135:316|135:316|173:305,1,65.9999967689514,2|8,2:0|2:1,2:0:0:0:
216,350,57793,2,0,B|278:328|278:328|343:356,1,131.999993537903,2|0,2:0|1:0,2:0:0:0:
371,296,58329,1,8,2:1:0:0:
360,231,58507,1,4,2:0:0:0:
480,73,59043,2,0,P|446:64|408:65,1,65.9999967689514,8|8,2:1|2:0,2:0:0:0:
358,96,59400,2,0,L|281:91,1,65.9999967689514,0|0,1:0|1:0,2:0:0:0:
231,129,59757,1,8,2:1:0:0:
231,129,59936,6,0,B|171:129|171:129|154:134|154:134|99:134,1,131.999993537903,2|2,2:0|2:0,2:0:0:0:
29,245,60650,2,0,B|53:225|53:225|155:225,1,131.999993537903,2|2,2:0|2:0,2:0:0:0:
212,254,61186,1,8,2:1:0:0:
266,226,61364,1,2,2:0:0:0:
388,276,61722,2,0,P|376:240|378:203,1,65.9999967689514,2|8,2:0|2:1,2:0:0:0:
435,183,62079,2,0,P|504:130|440:71,1,197.999990306854,2|8,2:0|2:1,2:0:0:0:
308,57,62972,6,0,P|276:44|236:44,1,65.9999967689514,4|2,2:0|2:0,2:0:0:0:
184,62,63329,2,0,P|157:83|137:117,1,65.9999967689514,8|10,2:1|2:0,2:0:0:0:
159,172,63686,2,0,B|178:208|178:208|167:306,1,131.999993537903,0|8,1:0|2:1,2:0:0:0:
286,356,64400,2,0,B|267:320|267:320|278:222,1,131.999993537903,0|8,1:0|2:1,2:0:0:0:
337,198,64936,1,0,2:0:0:0:
337,198,65114,2,0,L|344:129,1,65.9999967689514,0|8,1:0|2:0,2:0:0:0:
216,167,65650,6,0,B|153:181|153:181|94:149,1,131.999993537903,4|4,2:0|2:3,2:0:0:0:
111,18,66364,2,0,B|175:3|175:3|234:35,1,131.999993537903,4|4,2:0|2:3,2:0:0:0:
290,68,66900,1,8,2:1:0:0:
413,20,67257,6,0,B|423:76|477:95|477:95|410:139|428:238|428:238|402:260|402:260|418:281|418:281|405:294|405:294|412:307|412:307|405:316|405:316|408:325|408:325|405:330|405:330|407:335|407:335|405:339,1,395.999980613708,4|8,2:0|2:0,2:0:0:0:
306,270,68686,1,0,1:0:0:0:
119,273,71543,6,0,P|136:222|114:161,1,107.999988121033,2|0,2:0|2:0,2:0:0:0:
83,70,72257,2,0,B|168:63|137:125|236:113,1,161.99998218155,2|0,2:0|2:0,2:0:0:0:
275,81,72971,2,0,P|281:55|282:28,2,53.9999940605166,2|0|2,2:0|2:0|2:0,2:0:0:0:
323,177,73685,1,2,2:0:0:0:
224,222,74043,1,0,1:0:0:0:
273,331,74400,6,0,P|319:288|377:301,1,119.999990463257,4|8,2:0|2:1,2:0:0:0:
408,350,74935,1,0,1:0:0:0:
408,350,75114,2,0,P|466:357|507:315,1,119.999990463257,8|8,2:1|2:1,2:0:0:0:
500,260,75650,1,0,1:0:0:0:
500,260,75828,2,0,L|492:199,1,59.9999952316285,0|2,1:0|2:0,2:0:0:0:
450,157,76185,2,0,L|458:96,1,59.9999952316285,8|2,2:1|2:0,2:0:0:0:
469,38,76543,1,0,1:0:0:0:
362,93,76900,1,8,2:1:0:0:
248,53,77257,1,2,2:0:0:0:
256,192,85828,12,2,87793,2:0:0:0:
112,247,88685,6,0,L|103:138,2,107.999988121033,2|0|8,2:0|2:0|2:0,2:0:0:0:
125,354,89757,1,8,2:0:0:0:
204,282,90114,2,0,P|251:257|302:268,1,107.999988121033,2|2,2:0|2:0,2:0:0:0:
372,350,90828,2,0,P|423:360|470:336,1,107.999988121033,8|2,2:0|2:0,2:0:0:0:
407,248,91543,6,0,L|423:26,1,215.999976242066,2|8,2:0|2:0,2:0:0:0:
322,74,92614,1,8,2:0:0:0:
315,181,92971,2,0,L|306:300,2,107.999988121033,2|0|8,2:0|2:0|2:0,2:0:0:0:
127,72,94400,5,2,2:0:0:0:
97,286,95114,1,8,2:0:0:0:
311,316,95828,1,2,2:0:0:0:
341,102,96542,1,8,2:0:0:0:
180,246,97257,6,0,L|169:353,2,107.999988121033,2|2|2,2:0|2:0|2:0,2:0:0:0:
101,171,98328,1,10,2:0:0:0:
111,63,98685,2,0,P|169:37|276:129,1,215.999976242066,2|8,2:0|2:0,2:0:0:0:
356,195,99757,2,0,L|422:186,1,53.9999940605166,8|2,2:0|2:0,2:0:0:0:
468,177,100114,6,0,B|486:211|486:211|479:298,1,119.999990463257,4|8,2:1|2:1,2:0:0:0:
446,343,100650,1,2,2:0:0:0:
446,343,100828,1,0,1:0:0:0:
332,304,101185,2,0,L|268:312,1,59.9999952316285,8|2,2:1|2:0,2:0:0:0:
227,351,101542,2,0,L|97:332,1,119.999990463257,0|8,1:0|2:1,2:0:0:0:
22,249,102257,2,0,P|22:215|28:188,1,59.9999952316285,0|2,1:0|2:0,2:0:0:0:
58,137,102614,1,8,2:1:0:0:
164,192,102971,6,0,L|172:256,2,59.9999952316285,0|2|8,1:0|2:0|2:1,2:0:0:0:
243,102,103685,2,0,L|370:115,1,119.999990463257,0|8,1:0|2:1,2:0:0:0:
416,87,104221,1,2,2:0:0:0:
471,110,104400,2,0,P|489:140|495:169,1,59.9999952316285,0|2,1:0|2:0,2:0:0:0:
489,224,104757,2,0,P|442:256|378:246,1,119.999990463257,8|0,2:1|1:0,2:0:0:0:
282,314,105471,2,0,P|252:302|220:297,1,59.9999952316285,8|2,2:1|2:0,2:0:0:0:
165,303,105828,6,0,L|175:173,1,119.999990463257,0|8,1:0|2:1,2:0:0:0:
132,70,106542,2,0,P|76:69|42:118,1,119.999990463257,0|8,1:0|2:1,2:0:0:0:
68,235,107257,2,0,P|39:232|5:236,2,59.9999952316285,0|2|8,1:0|2:0|2:1,2:0:0:0:
113,274,107792,1,2,2:0:0:0:
154,317,107971,2,0,P|208:331|266:300,1,119.999990463257,0|8,1:0|2:1,2:0:0:0:
283,185,108685,6,0,L|349:192,1,59.9999952316285,0|2,1:0|2:0,2:0:0:0:
381,237,109042,2,0,L|447:244,1,59.9999952316285,8|10,2:1|2:0,2:0:0:0:
495,218,109400,2,0,P|517:157|503:104,1,119.999990463257,0|8,1:0|2:1,2:0:0:0:
400,43,110114,2,0,L|339:50,1,59.9999952316285,0|2,1:0|2:0,2:0:0:0:
290,82,110471,2,0,P|262:77|221:79,2,59.9999952316285,8|2|0,2:1|2:0|1:0,2:0:0:0:
318,141,111007,1,8,2:1:0:0:
318,141,111185,1,8,2:1:0:0:
182,190,111542,6,0,B|115:196|115:196|105:205|105:205|41:210,2,143.999984161378,4|8|0,2:1|2:1|1:0,2:0:0:0:
299,292,112614,1,8,2:1:0:0:
299,292,112792,1,2,2:0:0:0:
299,292,112971,2,0,P|322:326|330:367,2,71.9999920806888,0|2|8,1:0|2:0|2:1,2:0:0:0:
192,195,113685,2,0,L|120:182,1,71.9999920806888,0|2,1:0|2:0,2:0:0:0:
50,169,114042,2,0,L|63:97,1,71.9999920806888,8|2,2:1|2:0,2:0:0:0:
115,48,114400,5,0,1:0:0:0:
115,48,114578,2,0,B|198:56|146:110|253:121,1,143.999984161378,2|2,2:0|2:0,2:0:0:0:
302,95,115114,2,0,P|317:61|319:20,2,71.9999920806888,0|2|8,1:0|2:0|2:1,2:0:0:0:
222,214,115828,2,0,L|366:233,1,143.999984161378,0|8,1:0|2:1,2:0:0:0:
439,250,116364,1,2,2:0:0:0:
439,250,116542,2,0,P|440:289|430:322,1,71.9999920806888,0|2,1:0|2:0,2:0:0:0:
368,358,116900,1,8,2:1:0:0:
227,328,117257,6,0,L|233:256,1,71.9999920806888,4|10,2:1|2:0,2:0:0:0:
175,212,117614,2,0,L|182:135,1,71.9999920806888,8|2,2:1|2:0,2:0:0:0:
190,68,117971,2,0,B|262:78|262:78|268:74|268:74|334:83,1,143.999984161378,0|8,1:0|2:1,2:0:0:0:
454,177,118685,1,0,1:0:0:0:
454,177,118864,1,2,2:0:0:0:
454,177,119042,2,0,P|392:162|327:206,1,143.999984161378,8|0,2:1|1:0,2:0:0:0:
268,241,119578,1,2,2:0:0:0:
268,241,119757,2,0,P|229:246|194:235,1,71.9999920806888,8|8,2:1|2:0,2:0:0:0:
166,172,120114,6,0,L|174:326,1,143.999984161378,12|8,2:0|2:1,2:0:0:0:
51,238,120828,2,0,P|61:199|60:164,1,71.9999920806888,8|8,2:1|2:1,2:0:0:0:
11,114,121185,2,0,P|0:75|1:40,1,71.9999920806888,8|8,2:1|2:1,2:0:0:0:
68,18,121542,2,0,B|147:19|106:70|200:71,1,143.999984161378,8|8,2:1|2:1,2:0:0:0:
260,38,122078,1,8,2:1:0:0:
327,63,122257,2,0,P|345:93|351:132,1,71.9999920806888,8|8,2:1|2:0,2:0:0:0:
318,193,122614,2,0,P|288:211|249:217,1,71.9999920806888,8|2,2:1|2:0,2:0:0:0:
2,71,123664,6,0,B|39:96|39:96|122:83,1,119.999990463257,4|8,2:0|2:1,2:0:0:0:
231,63,124357,2,0,L|220:185,1,119.999990463257,0|8,1:0|2:1,2:0:0:0:
186,232,124877,1,2,2:0:0:0:
186,232,125051,2,0,L|50:213,1,119.999990463257,0|8,1:0|2:1,2:0:0:0:
49,334,125744,2,0,L|185:353,1,119.999990463257,0|8,1:0|2:1,2:0:0:0:
224,324,126265,1,10,2:0:0:0:
224,324,126438,6,0,P|262:281|324:276,1,119.999990463257,0|8,1:0|2:1,2:0:0:0:
419,293,127104,2,0,P|417:333|425:369,2,59.9999952316285,0|2|8,1:0|2:0|2:1,2:0:0:0:
462,251,127604,1,2,2:0:0:0:
462,251,127771,2,0,P|467:184|439:140,1,119.999990463257,0|8,1:0|2:1,2:0:0:0:
346,65,128438,2,0,P|311:66|285:76,1,59.9999952316285,0|2,1:0|2:0,2:0:0:0:
234,101,128771,2,0,P|199:100|173:90,1,59.9999952316285,8|10,2:1|2:0,2:0:0:0:
124,53,129104,6,0,B|133:125|97:107|105:175,1,119.999990463257,4|8,2:0|2:1,2:0:0:0:
158,276,129735,2,0,P|229:286|286:261,1,119.999990463257,0|8,1:0|2:1,2:0:0:0:
373,202,130367,2,0,L|364:327,1,119.999990463257,4|8,2:0|2:1,2:0:0:0:
415,362,130840,1,10,2:0:0:0:
415,362,130998,1,0,1:0:0:0:
508,286,131314,2,0,L|506:216,1,59.9999952316285,8|10,2:1|2:0,2:0:0:0:
457,185,131630,6,0,B|461:151|461:151|454:113|454:113|460:63,1,119.999990463257,4|8,2:0|2:1,2:0:0:0:
339,79,132230,2,0,B|335:113|335:113|342:151|342:151|336:201,1,119.999990463257,4|8,2:0|2:1,2:0:0:0:
222,158,132830,2,0,B|192:152|192:152|159:155,1,59.9999952316285,4|8,2:1|2:1,2:0:0:0:
108,181,133130,2,0,B|102:211|102:211|105:244,1,59.9999952316285,8|8,2:1|2:1,2:0:0:0:
66,286,133430,6,0,L|-1:275,2,59.9999952316285,2|4|4,2:3|2:3|2:3,2:0:0:0:
105,330,133965,1,10,2:0:0:0:
256,192,134144,12,0,136078,2:0:0:0:
