osu file format v14

[General]
AudioFilename: audio.mp3
AudioLeadIn: 0
PreviewTime: 28686
Countdown: 0
SampleSet: Normal
StackLeniency: 0
Mode: 1
LetterboxInBreaks: 0
WidescreenStoryboard: 1

[Editor]
Bookmarks: 115,11543,17257,28686,40114,45829,55829,57257,68686,71543,74400,77257,88685,94400,100114,111542,117257,122971,123664,134144,136078
DistanceSpacing: 2
BeatDivisor: 4
GridSize: 32
TimelineZoom: 2.319999

[Metadata]
Title:Gesui Meidoushite Nezumi Ippiki
TitleUnicode:下水鳴動して鼠一匹
Artist:O-SE
ArtistUnicode:O-SE
Creator:Skidooskei
Version:Muzukashii
Source:G2R2018 Climax
Tags:mouse electronic tech q/stol BOFU2018 bms of fighters go back 2 your roots 2018 trap death a rat from sewer video game instrumental
BeatmapID:4121541
BeatmapSetID:1128544

[Difficulty]
HPDrainRate:6
CircleSize:2
OverallDifficulty:5
ApproachRate:9
SliderMultiplier:1.4
SliderTickRate:1

[Events]
//Background and Video events
0,0,"RatFromSewer.jpg",0,0
//Break Periods
//Storyboard Layer 0 (Background)
//Storyboard Layer 1 (Fail)
//Storyboard Layer 2 (Pass)
//Storyboard Layer 3 (Foreground)
//Storyboard Layer 4 (Overlay)
//Storyboard Sound Samples

[TimingPoints]
115,357.142857142857,4,1,0,50,1,0
11543,-100,4,1,0,40,0,0
16722,-100,4,1,0,60,0,0
17257,-100,4,1,0,90,0,0
21543,-100,4,1,0,95,0,0
22972,-100,4,1,0,90,0,0
25829,-100,4,1,0,95,0,0
26004,-99.0126469935656,4,1,0,95,0,0
26094,-98.5208080362071,4,1,0,95,0,0
26183,-98.0392156862745,4,1,0,95,0,0
26540,-96.1538461538461,4,1,0,95,0,0
26719,-95.2355546070533,4,1,0,95,0,0
26808,-94.785471537808,4,1,0,95,0,0
26897,-94.3396226415094,4,1,0,95,0,0
27076,-93.455497382199,4,1,0,95,0,0
27257,-92.5925925925926,4,1,0,100,0,0
27433,-91.7407616796012,4,1,0,100,0,0
27611,-90.9090909090909,4,1,0,100,0,0
27969,-90.9090909090909,4,1,0,100,0,0
28058,-91.9510624597553,4,1,0,100,0,0
28147,-93.0171964564877,4,1,0,100,0,0
28329,-95.2380952380952,4,1,0,90,0,0
28504,-97.5543106981828,4,1,0,90,0,0
28683,-100,4,1,0,90,0,0
28686,-100,4,1,0,85,0,0
38861,-101.262232307474,4,1,0,85,0,0
39040,-102.564102564103,4,1,0,85,0,0
39219,-103.899883585565,4,1,0,85,0,0
39397,-105.263157894737,4,1,0,85,0,0
39486,-105.958299324776,4,1,0,85,0,0
39576,-106.670650631209,4,1,0,85,0,0
39754,-108.108108108108,4,1,0,85,0,0
39844,-108.849759890236,4,1,0,85,0,0
39933,-109.593246354566,4,1,0,85,0,0
40111,-111.111111111111,4,1,0,85,0,0
40114,-111.111111111111,4,1,0,50,0,0
45829,-90.9090909090909,4,1,0,95,0,1
55829,-90.9090909090909,4,1,0,70,0,0
56543,-100,4,1,0,70,0,0
57257,-100,4,1,0,90,0,1
58329,-100,4,1,0,95,0,1
59043,-100,4,1,0,90,0,1
65650,-100,4,1,0,95,0,1
66007,-100,4,1,0,90,0,1
66364,-100,4,1,0,95,0,1
66722,-100,4,1,0,90,0,1
68686,-100,4,1,0,80,0,0
70114,-100,4,1,0,50,0,0
71543,357.142857142857,4,1,0,60,1,0
74043,-100,4,1,0,85,0,0
75736,-100.556911332207,4,1,0,85,0,0
75825,-101.120060407752,4,1,0,85,0,0
76004,-102.272004073061,4,1,0,85,0,0
76182,-103.44383649823,4,1,0,85,0,0
76361,-104.649648345923,4,1,0,85,0,0
76450,-105.259710486671,4,1,0,85,0,0
76540,-105.883903274692,4,1,0,85,0,0
76718,-107.140476031735,4,1,0,85,0,0
76897,-108.434547908232,4,1,0,85,0,0
76986,-109.089674835381,4,1,0,85,0,0
77075,-109.752766015572,4,1,0,85,0,0
77254,-111.111111111111,4,1,0,85,0,0
87793,-111.111111111111,4,1,0,70,0,0
94754,-109.966032543325,4,1,0,70,0,0
95111,-108.844314913233,4,1,0,70,0,0
95468,-107.745250553906,4,1,0,70,0,0
95828,-106.668160095579,4,1,0,75,0,0
96182,-105.612391065273,4,1,0,75,0,0
96539,-104.577316568751,4,1,0,75,0,0
96897,-103.559518631289,4,1,0,75,0,0
97257,-102.564102564103,4,1,0,80,0,0
97432,-102.074903757693,4,1,0,80,0,0
97611,-101.587640229701,4,1,0,80,0,0
97789,-101.107690129879,4,1,0,80,0,0
97879,-100.866740807428,4,1,0,80,0,0
97968,-100.629595385902,4,1,0,80,0,0
98147,-100.15600077124,4,1,0,80,0,0
98325,-99.6894518301406,4,1,0,80,0,0
98414,-99.4578035386369,4,1,0,80,0,0
98504,-99.2246446649823,4,1,0,80,0,0
98682,-98.7667124720198,4,1,0,80,0,0
98861,-98.3104504318502,4,1,0,80,0,0
99039,-97.8608984569011,4,1,0,80,0,0
99397,-96.9690798628789,4,1,0,80,0,0
99575,-96.5316844897201,4,1,0,80,0,0
99754,-96.0957930761922,4,1,0,80,0,0
99932,-95.6662229923738,4,1,0,80,0,0
100114,-95.2380952380952,4,1,0,90,0,1
110650,-95.2380952380952,4,1,0,90,0,0
111542,-95.2380952380952,4,1,0,90,0,1
117257,-95.2380952380952,4,1,0,100,0,1
117432,-94.9563772330702,4,1,0,100,0,1
117522,-94.8145689869742,4,1,0,100,0,1
117611,-94.674752294794,4,1,0,100,0,1
117789,-94.3963523425626,4,1,0,100,0,1
117968,-94.1180346230502,4,1,0,100,0,1
118057,-93.9802631578947,4,1,0,100,0,1
118147,-93.841353259977,4,1,0,100,0,1
118325,-93.5678260299993,4,1,0,100,0,1
118504,-93.2943654383072,4,1,0,100,0,1
118682,-93.024013024013,4,1,0,100,0,1
119039,-92.4864847366547,4,1,0,100,0,1
119129,-92.351952417895,4,1,0,100,0,1
119218,-92.2192992366166,4,1,0,100,0,1
119397,-91.9536530415191,4,1,0,100,0,1
119575,-91.6910042042427,4,1,0,100,0,1
119754,-91.428388562651,4,1,0,100,0,1
119843,-91.2983734381491,4,1,0,100,0,1
119932,-91.1687275628241,4,1,0,100,0,1
120111,-90.9090909090909,4,1,0,100,0,1
122971,346.820809248555,4,1,0,100,1,8
123664,346.820809248555,4,1,0,80,1,0
124181,-99.4358863093947,4,1,0,80,0,0
124354,-99.249618312345,4,1,0,80,0,0
124528,-99.0629762123488,4,1,0,80,0,0
124701,-98.8781014023732,4,1,0,80,0,0
124874,-98.6939153467639,4,1,0,80,0,0
124961,-98.6015490533563,4,1,0,80,0,0
125048,-98.5093554870119,4,1,0,80,0,0
125395,-98.143349679851,4,1,0,80,0,0
125568,-97.9618882725747,4,1,0,80,0,0
125655,-97.870886454396,4,1,0,80,0,0
125741,-97.7810966503094,4,1,0,80,0,0
125915,-97.5999318525459,4,1,0,80,0,0
126088,-97.4204725413713,4,1,0,80,0,0
126262,-97.2406403496674,4,1,0,80,0,0
126438,333.333333333333,4,1,0,85,1,0
126438,-100.989883015829,4,1,0,85,0,0
126935,-100.457987788535,4,1,0,85,0,0
127018,-100.370234933925,4,1,0,85,0,0
127101,-100.282635254645,4,1,0,85,0,0
127268,-100.106843006674,4,1,0,85,0,0
127435,-99.9316659965712,4,1,0,85,0,0
127601,-99.7581444844851,4,1,0,85,0,0
127768,-99.5841846639947,4,1,0,85,0,0
128101,-99.2391114746803,4,1,0,85,0,0
128268,-99.0669555789292,4,1,0,85,0,0
128435,-98.8953959466244,4,1,0,85,0,0
128601,-98.7254514773993,4,1,0,85,0,0
128768,-98.5550715917283,4,1,0,85,0,0
128851,-98.4706103532966,4,1,0,85,0,0
128935,-98.3852787743906,4,1,0,85,0,0
129104,315.789473684211,4,1,0,90,1,0
129104,-103.673586017633,4,1,0,90,0,0
129574,-103.171012496409,4,1,0,90,0,0
129653,-103.08754764175,4,1,0,90,0,0
129732,-103.004217723262,4,1,0,90,0,0
129890,-102.837961388022,4,1,0,90,0,0
130048,-102.672240887657,4,1,0,90,0,0
130206,-102.507053635885,4,1,0,90,0,0
130364,-102.342397063043,4,1,0,90,0,0
130679,-102.015699571456,4,1,0,90,0,0
130837,-101.852616478936,4,1,0,90,0,0
130995,-101.690053966019,4,1,0,90,0,0
131153,-101.528009544055,4,1,0,90,0,0
131232,-101.44718084381,4,1,0,90,0,0
131311,-101.366480740229,4,1,0,90,0,0
131469,-101.20546509744,4,1,0,90,0,0
131630,300,4,1,0,95,1,0
131630,-106.363115972813,4,1,0,95,0,0
132077,-105.884845436543,4,1,0,95,0,0
132227,-105.726376308618,4,1,0,95,0,0
132527,-105.410856812243,4,1,0,95,0,0
132677,-105.253802216094,4,1,0,95,0,0
132830,-105.097214923805,4,1,0,100,0,0
133430,357.142857142857,4,1,0,100,1,8
133430,-88.2846296459786,4,1,0,100,0,8
134144,357.142857142857,7,1,0,50,1,0
134144,-88.2846296459786,7,1,0,50,0,0
136078,357.142857142857,4,1,0,50,1,8

[Colours]
Combo1 : 199,250,84
Combo2 : 149,202,255
Combo3 : 255,255,128
Combo4 : 255,170,200

[HitObjects]
256,192,115,5,8,1:0:0:0:
256,192,293,1,8,1:0:0:0:
256,192,472,1,0,1:0:0:0:
256,192,829,1,0,1:0:0:0:
256,192,1543,1,8,1:0:0:0:
256,192,1722,1,8,1:0:0:0:
256,192,1900,1,0,1:0:0:0:
256,192,2257,1,8,1:0:0:0:
256,192,2614,1,0,1:0:0:0:
256,192,2972,1,8,1:0:0:0:
256,192,3150,1,8,1:0:0:0:
256,192,3329,1,0,1:0:0:0:
256,192,3686,1,0,1:0:0:0:
256,192,4400,1,8,1:0:0:0:
256,192,4579,1,8,1:0:0:0:
256,192,4757,1,0,1:0:0:0:
256,192,4936,1,8,1:0:0:0:
256,192,5114,1,8,1:0:0:0:
256,192,5472,1,8,1:0:0:0:
256,192,5650,1,0,1:0:0:0:
256,192,5829,1,8,1:0:0:0:
256,192,6007,1,8,1:0:0:0:
256,192,6186,1,0,1:0:0:0:
256,192,6543,1,0,1:0:0:0:
256,192,7257,1,8,1:0:0:0:
256,192,7436,1,8,1:0:0:0:
256,192,7614,1,0,1:0:0:0:
256,192,7972,1,8,1:0:0:0:
256,192,8329,1,0,1:0:0:0:
256,192,8686,1,8,1:0:0:0:
256,192,8864,1,0,1:0:0:0:
256,192,9043,1,0,1:0:0:0:
256,192,9400,1,0,1:0:0:0:
256,192,10114,1,8,1:0:0:0:
256,192,10293,1,8,1:0:0:0:
256,192,10382,1,8,1:0:0:0:
256,192,10472,1,8,1:0:0:0:
256,192,10650,1,8,1:0:0:0:
256,192,10829,2,0,P|160:192|96:288,1,210,0|0,1:0|1:0,1:0:0:0:
256,192,11543,1,0,1:0:0:0:
256,192,11900,1,8,1:0:0:0:
256,192,12257,1,0,1:0:0:0:
256,192,12793,1,8,1:0:0:0:
256,192,12972,1,0,1:0:0:0:
256,192,13150,1,8,1:0:0:0:
256,192,13329,1,8,1:0:0:0:
256,192,13507,1,0,1:0:0:0:
256,192,13686,1,0,1:0:0:0:
256,192,13864,1,8,1:0:0:0:
256,192,14043,1,0,1:0:0:0:
256,192,14400,1,0,1:0:0:0:
256,192,14757,1,8,1:0:0:0:
256,192,15114,1,0,1:0:0:0:
256,192,15650,1,8,1:0:0:0:
256,192,15829,1,0,1:0:0:0:
256,192,16007,1,8,1:0:0:0:
256,192,16186,1,8,1:0:0:0:
256,192,16364,1,0,1:0:0:0:
256,192,16543,1,0,1:0:0:0:
256,192,16722,1,8,1:0:0:0:
256,192,16811,1,8,1:0:0:0:
256,192,16900,1,8,1:0:0:0:
256,192,17079,1,0,1:0:0:0:
256,192,17257,1,12,1:0:0:0:
256,192,17614,1,8,1:0:0:0:
256,192,17793,1,0,1:0:0:0:
256,192,17882,1,0,1:0:0:0:
256,192,17972,1,0,1:0:0:0:
256,192,18150,1,0,1:0:0:0:
256,192,18329,1,8,1:0:0:0:
256,192,18507,1,0,1:0:0:0:
256,192,18597,1,0,1:0:0:0:
256,192,18686,1,0,1:0:0:0:
256,192,18864,1,8,1:0:0:0:
256,192,19043,1,8,1:0:0:0:
256,192,19222,1,0,1:0:0:0:
256,192,19400,1,0,1:0:0:0:
256,192,19489,1,0,1:0:0:0:
256,192,19579,1,8,1:0:0:0:
256,192,19757,1,8,1:0:0:0:
256,192,19936,1,0,1:0:0:0:
256,192,20114,1,8,1:0:0:0:
256,192,20650,1,0,1:0:0:0:
256,192,20829,1,0,1:0:0:0:
256,192,21007,1,8,1:0:0:0:
256,192,21097,1,8,1:0:0:0:
256,192,21186,1,8,1:0:0:0:
256,192,21364,1,0,1:0:0:0:
256,192,21543,1,12,1:0:0:0:
256,192,21900,1,0,1:0:0:0:
256,192,22079,1,0,1:0:0:0:
256,192,22257,1,12,1:0:0:0:
256,192,22614,1,0,1:0:0:0:
256,192,22704,1,0,1:0:0:0:
256,192,22793,1,0,1:0:0:0:
256,192,22972,1,8,1:0:0:0:
256,192,23150,1,0,1:0:0:0:
256,192,23686,1,0,1:0:0:0:
256,192,23864,1,8,1:0:0:0:
256,192,23954,1,8,1:0:0:0:
256,192,24043,1,8,1:0:0:0:
256,192,24222,1,8,1:0:0:0:
256,192,24400,1,0,1:0:0:0:
256,192,24579,1,8,1:0:0:0:
256,192,24757,1,8,1:0:0:0:
256,192,24936,1,0,1:0:0:0:
256,192,25114,1,0,1:0:0:0:
256,192,25204,1,0,1:0:0:0:
256,192,25293,1,8,1:0:0:0:
256,192,25472,1,8,1:0:0:0:
256,192,25650,1,0,1:0:0:0:
256,192,25829,1,8,1:0:0:0:
256,192,26007,1,0,1:0:0:0:
256,192,26097,1,0,1:0:0:0:
256,192,26186,1,0,1:0:0:0:
256,192,26543,1,8,1:0:0:0:
256,192,26722,1,0,1:0:0:0:
256,192,26811,1,0,1:0:0:0:
256,192,26900,1,0,1:0:0:0:
256,192,27079,1,0,1:0:0:0:
256,192,27257,1,12,1:0:0:0:
256,192,27436,1,0,1:0:0:0:
256,192,27614,1,12,1:0:0:0:
256,192,27972,1,8,1:0:0:0:
256,192,28061,1,8,1:0:0:0:
256,192,28150,1,0,1:0:0:0:
256,192,28329,1,8,1:0:0:0:
256,192,28507,1,8,1:0:0:0:
256,192,28686,1,4,1:0:0:0:
256,192,29222,1,8,1:0:0:0:
256,192,29400,1,0,1:0:0:0:
256,192,29489,1,0,1:0:0:0:
256,192,29579,1,0,1:0:0:0:
256,192,29936,1,0,1:0:0:0:
256,192,30114,1,8,1:0:0:0:
256,192,30204,1,8,1:0:0:0:
256,192,30293,1,8,1:0:0:0:
256,192,30650,1,0,1:0:0:0:
256,192,30829,1,8,1:0:0:0:
256,192,30918,1,0,1:0:0:0:
256,192,31007,1,8,1:0:0:0:
256,192,31186,1,8,1:0:0:0:
256,192,31364,1,0,1:0:0:0:
256,192,31543,1,8,1:0:0:0:
256,192,31632,1,8,1:0:0:0:
256,192,31722,1,8,1:0:0:0:
256,192,32079,1,8,1:0:0:0:
256,192,32257,1,0,1:0:0:0:
256,192,32347,1,0,1:0:0:0:
256,192,32436,1,0,1:0:0:0:
256,192,32972,1,8,1:0:0:0:
256,192,33329,1,0,1:0:0:0:
256,192,33507,1,8,1:0:0:0:
256,192,33686,1,8,1:0:0:0:
256,192,34043,1,0,1:0:0:0:
256,192,34222,1,8,1:0:0:0:
256,192,34400,1,0,1:0:0:0:
256,192,34489,1,0,1:0:0:0:
256,192,34579,1,0,1:0:0:0:
256,192,34936,1,0,1:0:0:0:
256,192,35114,1,8,1:0:0:0:
256,192,35204,1,8,1:0:0:0:
256,192,35293,1,8,1:0:0:0:
256,192,35472,1,0,1:0:0:0:
256,192,35650,1,8,1:0:0:0:
256,192,35829,1,0,1:0:0:0:
256,192,35918,1,0,1:0:0:0:
256,192,36007,1,0,1:0:0:0:
256,192,36364,1,0,1:0:0:0:
256,192,36543,1,8,1:0:0:0:
256,192,36632,1,0,1:0:0:0:
256,192,36722,1,8,1:0:0:0:
256,192,36900,1,8,1:0:0:0:
256,192,37257,1,8,1:0:0:0:
256,192,37347,1,8,1:0:0:0:
256,192,37436,1,8,1:0:0:0:
256,192,37614,1,0,1:0:0:0:
256,192,37793,1,8,1:0:0:0:
256,192,37972,1,0,1:0:0:0:
256,192,38061,1,0,1:0:0:0:
256,192,38150,1,0,1:0:0:0:
256,192,38329,1,8,1:0:0:0:
256,192,38507,1,0,1:0:0:0:
256,192,38686,1,8,1:0:0:0:
256,192,38864,1,8,1:0:0:0:
256,192,39043,1,0,1:0:0:0:
256,192,39222,1,0,1:0:0:0:
256,192,39400,1,8,1:0:0:0:
256,192,39489,1,8,1:0:0:0:
256,192,39579,1,8,1:0:0:0:
256,192,39757,1,0,1:0:0:0:
256,192,39847,1,0,1:0:0:0:
256,192,39936,1,0,1:0:0:0:
256,192,40114,1,0,1:0:0:0:
256,192,40650,1,8,1:0:0:0:
256,192,41364,1,8,1:0:0:0:
256,192,41543,1,0,1:0:0:0:
256,192,41900,1,0,1:0:0:0:
256,192,42079,1,8,1:0:0:0:
256,192,42614,1,0,1:0:0:0:
256,192,42793,1,0,1:0:0:0:
256,192,42972,1,8,1:0:0:0:
256,192,43150,1,0,1:0:0:0:
256,192,43507,1,8,1:0:0:0:
256,192,44222,1,0,1:0:0:0:
256,192,44400,1,8,1:0:0:0:
256,192,44579,1,0,1:0:0:0:
256,192,44936,1,8,1:0:0:0:
256,192,45114,1,8,1:0:0:0:
256,192,45293,1,0,1:0:0:0:
256,192,45650,1,8,1:0:0:0:
256,192,45829,1,12,1:0:0:0:
256,192,46186,1,12,1:0:0:0:
256,192,46543,1,12,1:0:0:0:
256,192,46722,1,0,1:0:0:0:
256,192,46900,1,12,1:0:0:0:
256,192,47257,1,12,1:0:0:0:
256,192,47614,1,12,1:0:0:0:
256,192,47972,1,4,1:0:0:0:
256,192,48150,1,12,1:0:0:0:
256,192,48329,1,4,1:0:0:0:
256,192,48686,1,4,1:0:0:0:
256,192,49043,1,4,1:0:0:0:
256,192,49400,1,4,1:0:0:0:
256,192,49579,1,8,1:0:0:0:
256,192,49757,1,4,1:0:0:0:
256,192,50114,1,4,1:0:0:0:
256,192,50472,1,4,1:0:0:0:
256,192,50829,1,12,1:0:0:0:
256,192,51007,1,4,1:0:0:0:
256,192,51186,1,12,1:0:0:0:
256,192,51543,1,12,1:0:0:0:
256,192,51900,1,12,1:0:0:0:
256,192,52257,1,12,1:0:0:0:
256,192,52436,1,0,1:0:0:0:
256,192,52614,1,12,1:0:0:0:
256,192,52972,1,12,1:0:0:0:
256,192,53329,1,12,1:0:0:0:
256,192,53686,1,4,1:0:0:0:
256,192,53864,1,12,1:0:0:0:
256,192,54043,1,4,1:0:0:0:
256,192,54400,1,8,1:0:0:0:
256,192,55114,1,8,1:0:0:0:
256,192,55293,1,0,1:0:0:0:
256,192,55472,1,8,1:0:0:0:
256,192,55650,1,0,1:0:0:0:
256,192,55829,1,0,1:0:0:0:
256,192,56543,5,0,1:0:0:0:
256,192,56722,1,8,1:0:0:0:
256,192,56900,1,8,1:0:0:0:
256,192,57079,1,8,1:0:0:0:
256,192,57257,1,4,1:0:0:0:
256,192,57436,1,8,1:0:0:0:
256,192,57614,1,0,1:0:0:0:
256,192,57793,1,8,1:0:0:0:
256,192,57882,1,0,1:0:0:0:
256,192,57972,1,8,1:0:0:0:
256,192,58150,1,8,1:0:0:0:
256,192,58329,1,4,1:0:0:0:
256,192,58507,1,12,1:0:0:0:
256,192,59043,1,0,1:0:0:0:
256,192,59222,1,8,1:0:0:0:
256,192,59400,1,0,1:0:0:0:
256,192,59489,1,0,1:0:0:0:
256,192,59579,1,0,1:0:0:0:
256,192,59757,1,0,1:0:0:0:
256,192,59936,1,12,1:0:0:0:
256,192,60293,1,0,1:0:0:0:
256,192,60472,1,0,1:0:0:0:
256,192,60650,1,12,1:0:0:0:
256,192,61007,1,8,1:0:0:0:
256,192,61186,1,8,1:0:0:0:
256,192,61364,1,4,1:0:0:0:
256,192,61722,1,0,1:0:0:0:
256,192,61811,1,0,1:0:0:0:
256,192,61900,1,0,1:0:0:0:
256,192,62079,1,12,1:0:0:0:
256,192,62436,1,8,1:0:0:0:
256,192,62525,1,8,1:0:0:0:
256,192,62614,1,8,1:0:0:0:
256,192,62793,1,0,1:0:0:0:
256,192,62972,1,8,1:0:0:0:
256,192,63061,1,0,1:0:0:0:
256,192,63150,1,8,1:0:0:0:
256,192,63329,1,8,1:0:0:0:
256,192,63507,1,0,1:0:0:0:
256,192,64043,1,8,1:0:0:0:
256,192,64222,1,0,1:0:0:0:
256,192,64400,1,8,1:0:0:0:
256,192,64579,1,8,1:0:0:0:
256,192,64757,1,0,1:0:0:0:
256,192,64936,1,0,1:0:0:0:
256,192,65114,1,8,1:0:0:0:
256,192,65293,1,0,1:0:0:0:
256,192,65650,1,4,1:0:0:0:
256,192,66007,1,0,1:0:0:0:
256,192,66186,1,8,1:0:0:0:
256,192,66364,1,12,1:0:0:0:
256,192,66722,1,0,1:0:0:0:
256,192,66900,1,8,1:0:0:0:
256,192,67257,1,12,1:0:0:0:
256,192,67436,1,8,1:0:0:0:
256,192,67525,1,8,1:0:0:0:
256,192,67614,1,8,1:0:0:0:
256,192,67793,1,0,1:0:0:0:
256,192,67882,1,0,1:0:0:0:
256,192,67972,1,0,1:0:0:0:
256,192,68150,1,0,1:0:0:0:
256,192,68329,1,8,1:0:0:0:
256,192,68418,1,8,1:0:0:0:
256,192,68507,1,0,1:0:0:0:
256,192,68686,1,0,1:0:0:0:
256,192,69043,12,0,70114,1:0:0:0:
256,192,71543,5,0,1:0:0:0:
256,192,71900,1,8,1:0:0:0:
256,192,72257,1,8,1:0:0:0:
256,192,72793,1,8,1:0:0:0:
256,192,72971,1,0,1:0:0:0:
256,192,73150,1,8,1:0:0:0:
256,192,73328,1,8,1:0:0:0:
256,192,73507,1,0,1:0:0:0:
256,192,73685,1,0,1:0:0:0:
256,192,73864,1,8,1:0:0:0:
256,192,74043,1,4,1:0:0:0:
256,192,74221,1,0,1:0:0:0:
256,192,74400,1,12,1:0:0:0:
256,192,74757,1,12,1:0:0:0:
256,192,75114,1,12,1:0:0:0:
256,192,75471,1,8,1:0:0:0:
256,192,75650,1,0,1:0:0:0:
256,192,75739,1,0,1:0:0:0:
256,192,75828,1,8,1:0:0:0:
256,192,76007,1,0,1:0:0:0:
256,192,76185,1,8,1:0:0:0:
256,192,76364,1,0,1:0:0:0:
256,192,76453,1,0,1:0:0:0:
256,192,76543,1,0,1:0:0:0:
256,192,76721,1,8,1:0:0:0:
256,192,76900,1,0,1:0:0:0:
256,192,76989,1,0,1:0:0:0:
256,192,77078,1,0,1:0:0:0:
256,192,77257,1,8,1:0:0:0:
256,192,77971,1,0,1:0:0:0:
256,192,78685,1,8,1:0:0:0:
256,192,79043,1,0,1:0:0:0:
256,192,79221,1,0,1:0:0:0:
256,192,79400,1,8,1:0:0:0:
256,192,79578,1,0,1:0:0:0:
256,192,79757,1,0,1:0:0:0:
256,192,80114,1,8,1:0:0:0:
256,192,80828,1,0,1:0:0:0:
256,192,81185,1,0,1:0:0:0:
256,192,81364,1,0,1:0:0:0:
256,192,81543,1,8,1:0:0:0:
256,192,81721,1,0,1:0:0:0:
256,192,81900,1,8,1:0:0:0:
256,192,82257,1,8,1:0:0:0:
256,192,82614,1,8,1:0:0:0:
256,192,82793,1,0,1:0:0:0:
256,192,82971,1,8,1:0:0:0:
256,192,83328,1,8,1:0:0:0:
256,192,83507,1,8,1:0:0:0:
256,192,83685,1,0,1:0:0:0:
256,192,83864,2,0,L|256:352,1,157.499995193482,0|0,1:0|1:0,1:0:0:0:
256,192,84578,1,8,1:0:0:0:
256,192,84757,1,0,1:0:0:0:
256,192,84935,1,0,1:0:0:0:
256,192,85114,1,8,1:0:0:0:
256,192,85471,1,0,1:0:0:0:
256,192,85828,1,8,1:0:0:0:
256,192,86543,1,8,1:0:0:0:
256,192,87257,1,0,1:0:0:0:
256,192,87614,1,0,1:0:0:0:
256,192,87793,2,0,P|160:224|224:320,1,251.999992309571,0|0,1:0|1:0,1:0:0:0:
256,192,88685,1,0,1:0:0:0:
256,192,89043,1,8,1:0:0:0:
256,192,89400,1,0,1:0:0:0:
256,192,89757,1,0,1:0:0:0:
256,192,89935,1,0,1:0:0:0:
256,192,90114,1,8,1:0:0:0:
256,192,90293,1,8,1:0:0:0:
256,192,90471,1,0,1:0:0:0:
256,192,90650,1,8,1:0:0:0:
256,192,90828,1,8,1:0:0:0:
256,192,91007,1,0,1:0:0:0:
256,192,91185,1,8,1:0:0:0:
256,192,91364,1,8,1:0:0:0:
256,192,91543,1,8,1:0:0:0:
256,192,92078,1,8,1:0:0:0:
256,192,92257,1,0,1:0:0:0:
256,192,92971,1,0,1:0:0:0:
256,192,93507,1,0,1:0:0:0:
256,192,93685,1,8,1:0:0:0:
256,192,94042,1,0,1:0:0:0:
256,192,94400,1,0,1:0:0:0:
256,192,94757,1,8,1:0:0:0:
256,192,95114,1,0,1:0:0:0:
256,192,95471,1,8,1:0:0:0:
256,192,95828,1,0,1:0:0:0:
256,192,96185,1,8,1:0:0:0:
256,192,96542,1,0,1:0:0:0:
256,192,96900,1,8,1:0:0:0:
256,192,97257,1,8,1:0:0:0:
256,192,97435,1,0,1:0:0:0:
256,192,97614,1,8,1:0:0:0:
256,192,97792,1,0,1:0:0:0:
256,192,97882,1,0,1:0:0:0:
256,192,97971,1,0,1:0:0:0:
256,192,98150,1,0,1:0:0:0:
256,192,98328,1,8,1:0:0:0:
256,192,98417,1,8,1:0:0:0:
256,192,98507,1,8,1:0:0:0:
256,192,98685,1,8,1:0:0:0:
256,192,98864,1,0,1:0:0:0:
256,192,99042,1,8,1:0:0:0:
256,192,99400,1,0,1:0:0:0:
256,192,99578,1,0,1:0:0:0:
256,192,99757,1,8,1:0:0:0:
256,192,99935,1,8,1:0:0:0:
256,192,100114,1,4,1:0:0:0:
256,192,100471,1,8,1:0:0:0:
256,192,100560,1,8,1:0:0:0:
256,192,100650,1,8,1:0:0:0:
256,192,100828,1,0,1:0:0:0:
256,192,101007,1,8,1:0:0:0:
256,192,101185,1,0,1:0:0:0:
256,192,101275,1,0,1:0:0:0:
256,192,101364,1,0,1:0:0:0:
256,192,101542,1,8,1:0:0:0:
256,192,102078,1,0,1:0:0:0:
256,192,102257,1,8,1:0:0:0:
256,192,102346,1,8,1:0:0:0:
256,192,102435,1,8,1:0:0:0:
256,192,102614,1,0,1:0:0:0:
256,192,102971,1,8,1:0:0:0:
256,192,103060,1,8,1:0:0:0:
256,192,103150,1,8,1:0:0:0:
256,192,103328,1,0,1:0:0:0:
256,192,103507,1,8,1:0:0:0:
256,192,103685,1,8,1:0:0:0:
256,192,103864,1,0,1:0:0:0:
256,192,103953,1,0,1:0:0:0:
256,192,104042,1,0,1:0:0:0:
256,192,104221,1,8,1:0:0:0:
256,192,104400,1,0,1:0:0:0:
256,192,104578,1,8,1:0:0:0:
256,192,104757,1,12,1:0:0:0:
256,192,105114,1,12,1:0:0:0:
256,192,105471,1,12,1:0:0:0:
256,192,105650,1,0,1:0:0:0:
256,192,105739,1,0,1:0:0:0:
256,192,105828,1,8,1:0:0:0:
256,192,106007,1,0,1:0:0:0:
256,192,106185,1,8,1:0:0:0:
256,192,106364,1,0,1:0:0:0:
256,192,106542,1,8,1:0:0:0:
256,192,106900,1,8,1:0:0:0:
256,192,106989,1,8,1:0:0:0:
256,192,107078,1,8,1:0:0:0:
256,192,107257,1,0,1:0:0:0:
256,192,107435,1,8,1:0:0:0:
256,192,107614,1,0,1:0:0:0:
256,192,107792,1,8,1:0:0:0:
256,192,107882,1,8,1:0:0:0:
256,192,107971,1,8,1:0:0:0:
256,192,108685,1,8,1:0:0:0:
256,192,108775,1,8,1:0:0:0:
256,192,108864,1,0,1:0:0:0:
256,192,109042,1,8,1:0:0:0:
256,192,109400,1,8,1:0:0:0:
256,192,109489,1,8,1:0:0:0:
256,192,109578,1,0,1:0:0:0:
256,192,109757,1,0,1:0:0:0:
256,192,110114,1,0,1:0:0:0:
256,192,110203,1,0,1:0:0:0:
256,192,110292,1,0,1:0:0:0:
256,192,110471,1,8,1:0:0:0:
256,192,110650,1,8,1:0:0:0:
256,192,110828,1,0,1:0:0:0:
256,192,111007,1,8,1:0:0:0:
256,192,111185,1,8,1:0:0:0:
256,192,111364,1,8,1:0:0:0:
256,192,111542,1,4,1:0:0:0:
256,192,111900,1,8,1:0:0:0:
256,192,112257,1,8,1:0:0:0:
256,192,112614,1,0,1:0:0:0:
256,192,112792,1,8,1:0:0:0:
256,192,112882,1,8,1:0:0:0:
256,192,112971,1,8,1:0:0:0:
256,192,113150,1,0,1:0:0:0:
256,192,113328,1,0,1:0:0:0:
256,192,113507,1,8,1:0:0:0:
256,192,113685,1,8,1:0:0:0:
256,192,114042,1,8,1:0:0:0:
256,192,114221,1,0,1:0:0:0:
256,192,114400,1,8,1:0:0:0:
256,192,114489,1,8,1:0:0:0:
256,192,114578,1,8,1:0:0:0:
256,192,114935,1,8,1:0:0:0:
256,192,115114,1,0,1:0:0:0:
256,192,115292,1,8,1:0:0:0:
256,192,115471,1,0,1:0:0:0:
256,192,115828,1,0,1:0:0:0:
256,192,115917,1,0,1:0:0:0:
256,192,116007,1,0,1:0:0:0:
256,192,116364,1,0,1:0:0:0:
256,192,116453,1,0,1:0:0:0:
256,192,116542,1,8,1:0:0:0:
256,192,116721,1,0,1:0:0:0:
256,192,116900,1,8,1:0:0:0:
256,192,117257,1,4,1:0:0:0:
256,192,117435,1,8,1:0:0:0:
256,192,117525,1,8,1:0:0:0:
256,192,117614,1,8,1:0:0:0:
256,192,117792,1,0,1:0:0:0:
256,192,117971,1,8,1:0:0:0:
256,192,118060,1,8,1:0:0:0:
256,192,118150,1,8,1:0:0:0:
256,192,118328,1,0,1:0:0:0:
256,192,118507,1,8,1:0:0:0:
256,192,118685,1,0,1:0:0:0:
256,192,119042,1,0,1:0:0:0:
256,192,119132,1,0,1:0:0:0:
256,192,119221,1,0,1:0:0:0:
256,192,119400,1,0,1:0:0:0:
256,192,119578,1,8,1:0:0:0:
256,192,119757,1,8,1:0:0:0:
256,192,119846,1,8,1:0:0:0:
256,192,119935,1,8,1:0:0:0:
256,192,120114,1,0,1:0:0:0:
256,192,120292,1,8,1:0:0:0:
256,192,120471,1,0,1:0:0:0:
256,192,120650,1,0,1:0:0:0:
256,192,120828,1,8,1:0:0:0:
256,192,121185,1,0,1:0:0:0:
256,192,121275,1,0,1:0:0:0:
256,192,121364,1,0,1:0:0:0:
256,192,121542,1,8,1:0:0:0:
256,192,121721,1,0,1:0:0:0:
256,192,121900,1,8,1:0:0:0:
256,192,121989,1,8,1:0:0:0:
256,192,122078,1,8,1:0:0:0:
256,192,122257,1,0,1:0:0:0:
256,192,122435,1,0,1:0:0:0:
256,192,122614,1,8,1:0:0:0:
256,192,122792,1,8,1:0:0:0:
256,192,123664,1,4,1:0:0:0:
256,192,124184,1,8,1:0:0:0:
256,192,124357,1,8,1:0:0:0:
256,192,124531,1,0,1:0:0:0:
256,192,124704,1,8,1:0:0:0:
256,192,124877,1,8,1:0:0:0:
256,192,124964,1,8,1:0:0:0:
256,192,125051,1,8,1:0:0:0:
256,192,125398,1,0,1:0:0:0:
256,192,125571,1,0,1:0:0:0:
256,192,125658,1,0,1:0:0:0:
256,192,125744,1,0,1:0:0:0:
256,192,125918,1,0,1:0:0:0:
256,192,126091,1,8,1:0:0:0:
256,192,126265,1,8,1:0:0:0:
256,192,126438,1,4,1:0:0:0:
256,192,126938,1,8,1:0:0:0:
256,192,127021,1,8,1:0:0:0:
256,192,127104,1,8,1:0:0:0:
256,192,127271,1,0,1:0:0:0:
256,192,127438,1,8,1:0:0:0:
256,192,127604,1,8,1:0:0:0:
256,192,127771,1,0,1:0:0:0:
256,192,128104,1,8,1:0:0:0:
256,192,128271,1,0,1:0:0:0:
256,192,128438,1,8,1:0:0:0:
256,192,128604,1,0,1:0:0:0:
256,192,128771,1,8,1:0:0:0:
256,192,128854,1,8,1:0:0:0:
256,192,128938,1,8,1:0:0:0:
256,192,129104,1,4,1:0:0:0:
256,192,129577,1,8,1:0:0:0:
256,192,129656,1,8,1:0:0:0:
256,192,129735,1,8,1:0:0:0:
256,192,129893,1,0,1:0:0:0:
256,192,130051,1,8,1:0:0:0:
256,192,130209,1,8,1:0:0:0:
256,192,130367,1,4,1:0:0:0:
256,192,130682,1,0,1:0:0:0:
256,192,130840,1,8,1:0:0:0:
256,192,130998,1,0,1:0:0:0:
256,192,131156,1,0,1:0:0:0:
256,192,131235,1,0,1:0:0:0:
256,192,131314,1,0,1:0:0:0:
256,192,131472,1,8,1:0:0:0:
256,192,131630,1,4,1:0:0:0:
256,192,132080,1,8,1:0:0:0:
256,192,132230,1,4,1:0:0:0:
256,192,132530,1,8,1:0:0:0:
256,192,132680,1,8,1:0:0:0:
256,192,132830,1,4,1:0:0:0:
256,192,133130,1,8,1:0:0:0:
256,192,133205,1,8,1:0:0:0:
256,192,133280,1,8,1:0:0:0:
256,192,133430,1,0,1:0:0:0:
256,192,133608,1,0,1:0:0:0:
256,192,133787,1,0,1:0:0:0:
256,192,133965,1,0,1:0:0:0:
256,192,134144,12,0,136078,1:0:0:0:
