osu file format v14

[General]
AudioFilename: audio.mp3
AudioLeadIn: 0
PreviewTime: 28686
Countdown: 0
SampleSet: Normal
StackLeniency: 0
Mode: 1
LetterboxInBreaks: 0
WidescreenStoryboard: 1

[Editor]
Bookmarks: 115,11543,17257,28686,40114,45829,55829,57257,68686,71543,74400,77257,88685,94400,100114,111542,117257,122971,123664,134144,136078
DistanceSpacing: 2
BeatDivisor: 2
GridSize: 32
TimelineZoom: 2.319999

[Metadata]
Title:Gesui Meidoushite Nezumi Ippiki
TitleUnicode:下水鳴動して鼠一匹
Artist:O-SE
ArtistUnicode:O-SE
Creator:Skidooskei
Version:Futsuu
Source:G2R2018 Climax
Tags:mouse electronic tech q/stol BOFU2018 bms of fighters go back 2 your roots 2018 trap death a rat from sewer video game instrumental
BeatmapID:3983084
BeatmapSetID:1128544

[Difficulty]
HPDrainRate:7
CircleSize:2
OverallDifficulty:4
ApproachRate:9
SliderMultiplier:1.4
SliderTickRate:1

[Events]
//Background and Video events
0,0,"RatFromSewer.jpg",0,0
//Break Periods
2,11743,16122
//Storyboard Layer 0 (Background)
//Storyboard Layer 1 (Fail)
//Storyboard Layer 2 (Pass)
//Storyboard Layer 3 (Foreground)
//Storyboard Layer 4 (Overlay)
//Storyboard Sound Samples

[TimingPoints]
115,357.142857142857,4,1,0,50,1,0
11543,-100,4,1,0,40,0,0
16722,-100,4,1,0,60,0,0
17257,-100,4,1,0,90,0,0
21543,-100,4,1,0,95,0,0
22972,-100,4,1,0,90,0,0
25829,-100,4,1,0,95,0,0
26004,-99.1762310255461,4,1,0,95,0,0
26540,-96.7756502890173,4,1,0,95,0,0
26719,-95.9996416252296,4,1,0,95,0,0
27257,-93.7527342724648,4,1,0,100,0,0
27611,-92.3110058152057,4,1,0,100,0,0
27790,-91.604684961956,4,1,0,100,0,0
27969,-90.9090909090909,4,1,0,100,0,0
28686,-100,4,1,0,85,0,0
38861,-101.262232307474,4,1,0,85,0,0
39040,-102.564102564103,4,1,0,85,0,0
39397,-105.263157894737,4,1,0,85,0,0
39576,-106.670650631209,4,1,0,85,0,0
39754,-108.108108108108,4,1,0,85,0,0
40114,-111.111111111111,4,1,0,50,0,0
45829,-90.9090909090909,4,1,0,95,0,1
55829,-90.9090909090909,4,1,0,70,0,0
56543,-100,4,1,0,70,0,0
57257,-100,4,1,0,90,0,1
58329,-100,4,1,0,95,0,1
59043,-100,4,1,0,90,0,1
65650,-100,4,1,0,95,0,1
67257,-100,4,1,0,90,0,1
68686,-100,4,1,0,80,0,0
71543,357.142857142857,4,1,0,60,1,0
74043,-100,4,1,0,85,0,0
76540,-103.454931480409,4,1,0,85,0,0
76718,-105.263157894737,4,1,0,85,0,0
76897,-107.146426786607,4,1,0,85,0,0
77075,-109.087208710695,4,1,0,85,0,0
77254,-111.111111111111,4,1,0,85,0,0
87971,-111.111111111111,4,1,0,70,0,0
94754,-109.966032543325,4,1,0,70,0,0
95111,-108.844314913233,4,1,0,70,0,0
95828,-106.668160095579,4,1,0,75,0,0
96182,-105.612391065273,4,1,0,75,0,0
96539,-104.577316568751,4,1,0,75,0,0
97257,-102.564102564103,4,1,0,80,0,0
97432,-102.074903757693,4,1,0,80,0,0
97611,-101.587640229701,4,1,0,80,0,0
97968,-100.629595385902,4,1,0,80,0,0
98325,-99.6894518301406,4,1,0,80,0,0
98504,-99.2246446649823,4,1,0,80,0,0
98682,-98.7667124720198,4,1,0,80,0,0
99039,-97.8608984569011,4,1,0,80,0,0
99397,-96.9690798628789,4,1,0,80,0,0
99575,-96.5316844897201,4,1,0,80,0,0
99754,-96.0957930761922,4,1,0,80,0,0
99932,-95.6662229923738,4,1,0,80,0,0
100114,-95.2380952380952,4,1,0,90,0,1
110650,-95.2380952380952,4,1,0,90,0,0
111542,-95.2380952380952,4,1,0,90,0,1
117257,-95.2380952380952,4,1,0,100,0,1
117611,-94.674752294794,4,1,0,100,0,1
117789,-94.3963523425626,4,1,0,100,0,1
117968,-94.1180346230502,4,1,0,100,0,1
118325,-93.5678260299993,4,1,0,100,0,1
118682,-93.024013024013,4,1,0,100,0,1
118861,-92.753717291085,4,1,0,100,0,1
119039,-92.4864847366547,4,1,0,100,0,1
119397,-91.9536530415191,4,1,0,100,0,1
119575,-91.6910042042427,4,1,0,100,0,1
119754,-91.428388562651,4,1,0,100,0,1
120111,-90.9090909090909,4,1,0,100,0,1
122971,346.820809248555,4,1,0,100,1,8
123664,346.820809248555,4,1,0,80,1,0
124007,-99.623937569289,4,1,0,80,0,0
124181,-99.4358863093947,4,1,0,80,0,0
124354,-99.249618312345,4,1,0,80,0,0
124701,-98.8781014023732,4,1,0,80,0,0
125048,-98.5093554870119,4,1,0,80,0,0
125395,-98.143349679851,4,1,0,80,0,0
125568,-97.9618882725747,4,1,0,80,0,0
125741,-97.7810966503094,4,1,0,80,0,0
125915,-97.5999318525459,4,1,0,80,0,0
126088,-97.4204725413713,4,1,0,80,0,0
126438,333.333333333333,4,1,0,85,1,0
126438,-100.989883015829,4,1,0,85,0,0
126768,-100.635016542855,4,1,0,85,0,0
127101,-100.282635254645,4,1,0,85,0,0
127268,-100.106843006674,4,1,0,85,0,0
127435,-99.9316659965712,4,1,0,85,0,0
127601,-99.7581444844851,4,1,0,85,0,0
127768,-99.5841846639947,4,1,0,85,0,0
128101,-99.2391114746803,4,1,0,85,0,0
128268,-99.0669555789292,4,1,0,85,0,0
128435,-98.8953959466244,4,1,0,85,0,0
128768,-98.5550715917283,4,1,0,85,0,0
129104,315.789473684211,4,1,0,90,1,0
129104,-103.673586017633,4,1,0,90,0,0
129416,-103.338348327384,4,1,0,90,0,0
129574,-103.171012496409,4,1,0,90,0,0
129732,-103.004217723262,4,1,0,90,0,0
130048,-102.672240887657,4,1,0,90,0,0
130364,-102.342397063043,4,1,0,90,0,0
130679,-102.015699571456,4,1,0,90,0,0
130837,-101.852616478936,4,1,0,90,0,0
130995,-101.690053966019,4,1,0,90,0,0
131153,-101.528009544055,4,1,0,90,0,0
131311,-101.366480740229,4,1,0,90,0,0
131630,300,4,1,0,95,1,0
131630,-106.363115972813,4,1,0,95,0,0
131927,-106.043790323915,4,1,0,95,0,0
132227,-105.726376308618,4,1,0,95,0,0
132527,-105.410856812243,4,1,0,95,0,0
132827,-105.097214923805,4,1,0,95,0,0
133430,357.142857142857,4,1,0,100,1,8
133430,-88.2846296459786,4,1,0,100,0,8
134144,357.142857142857,7,1,0,50,1,0
134144,-88.2846296459786,7,1,0,50,0,0
136078,357.142857142857,4,1,0,50,1,8

[Colours]
Combo1 : 199,250,84
Combo2 : 149,202,255
Combo3 : 255,255,128
Combo4 : 255,170,200

[HitObjects]
256,192,115,5,8,1:0:0:0:
256,192,293,1,8,1:0:0:0:
256,192,472,1,0,1:0:0:0:
256,192,829,1,0,1:0:0:0:
256,192,1543,1,8,1:0:0:0:
256,192,1721,1,8,1:0:0:0:
256,192,1900,1,0,1:0:0:0:
256,192,2257,1,8,1:0:0:0:
256,192,2972,1,8,1:0:0:0:
256,192,3150,1,8,1:0:0:0:
256,192,3329,1,0,1:0:0:0:
256,192,3686,1,0,1:0:0:0:
256,192,4400,1,8,1:0:0:0:
256,192,4578,1,8,1:0:0:0:
256,192,4757,1,0,1:0:0:0:
256,192,5114,1,8,1:0:0:0:
256,192,5472,1,8,1:0:0:0:
256,192,5829,1,8,1:0:0:0:
256,192,6007,1,8,1:0:0:0:
256,192,6186,1,0,1:0:0:0:
256,192,6543,1,0,1:0:0:0:
256,192,7257,1,8,1:0:0:0:
256,192,7435,1,8,1:0:0:0:
256,192,7614,1,0,1:0:0:0:
256,192,7971,1,8,1:0:0:0:
256,192,8686,1,8,1:0:0:0:
256,192,8864,1,0,1:0:0:0:
256,192,9043,1,0,1:0:0:0:
256,192,9400,1,0,1:0:0:0:
256,192,10114,1,8,1:0:0:0:
256,192,10293,12,0,11543,1:0:0:0:
256,192,16722,5,0,1:0:0:0:
256,192,16900,1,8,1:0:0:0:
256,192,17079,1,8,1:0:0:0:
256,192,17257,1,4,1:0:0:0:
256,192,17614,1,8,1:0:0:0:
256,192,17972,1,0,1:0:0:0:
256,192,18329,1,8,1:0:0:0:
256,192,18507,1,0,1:0:0:0:
256,192,18686,1,0,1:0:0:0:
256,192,19043,1,8,1:0:0:0:
256,192,19400,1,0,1:0:0:0:
256,192,19579,1,0,1:0:0:0:
256,192,19757,1,8,1:0:0:0:
256,192,20114,1,8,1:0:0:0:
256,192,20293,1,0,1:0:0:0:
256,192,20650,1,0,1:0:0:0:
256,192,20829,1,8,1:0:0:0:
256,192,21186,1,8,1:0:0:0:
256,192,21364,1,0,1:0:0:0:
256,192,21543,1,12,1:0:0:0:
256,192,21900,1,8,1:0:0:0:
256,192,22257,1,4,1:0:0:0:
256,192,22972,1,0,1:0:0:0:
256,192,23329,1,8,1:0:0:0:
256,192,23507,1,0,1:0:0:0:
256,192,23686,1,8,1:0:0:0:
256,192,24043,1,0,1:0:0:0:
256,192,24400,1,0,1:0:0:0:
256,192,24757,1,8,1:0:0:0:
256,192,24936,1,0,1:0:0:0:
256,192,25114,1,0,1:0:0:0:
256,192,25472,1,8,1:0:0:0:
256,192,25829,1,8,1:0:0:0:
256,192,26007,1,0,1:0:0:0:
256,192,26543,1,8,1:0:0:0:
256,192,26722,1,0,1:0:0:0:
256,192,27257,1,8,1:0:0:0:
256,192,27614,1,0,1:0:0:0:
256,192,27793,1,8,1:0:0:0:
256,192,27972,1,0,1:0:0:0:
256,192,28686,1,4,1:0:0:0:
256,192,29222,1,8,1:0:0:0:
256,192,29400,1,0,1:0:0:0:
256,192,29579,1,0,1:0:0:0:
256,192,29936,1,8,1:0:0:0:
256,192,30114,1,0,1:0:0:0:
256,192,30650,1,8,1:0:0:0:
256,192,30829,1,0,1:0:0:0:
256,192,31186,1,8,1:0:0:0:
256,192,31364,1,0,1:0:0:0:
256,192,31543,1,8,1:0:0:0:
256,192,32079,1,8,1:0:0:0:
256,192,32257,1,0,1:0:0:0:
256,192,32436,1,0,1:0:0:0:
256,192,32793,1,8,1:0:0:0:
256,192,32972,1,8,1:0:0:0:
256,192,33329,1,8,1:0:0:0:
256,192,33507,1,0,1:0:0:0:
256,192,33686,1,8,1:0:0:0:
256,192,34043,1,8,1:0:0:0:
256,192,34222,1,8,1:0:0:0:
256,192,34400,1,0,1:0:0:0:
256,192,35114,1,0,1:0:0:0:
256,192,35472,1,0,1:0:0:0:
256,192,35829,1,8,1:0:0:0:
256,192,36007,1,8,1:0:0:0:
256,192,36364,1,0,1:0:0:0:
256,192,36543,1,8,1:0:0:0:
256,192,36722,1,0,1:0:0:0:
256,192,36900,1,8,1:0:0:0:
256,192,37257,1,0,1:0:0:0:
256,192,37614,1,8,1:0:0:0:
256,192,37972,1,0,1:0:0:0:
256,192,38329,1,8,1:0:0:0:
256,192,38686,1,8,1:0:0:0:
256,192,38864,1,8,1:0:0:0:
256,192,39043,1,0,1:0:0:0:
256,192,39400,1,8,1:0:0:0:
256,192,39579,1,0,1:0:0:0:
256,192,39757,1,0,1:0:0:0:
256,192,40114,1,0,1:0:0:0:
256,192,41543,1,8,1:0:0:0:
256,192,42257,1,0,1:0:0:0:
256,192,42972,1,0,1:0:0:0:
256,192,44400,1,8,1:0:0:0:
256,192,45114,1,8,1:0:0:0:
256,192,45829,1,12,1:0:0:0:
256,192,46543,1,12,1:0:0:0:
256,192,46900,1,12,1:0:0:0:
256,192,47257,1,4,1:0:0:0:
256,192,47972,1,12,1:0:0:0:
256,192,48329,1,4,1:0:0:0:
256,192,48686,1,12,1:0:0:0:
256,192,49400,1,4,1:0:0:0:
256,192,49757,1,4,1:0:0:0:
256,192,50114,1,12,1:0:0:0:
256,192,50829,1,4,1:0:0:0:
256,192,51186,1,12,1:0:0:0:
256,192,51543,1,4,1:0:0:0:
256,192,52257,1,12,1:0:0:0:
256,192,52614,1,12,1:0:0:0:
256,192,52972,1,4,1:0:0:0:
256,192,53686,1,12,1:0:0:0:
256,192,54043,1,4,1:0:0:0:
256,192,54400,1,12,1:0:0:0:
256,192,55114,1,4,1:0:0:0:
256,192,55472,1,4,1:0:0:0:
256,192,55829,1,8,1:0:0:0:
256,192,56543,1,0,1:0:0:0:
256,192,56900,1,8,1:0:0:0:
256,192,57257,1,4,1:0:0:0:
256,192,57614,1,8,1:0:0:0:
256,192,57793,1,0,1:0:0:0:
256,192,58150,1,0,1:0:0:0:
256,192,58329,1,0,1:0:0:0:
256,192,58507,1,8,1:0:0:0:
256,192,59043,1,0,1:0:0:0:
256,192,59222,1,8,1:0:0:0:
256,192,59400,1,0,1:0:0:0:
256,192,59579,1,0,1:0:0:0:
256,192,59757,1,8,1:0:0:0:
256,192,59936,1,8,1:0:0:0:
256,192,60293,1,0,1:0:0:0:
256,192,60472,1,0,1:0:0:0:
256,192,60650,1,8,1:0:0:0:
256,192,61007,1,0,1:0:0:0:
256,192,61186,1,8,1:0:0:0:
256,192,61364,1,8,1:0:0:0:
256,192,61722,1,8,1:0:0:0:
256,192,61900,1,0,1:0:0:0:
256,192,62079,1,8,1:0:0:0:
256,192,62614,1,8,1:0:0:0:
256,192,62972,1,0,1:0:0:0:
256,192,63150,1,8,1:0:0:0:
256,192,63329,1,0,1:0:0:0:
256,192,63507,1,8,1:0:0:0:
256,192,63864,1,0,1:0:0:0:
256,192,64043,1,8,1:0:0:0:
256,192,64400,1,8,1:0:0:0:
256,192,64579,1,8,1:0:0:0:
256,192,64757,1,0,1:0:0:0:
256,192,64936,1,0,1:0:0:0:
256,192,65114,1,8,1:0:0:0:
256,192,65293,1,8,1:0:0:0:
256,192,65650,1,4,1:0:0:0:
256,192,66364,1,12,1:0:0:0:
256,192,67257,1,4,1:0:0:0:
256,192,67436,12,0,68686,1:0:0:0:
256,192,71543,5,0,1:0:0:0:
256,192,71900,1,8,1:0:0:0:
256,192,72257,1,8,1:0:0:0:
256,192,72793,1,8,1:0:0:0:
256,192,72971,1,0,1:0:0:0:
256,192,73328,1,8,1:0:0:0:
256,192,73507,1,8,1:0:0:0:
256,192,73685,1,0,1:0:0:0:
256,192,74043,1,0,1:0:0:0:
256,192,74400,1,12,1:0:0:0:
256,192,74757,1,12,1:0:0:0:
256,192,75114,1,12,1:0:0:0:
256,192,75471,1,0,1:0:0:0:
256,192,75650,1,8,1:0:0:0:
256,192,75828,1,0,1:0:0:0:
256,192,76185,1,8,1:0:0:0:
256,192,76543,1,0,1:0:0:0:
256,192,76721,1,0,1:0:0:0:
256,192,76900,1,8,1:0:0:0:
256,192,77078,1,8,1:0:0:0:
256,192,77257,1,0,1:0:0:0:
256,192,77971,1,0,1:0:0:0:
256,192,78685,1,0,1:0:0:0:
256,192,79400,1,8,1:0:0:0:
256,192,79757,1,0,1:0:0:0:
256,192,80114,1,8,1:0:0:0:
256,192,81185,1,0,1:0:0:0:
256,192,81543,1,0,1:0:0:0:
256,192,81900,1,8,1:0:0:0:
256,192,82257,1,8,1:0:0:0:
256,192,82971,1,8,1:0:0:0:
256,192,83685,1,0,1:0:0:0:
256,192,84400,1,0,1:0:0:0:
256,192,85114,1,8,1:0:0:0:
256,192,85471,1,0,1:0:0:0:
256,192,85828,12,0,87793,1:0:0:0:
256,192,87971,5,0,1:0:0:0:
256,192,88328,1,0,1:0:0:0:
256,192,88507,1,0,1:0:0:0:
256,192,88685,1,0,1:0:0:0:
256,192,89043,1,8,1:0:0:0:
256,192,89400,1,0,1:0:0:0:
256,192,90114,1,0,1:0:0:0:
256,192,90828,1,8,1:0:0:0:
256,192,91185,1,0,1:0:0:0:
256,192,91364,1,0,1:0:0:0:
256,192,91543,1,8,1:0:0:0:
256,192,92078,1,8,1:0:0:0:
256,192,92257,1,0,1:0:0:0:
256,192,92614,1,8,1:0:0:0:
256,192,92971,1,0,1:0:0:0:
256,192,93507,1,0,1:0:0:0:
256,192,93685,1,8,1:0:0:0:
256,192,94042,1,0,1:0:0:0:
256,192,94400,1,0,1:0:0:0:
256,192,94757,1,8,1:0:0:0:
256,192,95114,1,0,1:0:0:0:
256,192,95828,1,8,1:0:0:0:
256,192,96185,1,0,1:0:0:0:
256,192,96542,1,8,1:0:0:0:
256,192,97257,1,8,1:0:0:0:
256,192,97435,1,0,1:0:0:0:
256,192,97614,1,8,1:0:0:0:
256,192,97971,1,0,1:0:0:0:
256,192,98328,1,0,1:0:0:0:
256,192,98507,1,0,1:0:0:0:
256,192,98685,1,8,1:0:0:0:
256,192,99042,1,8,1:0:0:0:
256,192,99400,1,0,1:0:0:0:
256,192,99578,1,0,1:0:0:0:
256,192,99757,1,8,1:0:0:0:
256,192,99935,1,8,1:0:0:0:
256,192,100114,1,4,1:0:0:0:
256,192,100471,1,0,1:0:0:0:
256,192,100650,1,8,1:0:0:0:
256,192,100828,1,8,1:0:0:0:
256,192,101185,1,8,1:0:0:0:
256,192,101542,1,0,1:0:0:0:
256,192,101900,1,0,1:0:0:0:
256,192,102257,1,8,1:0:0:0:
256,192,102435,1,8,1:0:0:0:
256,192,102614,1,0,1:0:0:0:
256,192,102971,1,8,1:0:0:0:
256,192,103150,1,8,1:0:0:0:
256,192,103328,1,8,1:0:0:0:
256,192,103685,1,0,1:0:0:0:
256,192,104400,1,8,1:0:0:0:
256,192,104578,1,0,1:0:0:0:
256,192,104757,1,8,1:0:0:0:
256,192,105114,1,8,1:0:0:0:
256,192,105471,1,8,1:0:0:0:
256,192,105650,1,0,1:0:0:0:
256,192,105828,1,0,1:0:0:0:
256,192,106185,1,12,1:0:0:0:
256,192,106542,1,12,1:0:0:0:
256,192,106900,1,4,1:0:0:0:
256,192,107257,1,8,1:0:0:0:
256,192,107435,1,8,1:0:0:0:
256,192,107614,1,0,1:0:0:0:
256,192,107792,1,8,1:0:0:0:
256,192,107971,1,8,1:0:0:0:
256,192,108685,1,8,1:0:0:0:
256,192,109042,1,0,1:0:0:0:
256,192,109221,1,8,1:0:0:0:
256,192,109400,1,0,1:0:0:0:
256,192,109757,1,0,1:0:0:0:
256,192,110114,1,8,1:0:0:0:
256,192,110292,1,0,1:0:0:0:
256,192,110471,1,8,1:0:0:0:
256,192,110828,1,8,1:0:0:0:
256,192,111185,1,0,1:0:0:0:
256,192,111542,1,4,1:0:0:0:
256,192,111900,1,8,1:0:0:0:
256,192,112257,1,8,1:0:0:0:
256,192,112614,1,0,1:0:0:0:
256,192,112792,1,0,1:0:0:0:
256,192,112971,1,8,1:0:0:0:
256,192,113328,1,0,1:0:0:0:
256,192,113507,1,8,1:0:0:0:
256,192,113685,1,8,1:0:0:0:
256,192,113864,1,0,1:0:0:0:
256,192,114042,1,8,1:0:0:0:
256,192,114400,1,8,1:0:0:0:
256,192,114935,1,8,1:0:0:0:
256,192,115114,1,0,1:0:0:0:
256,192,115292,1,8,1:0:0:0:
256,192,115471,1,0,1:0:0:0:
256,192,115828,1,0,1:0:0:0:
256,192,116364,1,0,1:0:0:0:
256,192,116542,1,8,1:0:0:0:
256,192,116900,1,0,1:0:0:0:
256,192,117257,1,12,1:0:0:0:
256,192,117614,1,8,1:0:0:0:
256,192,117792,1,0,1:0:0:0:
256,192,117971,1,0,1:0:0:0:
256,192,118328,1,8,1:0:0:0:
256,192,118685,1,0,1:0:0:0:
256,192,118864,1,0,1:0:0:0:
256,192,119042,1,8,1:0:0:0:
256,192,119400,1,0,1:0:0:0:
256,192,119578,1,8,1:0:0:0:
256,192,119757,1,8,1:0:0:0:
256,192,120114,1,8,1:0:0:0:
256,192,120292,1,0,1:0:0:0:
256,192,120471,1,8,1:0:0:0:
256,192,120828,1,8,1:0:0:0:
256,192,121185,1,0,1:0:0:0:
256,192,121364,1,0,1:0:0:0:
256,192,121542,1,8,1:0:0:0:
256,192,121721,1,0,1:0:0:0:
256,192,121900,1,8,1:0:0:0:
256,192,122257,1,0,1:0:0:0:
256,192,122435,1,0,1:0:0:0:
256,192,122614,1,8,1:0:0:0:
256,192,122792,1,8,1:0:0:0:
256,192,123664,1,4,1:0:0:0:
256,192,124010,1,8,1:0:0:0:
256,192,124184,1,8,1:0:0:0:
256,192,124357,1,0,1:0:0:0:
256,192,124704,1,8,1:0:0:0:
256,192,125051,1,0,1:0:0:0:
256,192,125398,1,0,1:0:0:0:
256,192,125571,1,0,1:0:0:0:
256,192,125744,1,8,1:0:0:0:
256,192,125918,1,0,1:0:0:0:
256,192,126091,1,8,1:0:0:0:
256,192,126438,1,4,1:0:0:0:
256,192,126771,1,8,1:0:0:0:
256,192,127104,1,0,1:0:0:0:
256,192,127271,1,0,1:0:0:0:
256,192,127438,1,8,1:0:0:0:
256,192,127604,1,8,1:0:0:0:
256,192,127771,1,0,1:0:0:0:
256,192,128104,1,0,1:0:0:0:
256,192,128271,1,0,1:0:0:0:
256,192,128438,1,8,1:0:0:0:
256,192,128771,1,8,1:0:0:0:
256,192,129104,1,4,1:0:0:0:
256,192,129419,1,8,1:0:0:0:
256,192,129577,1,8,1:0:0:0:
256,192,129735,1,0,1:0:0:0:
256,192,130051,1,8,1:0:0:0:
256,192,130367,1,4,1:0:0:0:
256,192,130682,1,8,1:0:0:0:
256,192,130840,1,8,1:0:0:0:
256,192,130998,1,0,1:0:0:0:
256,192,131156,1,0,1:0:0:0:
256,192,131314,1,8,1:0:0:0:
256,192,131630,1,4,1:0:0:0:
256,192,131930,1,8,1:0:0:0:
256,192,132230,1,4,1:0:0:0:
256,192,132530,1,8,1:0:0:0:
256,192,132830,1,4,1:0:0:0:
256,192,133130,1,8,1:0:0:0:
256,192,133430,1,0,1:0:0:0:
256,192,133608,1,0,1:0:0:0:
256,192,133787,1,0,1:0:0:0:
256,192,133965,1,0,1:0:0:0:
256,192,134144,12,0,136078,1:0:0:0:
