osu file format v14

[General]
AudioFilename: audio.mp3
AudioLeadIn: 0
PreviewTime: 28686
Countdown: 0
SampleSet: Soft
StackLeniency: 0.5
Mode: 0
LetterboxInBreaks: 0
WidescreenStoryboard: 1

[Editor]
Bookmarks:115,11543,17257,28686,40114,45829,55829,57257,68686,71543,74400,77257,88685,94400,100114,111542,117257,122971,123664,134144,136078
DistanceSpacing: 1
BeatDivisor: 2
GridSize: 4
TimelineZoom: 1.42

[Metadata]
Title:Gesui Meidoushite Nezumi Ippiki
TitleUnicode:下水鳴動して鼠一匹
Artist:O-SE
ArtistUnicode:O-SE
Creator:Skidooskei
Version:Easy
Source:G2R2018 Climax
Tags:mouse electronic tech q/stol BOFU2018 bms of fighters go back 2 your roots 2018 trap death a rat from sewer video game instrumental
BeatmapID:2363322
BeatmapSetID:1128544

[Difficulty]
HPDrainRate:2
CircleSize:2
OverallDifficulty:2
ApproachRate:3
SliderMultiplier:0.89999990463257
SliderTickRate:1

[Events]
//Background and Video events
0,0,"RatFromSewer.jpg",0,0
//Break Periods
2,11549,15817
2,40120,44389
2,77263,87246
//Storyboard Layer 0 (Background)
//Storyboard Layer 1 (Fail)
//Storyboard Layer 2 (Pass)
//Storyboard Layer 3 (Foreground)
//Storyboard Layer 4 (Overlay)
//Storyboard Sound Samples

[TimingPoints]
115,357.142857142857,4,2,1,60,1,0
17257,-100,4,2,1,75,0,0
21543,-100,4,2,1,80,0,0
22972,-100,4,2,1,75,0,0
27257,-100,4,2,1,80,0,0
28686,-100,4,2,1,75,0,0
45829,-100,4,2,1,85,0,1
55829,-100,4,2,1,85,0,0
57257,-100,4,2,1,85,0,1
67972,-100,4,2,2,85,0,1
68328,-100,4,2,1,85,0,1
68686,-100,4,2,1,75,0,0
71543,357.142857142857,4,2,1,60,1,0
74043,-100,4,2,1,75,0,0
76900,-100,4,2,1,60,0,0
100114,-100,4,2,1,80,0,1
110650,-100,4,2,1,80,0,0
111542,-100,4,2,1,90,0,1
122614,-100,4,2,1,70,0,1
122971,346.820809248555,4,2,1,70,1,0
123664,346.820809248555,4,2,1,75,1,0
126438,333.333333333333,4,2,1,75,1,0
129104,315.789473684211,4,2,1,80,1,0
131630,300,4,2,1,90,1,0
133430,357.142857142857,4,2,1,85,1,8
133608,-100,4,2,1,80,0,8
133787,-100,4,2,2,75,0,8
133965,-100,4,2,1,70,0,8
134144,357.142857142857,7,2,1,70,1,0
136078,357.142857142857,4,2,1,10,1,0

[Colours]
Combo1 : 199,250,84
Combo2 : 149,202,255
Combo3 : 255,255,128
Combo4 : 255,170,200

[HitObjects]
131,201,115,6,0,B|239:188|191:251|314:234,1,179.999980926514,0|8,1:0|2:0,2:0:0:0:
423,101,1543,2,0,L|404:2,2,89.999990463257,0|2|8,1:0|2:0|2:0,2:0:0:0:
458,277,2972,2,0,P|383:284|304:362,1,179.999980926514,0|8,1:0|2:0,2:0:0:0:
161,248,4400,1,0,1:0:0:0:
103,317,4757,2,0,P|59:333|6:327,1,89.999990463257,8|0,2:0|1:0,2:0:0:0:
84,163,5829,6,0,L|274:189,1,179.999980926514,0|8,1:0|2:0,2:0:0:0:
426,114,7257,2,0,L|411:22,2,89.999990463257,0|2|8,1:0|2:0|2:0,2:0:0:0:
468,289,8686,2,0,P|413:247|302:239,1,179.999980926514,0|8,1:0|2:0,2:0:0:0:
142,313,10114,2,0,B|100:297|100:297|53:313,2,89.999990463257,0|8|0,1:0|2:0|2:0,2:0:0:0:
226,343,11186,1,0,2:0:0:0:
324,65,17257,6,0,B|301:111|301:111|312:247,1,179.999980926514,4|8,2:0|2:0,2:0:0:0:
180,363,18686,2,0,P|135:367|88:352,1,89.999990463257,8|2,2:0|2:0,2:0:0:0:
24,295,19400,1,8,2:0:0:0:
24,115,20114,6,0,L|207:135,1,179.999980926514,8|8,2:0|2:0,2:0:0:0:
359,45,21543,2,0,L|376:148,1,89.999990463257,4|10,2:0|2:0,2:0:0:0:
449,181,22257,2,0,L|434:269,1,89.999990463257,10|2,2:0|2:0,2:0:0:0:
371,334,22972,6,0,B|325:313|325:313|183:313,1,179.999980926514,8|8,2:0|2:0,2:0:0:0:
40,220,24400,2,0,L|51:121,1,89.999990463257,8|2,2:0|2:0,2:0:0:0:
64,41,25114,1,8,2:0:0:0:
243,58,25829,6,0,P|283:129|248:226,1,179.999980926514,2|2,2:0|2:0,2:0:0:0:
145,359,27257,1,0,1:0:0:0:
232,338,27614,1,0,1:0:0:0:
319,317,27972,1,8,2:1:0:0:
425,176,28686,6,0,B|330:163|356:230|253:217,1,179.999980926514,4|0,2:0|1:0,2:0:0:0:
130,88,30114,2,0,P|151:138|160:274,1,179.999980926514,0|0,1:0|1:0,2:0:0:0:
91,319,31186,1,8,2:1:0:0:
171,359,31543,6,0,L|363:343,1,179.999980926514,0|0,1:0|1:0,2:0:0:0:
415,176,32972,2,0,P|458:188|499:227,2,89.999990463257,0|8|0,1:0|2:1|1:0,2:0:0:0:
325,169,34043,1,8,2:1:0:0:
254,225,34400,6,0,L|273:36,1,179.999980926514,0|0,1:0|1:0,2:0:0:0:
152,181,35829,2,0,P|73:187|21:105,1,179.999980926514,0|0,1:0|1:0,2:0:0:0:
87,49,36900,1,8,2:1:0:0:
165,92,37257,5,0,1:0:0:0:
311,198,37972,2,0,L|301:302,1,89.999990463257,0|8,1:0|2:1,2:0:0:0:
216,315,38686,2,0,B|110:325|151:261|43:274,1,179.999980926514,0|0,1:0|1:0,2:0:0:0:
3,352,39757,1,0,1:0:0:0:
130,139,45829,6,0,B|211:135|211:135|225:147|225:147|314:143,1,179.999980926514,4|0,2:1|1:0,2:0:0:0:
346,63,46900,1,8,2:1:0:0:
435,74,47257,2,0,L|428:170,1,89.999990463257,0|8,1:0|2:1,2:0:0:0:
422,253,47972,1,0,1:0:0:0:
356,353,48686,6,0,B|275:318|275:318|286:225,1,179.999980926514,0|0,1:0|1:0,2:0:0:0:
347,161,49757,1,8,2:1:0:0:
278,102,50114,2,0,L|184:109,1,89.999990463257,0|8,1:0|2:1,2:0:0:0:
108,67,50829,1,0,1:0:0:0:
24,99,51186,1,8,2:1:0:0:
80,168,51543,6,0,B|108:207|108:207|95:339,1,179.999980926514,0|0,1:0|1:0,2:0:0:0:
264,278,52972,2,0,L|275:181,1,89.999990463257,0|8,1:0|2:1,2:0:0:0:
287,99,53686,1,0,1:0:0:0:
372,72,54043,1,8,2:1:0:0:
440,130,54400,6,0,B|457:172|457:172|448:218,1,89.999990463257,0|8,1:0|2:1,2:0:0:0:
378,272,55114,2,0,B|361:314|361:314|370:360,1,89.999990463257,0|8,1:0|2:1,2:0:0:0:
157,92,57257,6,0,B|182:132|182:132|169:233,1,134.999985694885,4|2,2:1|2:0,2:0:0:0:
150,307,58150,1,0,1:0:0:0:
61,321,58507,2,0,P|36:252|58:193,1,134.999985694885,4|8,2:0|2:1,2:0:0:0:
135,154,59400,2,0,L|277:170,1,134.999985694885,0|2,1:0|2:0,2:0:0:0:
331,338,60650,6,0,P|334:294|321:239,1,89.999990463257,2|2,2:0|2:0,2:0:0:0:
235,258,61364,2,0,P|229:302|236:346,2,89.999990463257,2|2|2,2:0|2:0|2:0,2:0:0:0:
316,150,62614,1,8,2:1:0:0:
226,162,62972,6,0,B|154:164|142:113|148:79|148:79|144:113|120:157|46:139,1,269.999971389771,4|8,2:0|2:1,2:0:0:0:
19,224,64400,1,0,1:0:0:0:
80,289,64757,1,8,2:1:0:0:
48,373,65114,1,0,1:0:0:0:
176,331,65650,6,0,B|181:278|181:278|163:204|163:204|170:147,1,179.999980926514,4|4,2:0|2:0,2:0:0:0:
268,61,66900,1,8,2:1:0:0:
356,78,67257,6,0,B|425:92|456:151|423:214|423:214|404:255|405:303,1,269.999971389771,4|8,2:0|2:0,2:0:0:0:
484,344,68686,1,0,1:0:0:0:
65,126,71543,6,0,P|131:77|222:97,1,179.999980926514,2|2,2:0|2:0,2:0:0:0:
377,189,72972,2,0,L|393:88,2,89.999990463257,2|2|2,2:0|2:0|2:0,2:0:0:0:
455,233,74043,1,0,1:0:0:0:
433,320,74400,6,0,P|385:307|340:308,1,89.999990463257,4|8,2:0|2:1,2:0:0:0:
276,249,75114,2,0,P|227:261|189:285,1,89.999990463257,8|8,2:1|2:1,2:0:0:0:
138,352,75829,2,0,B|157:260|105:266|125:172,1,179.999980926514,0|0,1:0|1:0,2:0:0:0:
189,113,76900,1,8,2:1:0:0:
108,85,88686,6,0,L|117:275,1,179.999980926514,2|8,2:0|2:0,2:0:0:0:
273,175,90114,2,0,L|268:82,2,89.999990463257,2|2|8,2:0|2:0|2:0,2:0:0:0:
226,349,91543,2,0,P|272:299|384:323,1,179.999980926514,2|8,2:0|2:0,2:0:0:0:
511,195,92972,2,0,P|465:145|353:169,1,179.999980926514,2|8,2:0|2:0,2:0:0:0:
237,289,94400,5,2,2:0:0:0:
265,112,95114,1,8,2:0:0:0:
87,84,95828,1,2,2:0:0:0:
59,261,96542,1,8,2:0:0:0:
223,188,97257,6,0,P|223:134|207:88,2,89.999990463257,2|2|2,2:0|2:0|2:0,2:0:0:0:
187,364,98686,2,0,P|214:291|300:316,1,179.999980926514,2|8,2:0|2:0,2:0:0:0:
303,132,100114,6,0,B|216:114|241:198|127:179,1,179.999980926514,4|0,2:1|1:0,2:0:0:0:
67,123,101186,1,8,2:1:0:0:
12,194,101543,2,0,L|24:283,2,89.999990463257,0|8|0,1:0|2:1|1:0,2:0:0:0:
112,343,102972,6,0,P|197:311|288:332,1,179.999980926514,0|0,1:0|1:0,2:0:0:0:
336,257,104042,1,8,2:1:0:0:
426,259,104400,2,0,L|431:159,1,89.999990463257,0|8,1:0|2:1,2:0:0:0:
367,104,105114,2,0,L|267:99,1,89.999990463257,0|8,1:0|2:1,2:0:0:0:
192,130,105828,6,0,B|148:124|148:124|102:140,2,89.999990463257,0|8|0,1:0|2:1|1:0,2:0:0:0:
262,185,106900,2,0,B|257:267|257:267|250:279|250:279|245:365,1,179.999980926514,8|8,2:1|2:1,2:0:0:0:
155,357,107972,1,0,1:0:0:0:
8,99,108686,6,0,P|51:88|96:95,1,89.999990463257,0|8,1:0|2:1,2:0:0:0:
159,158,109400,2,0,P|203:164|246:153,1,89.999990463257,0|8,1:0|2:1,2:0:0:0:
310,89,110114,2,0,P|353:78|398:85,1,89.999990463257,0|8,1:0|2:1,2:0:0:0:
458,150,110828,1,0,1:0:0:0:
459,239,111185,1,8,2:1:0:0:
381,285,111543,6,0,L|394:383,2,89.999990463257,4|8|0,2:1|2:1|1:0,2:0:0:0:
310,229,112614,1,8,2:1:0:0:
226,262,112972,2,0,B|139:240|139:240|86:317,1,179.999980926514,0|0,1:0|1:0,2:0:0:0:
69,135,114400,5,0,1:0:0:0:
156,116,114757,2,0,P|158:59|143:16,2,89.999990463257,8|0|8,2:1|1:0|2:1,2:0:0:0:
132,203,115829,2,0,B|213:244|213:244|305:225,1,179.999980926514,0|0,1:0|1:0,2:0:0:0:
371,60,117257,6,0,B|359:105|359:105|372:146,1,89.999990463257,4|8,2:1|2:1,2:0:0:0:
448,194,117972,1,0,1:0:0:0:
481,277,118329,1,8,2:1:0:0:
417,341,118686,2,0,B|372:345|372:345|326:324,1,89.999990463257,0|8,1:0|2:1,2:0:0:0:
282,250,119400,2,0,B|241:231|241:231|196:235,1,89.999990463257,0|8,1:0|2:1,2:0:0:0:
106,229,120114,6,0,B|113:165|113:165|100:118|100:118|106:47,1,179.999980926514,12|8,2:0|2:1,2:0:0:0:
284,69,121542,2,0,P|291:114|274:167,1,89.999990463257,8|8,2:1|2:1,2:0:0:0:
196,191,122257,1,8,2:1:0:0:
122,139,122614,1,8,2:1:0:0:
280,361,123664,6,0,L|299:169,1,179.999980926514,4|0,2:0|1:0,2:0:0:0:
178,46,125051,2,0,L|169:135,1,89.999990463257,0|8,1:0|2:1,2:0:0:0:
160,225,125744,1,0,1:0:0:0:
301,104,126438,6,0,P|360:74|468:103,1,179.999980926514,0|0,1:0|1:0,2:0:0:0:
495,187,127438,1,8,2:1:0:0:
449,265,127771,2,0,P|403:274|354:261,1,89.999990463257,0|8,1:0|2:1,2:0:0:0:
286,215,128438,1,0,1:0:0:0:
130,105,129104,6,0,B|144:155|144:155|119:282,1,179.999980926514,4|0,2:0|1:0,2:0:0:0:
97,368,130051,1,8,2:1:0:0:
186,364,130367,2,0,L|287:359,1,89.999990463257,4|8,2:0|2:1,2:0:0:0:
346,303,130998,2,0,L|341:202,1,89.999990463257,0|8,1:0|2:1,2:0:0:0:
274,146,131630,6,0,B|305:114|305:114|351:114,1,89.999990463257,4|8,2:0|2:1,2:0:0:0:
423,168,132230,2,0,B|469:168|469:168|504:203,1,89.999990463257,4|8,2:0|2:1,2:0:0:0:
432,258,132830,1,4,2:1:0:0:
346,231,133130,1,8,2:1:0:0:
256,225,133430,6,0,L|256:362,1,134.999985694885,2|10,2:3|2:0,2:0:0:0:
256,192,134144,12,0,136078,2:0:0:0:
