osu file format v14

[General]
AudioFilename: audio.mp3
AudioLeadIn: 0
PreviewTime: 28686
Countdown: 0
SampleSet: Normal
StackLeniency: 0
Mode: 1
LetterboxInBreaks: 0
WidescreenStoryboard: 1

[Editor]
Bookmarks: 115,11543,17257,28686,40114,45829,55829,57257,68686,71543,74400,77257,88685,94400,100114,111542,117257,122971,123664,134144,136078
DistanceSpacing: 2
BeatDivisor: 4
GridSize: 32
TimelineZoom: 2.319999

[Metadata]
Title:Gesui Meidoushite Nezumi Ippiki
TitleUnicode:下水鳴動して鼠一匹
Artist:O-SE
ArtistUnicode:O-SE
Creator:Skidooskei
Version:Drainpipe Endurance
Source:G2R2018 Climax
Tags:mouse electronic tech q/stol BOFU2018 bms of fighters go back 2 your roots 2018 trap death a rat from sewer video game instrumental
BeatmapID:3980845
BeatmapSetID:1128544

[Difficulty]
HPDrainRate:6.5
CircleSize:2
OverallDifficulty:7
ApproachRate:9
SliderMultiplier:1.4
SliderTickRate:1

[Events]
//Background and Video events
0,0,"RatFromSewer.jpg",0,0
//Break Periods
//Storyboard Layer 0 (Background)
//Storyboard Layer 1 (Fail)
//Storyboard Layer 2 (Pass)
//Storyboard Layer 3 (Foreground)
//Storyboard Layer 4 (Overlay)
//Storyboard Sound Samples

[TimingPoints]
115,357.142857142857,4,1,0,50,1,0
10293,-101.914916378419,4,1,0,50,0,0
10338,-102.407911709904,4,1,0,50,0,0
10382,-102.894585253456,4,1,0,50,0,0
10472,-103.904602632153,4,1,0,50,0,0
10561,-104.923088219098,4,1,0,50,0,0
10650,-105.961738098769,4,1,0,50,0,0
10829,-108.114242481559,4,1,0,50,0,0
10888,-108.843019270318,4,1,0,50,0,0
10948,-109.594294040954,4,1,0,50,0,0
11007,-110.34322999112,4,1,0,50,0,0
11097,-111.505598689087,4,1,0,50,0,0
11186,-112.679388109131,4,1,0,50,0,0
11364,-115.102698348772,4,1,0,50,0,0
11454,-116.368078175896,4,1,0,50,0,0
11543,-117.647058823529,4,1,0,40,0,0
14043,-33.3333333333333,4,1,0,40,0,0
14400,-117.647058823529,4,1,0,40,0,0
15829,-112.487750244995,4,1,0,40,0,0
16007,-107.787242605138,4,1,0,40,0,0
16186,-103.440507225387,4,1,0,40,0,0
16364,-99.4523006467184,4,1,0,40,0,0
16543,-95.7402442657134,4,1,0,40,0,0
16722,-92.295322057261,4,1,0,60,0,0
16781,-91.2135316153934,4,1,0,60,0,0
16841,-90.139107022661,4,1,0,60,0,0
16900,-89.1069893814633,4,1,0,60,0,0
16960,-88.0813395817918,4,1,0,60,0,0
17012,-87.0955503766734,4,1,0,60,0,0
17079,-86.1154278977547,4,1,0,60,0,0
17168,-84.7015417050995,4,1,0,60,0,0
17257,-83.3333333333333,4,1,0,90,0,0
21543,-74.0740740740741,4,1,0,95,0,0
21603,-74.471254095919,4,1,0,95,0,0
21662,-74.8659898781182,4,1,0,95,0,0
21722,-75.2717309487249,4,1,0,95,0,0
21781,-75.6750211890059,4,1,0,95,0,0
21841,-76.0896031166301,4,1,0,95,0,0
21900,-76.501728939074,4,1,0,95,0,0
21989,-77.1319264469949,4,1,0,95,0,0
22079,-77.779851907162,4,1,0,95,0,0
22168,-78.4313725490196,4,1,0,95,0,0
22257,-79.0939002784105,4,1,0,95,0,0
22317,-79.5469008527428,4,1,0,95,0,0
22369,-79.9974400819174,4,1,0,95,0,0
22436,-80.4608799201828,4,1,0,95,0,0
22525,-81.158291131022,4,1,0,95,0,0
22614,-81.867897959852,4,1,0,95,0,0
22674,-82.3533287215469,4,1,0,95,0,0
22734,-82.8445504854691,4,1,0,95,0,0
22793,-83.3333333333333,4,1,0,95,0,0
22972,-83.3333333333333,4,1,0,90,0,0
25829,-83.3333333333333,4,1,0,95,0,0
26007,-81.6373199176767,4,1,0,95,0,0
26186,-80,4,1,0,95,0,0
26275,-79.2101175948524,4,1,0,95,0,0
26364,-78.4356805448753,4,1,0,95,0,0
26543,-76.9230769230769,4,1,0,95,0,0
26722,-75.4677095444456,4,1,0,95,0,0
26900,-74.0740740740741,4,1,0,95,0,0
26989,-73.3963815789474,4,1,0,95,0,0
27079,-72.7235689549806,4,1,0,95,0,0
27257,-71.4285714285714,4,1,0,100,0,0
27436,-76.9230769230769,4,1,0,100,0,0
27525,-74.0740740740741,4,1,0,100,0,0
27614,-71.4285714285714,4,1,0,100,0,0
27882,-72.9873314262362,4,1,0,100,0,0
27972,-74.6343501880485,4,1,0,100,0,0
28061,-76.3378355274406,4,1,0,100,0,0
28150,-78.1208993088969,4,1,0,100,0,0
28239,-79.9892511644572,4,1,0,100,0,0
28329,-81.9717275564531,4,1,0,90,0,0
28418,-84.0312411781312,4,1,0,90,0,0
28507,-86.1969111969112,4,1,0,90,0,0
28597,-88.5034687809713,4,1,0,90,0,0
28686,-90.9090909090909,4,1,0,85,0,0
31186,-83.3333333333333,4,1,0,85,0,0
31364,-90.9090909090909,4,1,0,85,0,0
31543,-83.3333333333333,4,1,0,85,0,0
31722,-90.9090909090909,4,1,0,85,0,0
32972,-83.3333333333333,4,1,0,85,0,0
33150,-90.9090909090909,4,1,0,85,0,0
33329,-83.3333333333333,4,1,0,85,0,0
33507,-90.9090909090909,4,1,0,85,0,0
33686,-83.3333333333333,4,1,0,85,0,0
33864,-90.9090909090909,4,1,0,85,0,0
34043,-83.3333333333333,4,1,0,85,0,0
34222,-90.9090909090909,4,1,0,85,0,0
34400,-83.3333333333333,4,1,0,85,0,0
34579,-90.9090909090909,4,1,0,85,0,0
36900,-83.3333333333333,4,1,0,85,0,0
37079,-90.9090909090909,4,1,0,85,0,0
37614,-83.3333333333333,4,1,0,85,0,0
37793,-90.9090909090909,4,1,0,85,0,0
38329,-83.3333333333333,4,1,0,85,0,0
38507,-90.9090909090909,4,1,0,85,0,0
38686,-74.0740740740741,4,1,0,85,0,0
38775,-76.0039385794502,4,1,0,85,0,0
38864,-78.0370512049839,4,1,0,85,0,0
38954,-80.2066951246911,4,1,0,85,0,0
39043,-82.4742268041237,4,1,0,85,0,0
39132,-84.8736998514116,4,1,0,85,0,0
39222,-87.4464176362523,4,1,0,85,0,0
39311,-90.1486695495723,4,1,0,85,0,0
39400,-93.0232558139535,4,1,0,85,0,0
39489,-96.0872051946304,4,1,0,85,0,0
39579,-99.3979048480841,4,1,0,85,0,0
39668,-102.904085897528,4,1,0,85,0,0
39757,-106.666666666667,4,1,0,85,0,0
39847,-110.762070971495,4,1,0,85,0,0
39936,-115.133435459163,4,1,0,85,0,0
40025,-119.86401980946,4,1,0,85,0,0
40114,-125,4,1,0,50,0,0
45829,-66.6666666666667,4,1,0,95,0,1
46007,-71.4285714285714,4,1,0,95,0,1
46186,-66.6666666666667,4,1,0,95,0,1
46364,-71.4285714285714,4,1,0,95,0,1
46543,-66.6666666666667,4,1,0,95,0,1
46722,-71.4285714285714,4,1,0,95,0,1
46900,-66.6666666666667,4,1,0,95,0,1
47079,-71.4285714285714,4,1,0,95,0,1
47257,-66.6666666666667,4,1,0,95,0,1
47436,-71.4285714285714,4,1,0,95,0,1
47614,-66.6666666666667,4,1,0,95,0,1
47793,-71.4285714285714,4,1,0,95,0,1
47972,-66.6666666666667,4,1,0,95,0,1
48507,-71.4285714285714,4,1,0,95,0,1
48686,-66.6666666666667,4,1,0,95,0,1
48864,-71.4285714285714,4,1,0,95,0,1
49043,-66.6666666666667,4,1,0,95,0,1
49222,-71.4285714285714,4,1,0,95,0,1
49400,-66.6666666666667,4,1,0,95,0,1
49579,-71.4285714285714,4,1,0,95,0,1
49757,-66.6666666666667,4,1,0,95,0,1
49936,-71.4285714285714,4,1,0,95,0,1
50114,-66.6666666666667,4,1,0,95,0,1
50293,-71.4285714285714,4,1,0,95,0,1
50472,-66.6666666666667,4,1,0,95,0,1
50650,-71.4285714285714,4,1,0,95,0,1
50829,-66.6666666666667,4,1,0,95,0,1
51364,-71.4285714285714,4,1,0,95,0,1
51543,-66.6666666666667,4,1,0,95,0,1
51722,-71.4285714285714,4,1,0,95,0,1
51900,-66.6666666666667,4,1,0,95,0,1
52079,-71.4285714285714,4,1,0,95,0,1
52257,-66.6666666666667,4,1,0,95,0,1
52436,-71.4285714285714,4,1,0,95,0,1
52614,-66.6666666666667,4,1,0,95,0,1
52793,-71.4285714285714,4,1,0,95,0,1
52972,-66.6666666666667,4,1,0,95,0,1
53150,-71.4285714285714,4,1,0,95,0,1
53329,-66.6666666666667,4,1,0,95,0,1
53507,-71.4285714285714,4,1,0,95,0,1
53686,-66.6666666666667,4,1,0,95,0,1
54222,-71.4285714285714,4,1,0,95,0,1
54400,-66.6666666666667,4,1,0,95,0,1
54579,-71.4285714285714,4,1,0,95,0,1
54757,-66.6666666666667,4,1,0,95,0,1
54936,-71.4285714285714,4,1,0,95,0,1
55114,-66.6666666666667,4,1,0,95,0,1
55293,-71.4285714285714,4,1,0,95,0,1
55472,-66.6666666666667,4,1,0,95,0,1
55650,-71.4285714285714,4,1,0,95,0,1
55829,-75.7678601730867,4,1,0,70,0,0
56007,-80.6393353801698,4,1,0,70,0,0
56186,-86.2135547402974,4,1,0,70,0,0
56364,-92.577234086668,4,1,0,70,0,0
56543,-100,4,1,0,70,0,0
56722,-88.8612321095208,4,1,0,70,0,0
56900,-80,4,1,0,70,0,0
57079,-72.7087576374745,4,1,0,70,0,0
57257,-66.6666666666667,4,1,0,90,0,1
57436,-69.5694478229141,4,1,0,90,0,1
57525,-71.1089010442566,4,1,0,90,0,1
57614,-72.7180269514366,4,1,0,90,0,1
57793,-76.1854022376132,4,1,0,90,0,1
57853,-77.4228478613969,4,1,0,90,0,1
57912,-78.6795048143054,4,1,0,90,0,1
57972,-80,4,1,0,90,0,1
58150,-83.3333333333333,4,1,0,90,0,1
58329,-74.0740740740741,4,1,0,95,0,1
58507,-66.6666666666667,4,1,0,95,0,1
58686,-60.6060606060606,4,1,0,95,0,1
58864,-66.6666666666667,4,1,0,90,0,1
58954,-68.5860524632118,4,1,0,90,0,1
59043,-70.59598287784,4,1,0,90,0,1
59132,-72.7272727272727,4,1,0,90,0,1
59222,-75.0174947515745,4,1,0,90,0,1
59266,-76.1904761904762,4,1,0,90,0,1
59311,-77.4286746117732,4,1,0,90,0,1
59356,-78.7077826725404,4,1,0,90,0,1
59400,-80,4,1,0,90,0,1
59936,-66.6666666666667,4,1,0,90,0,1
60114,-80,4,1,0,90,0,1
60650,-68.9655172413793,4,1,0,90,0,1
60829,-80,4,1,0,90,0,1
61364,-71.4285714285714,4,1,0,90,0,1
61543,-80,4,1,0,90,0,1
62076,-66.6666666666667,4,1,0,90,0,1
62135,-67.4089450839781,4,1,0,90,0,1
62195,-68.1809505630846,4,1,0,90,0,1
62254,-68.957528957529,4,1,0,90,0,1
62314,-69.765625,4,1,0,90,0,1
62373,-70.5789369689785,4,1,0,90,0,1
62433,-71.4257148570286,4,1,0,90,0,1
62522,-72.7198697068404,4,1,0,90,0,1
62611,-74.0617872693344,4,1,0,90,0,1
62701,-75.4701035284175,4,1,0,90,0,1
62790,-76.916451335056,4,1,0,90,0,1
62879,-78.4193194291987,4,1,0,90,0,1
62969,-80,4,1,0,90,0,1
65650,-66.6666666666667,4,1,0,95,0,1
65829,-80,4,1,0,95,0,1
66007,-80,4,1,0,90,0,1
66364,-57.1428571428571,4,1,0,95,0,1
66722,-80,4,1,0,90,0,1
67254,-57.1428571428571,4,1,0,90,0,1
67344,-58.9460657935444,4,1,0,90,0,1
67433,-60.8447585795793,4,1,0,90,0,1
67522,-62.8698387558019,4,1,0,90,0,1
67611,-65.0343603513403,4,1,0,90,0,1
67701,-67.3802338740098,4,1,0,90,0,1
67790,-69.8726254797937,4,1,0,90,0,1
67879,-72.5564864178725,4,1,0,90,0,1
67969,-75.4886423666138,4,1,0,90,0,1
68058,-78.6309736704542,4,1,0,90,0,1
68147,-82.0462766262847,4,1,0,90,0,1
68236,-85.7717355421506,4,1,0,90,0,1
68326,-89.8996571356673,4,1,0,90,0,1
68415,-94.3919677653742,4,1,0,90,0,1
68504,-99.3568572918477,4,1,0,90,0,1
68686,-111.111111111111,4,1,0,80,0,0
70114,-111.111111111111,4,1,0,50,0,0
71543,357.142857142857,4,1,0,60,1,0
71543,-117.647058823529,4,1,0,60,0,0
74043,-83.3333333333333,4,1,0,85,0,0
74221,-86.9565217391304,4,1,0,85,0,0
74310,-85.1165002377556,4,1,0,85,0,0
74400,-83.3333333333333,4,1,0,85,0,0
74578,-86.9565217391304,4,1,0,85,0,0
74757,-83.3333333333333,4,1,0,85,0,0
74935,-86.9565217391304,4,1,0,85,0,0
75114,-83.3333333333333,4,1,0,85,0,0
75293,-86.9565217391304,4,1,0,85,0,0
75647,-83.3333333333333,4,1,0,85,0,0
75736,-84.7015417050995,4,1,0,85,0,0
75825,-86.1154278977547,4,1,0,85,0,0
75915,-87.5940259457102,4,1,0,85,0,0
76004,-89.1069893814633,4,1,0,85,0,0
76093,-90.6731366021554,4,1,0,85,0,0
76182,-92.295322057261,4,1,0,85,0,0
76272,-93.9958471032083,4,1,0,85,0,0
76361,-95.7402442657134,4,1,0,85,0,0
76450,-97.5506115883085,4,1,0,85,0,0
76540,-99.4523006467184,4,1,0,85,0,0
76629,-101.407206411308,4,1,0,85,0,0
76718,-103.440507225387,4,1,0,85,0,0
76807,-105.557015239096,4,1,0,85,0,0
76897,-107.787242605138,4,1,0,85,0,0
76986,-110.08734372324,4,1,0,85,0,0
77031,-111.288088642659,4,1,0,85,0,0
77075,-112.487750244995,4,1,0,85,0,0
77165,-115.023978240641,4,1,0,85,0,0
77209,-116.305999855251,4,1,0,85,0,0
77254,-117.647058823529,4,1,0,85,0,0
87882,-119.044441478713,4,1,0,70,0,0
87971,-120.475418692599,4,1,0,70,0,0
88060,-121.941216678059,4,1,0,70,0,0
88150,-123.460207612457,4,1,0,70,0,0
88239,-125,4,1,0,70,0,0
88328,-126.578685965659,4,1,0,70,0,0
88418,-128.216185137272,4,1,0,70,0,0
88507,-129.877693651718,4,1,0,70,0,0
88596,-131.582829325859,4,1,0,70,0,0
88685,-133.333333333333,4,1,0,70,0,0
94757,-128.001792114695,4,1,0,70,0,0
95114,-123.080236941303,4,1,0,70,0,0
95471,-118.523127981747,4,1,0,70,0,0
95828,-114.291429142914,4,1,0,75,0,0
96185,-110.351487060641,4,1,0,75,0,0
96542,-106.674134229441,4,1,0,75,0,0
96900,-103.224640953843,4,1,0,75,0,0
97257,-100,4,1,0,80,0,0
97435,-98.4663105290367,4,1,0,80,0,0
97614,-96.9707254985151,4,1,0,80,0,0
97792,-95.5278776226699,4,1,0,80,0,0
97882,-94.8145689869742,4,1,0,80,0,0
97971,-94.1195849118761,4,1,0,80,0,0
98150,-92.7522116711306,4,1,0,80,0,0
98328,-91.4313145051604,4,1,0,80,0,0
98417,-90.7848744836352,4,1,0,80,0,0
98507,-90.1404006941158,4,1,0,80,0,0
98596,-89.5120231847732,4,1,0,80,0,0
98685,-88.8923459863099,4,1,0,80,0,0
98864,-87.6716532412735,4,1,0,80,0,0
98953,-87.0771106370009,4,1,0,80,0,0
99042,-86.4905774615909,4,1,0,80,0,0
99221,-85.3345280764636,4,1,0,80,0,0
99310,-84.7711594095394,4,1,0,80,0,0
99400,-84.2089750202638,4,1,0,80,0,0
99578,-83.1187722743472,4,1,0,80,0,0
99757,-82.0505456634118,4,1,0,80,0,0
99935,-81.015170849284,4,1,0,80,0,0
100114,-80,4,1,0,90,0,1
106007,-77.6635666503508,4,1,0,90,0,1
106096,-76.5519459633323,4,1,0,90,0,1
106185,-75.4716981132076,4,1,0,90,0,1
106364,-73.3888374961455,4,1,0,90,0,1
106453,-72.3954372623574,4,1,0,90,0,1
106542,-71.4285714285714,4,1,0,90,0,1
106810,-72.7223390543382,4,1,0,90,0,1
106900,-74.0791928684956,4,1,0,90,0,1
106989,-75.4716981132076,4,1,0,90,0,1
107078,-76.917557580541,4,1,0,90,0,1
107167,-78.4198975859546,4,1,0,90,0,1
107257,-80,4,1,0,90,0,1
108685,-76.9230769230769,4,1,0,90,0,1
108775,-78.665827564506,4,1,0,90,0,1
108864,-80.4686494141882,4,1,0,90,0,1
108953,-82.3560416392147,4,1,0,90,0,1
109042,-84.3340979624882,4,1,0,90,0,1
109132,-86.4334116996266,4,1,0,90,0,1
109221,-88.6147738550971,4,1,0,90,0,1
109310,-90.9090909090909,4,1,0,90,0,1
109400,-76.9230769230769,4,1,0,90,0,1
109489,-78.6460299484082,4,1,0,90,0,1
109578,-80.4479340970524,4,1,0,90,0,1
109667,-82.3343433012778,4,1,0,90,0,1
109757,-84.3340979624882,4,1,0,90,0,1
109846,-86.4095119590765,4,1,0,90,0,1
109935,-88.5896527285613,4,1,0,90,0,1
110025,-90.9090909090909,4,1,0,90,0,1
110114,-80,4,1,0,90,0,1
110650,-80,4,1,0,90,0,0
111007,-74.0740740740741,4,1,0,90,0,0
111185,-68.9655172413793,4,1,0,90,0,0
111364,-74.0740740740741,4,1,0,90,0,0
111542,-74.0740740740741,4,1,0,90,0,1
111721,-76.9230769230769,4,1,0,90,0,1
111810,-71.4570858283433,4,1,0,90,0,1
111900,-66.6666666666667,4,1,0,90,0,1
112078,-76.9230769230769,4,1,0,90,0,1
112167,-74.0894039735099,4,1,0,90,0,1
112257,-71.4285714285714,4,1,0,90,0,1
112435,-76.9230769230769,4,1,0,90,0,1
112971,-71.4285714285714,4,1,0,90,0,1
113150,-76.9230769230769,4,1,0,90,0,1
113685,-66.6666666666667,4,1,0,90,0,1
113864,-76.9230769230769,4,1,0,90,0,1
113953,-74.0740740740741,4,1,0,90,0,1
114042,-71.4285714285714,4,1,0,90,0,1
114221,-76.9230769230769,4,1,0,90,0,1
114310,-71.4570858283433,4,1,0,90,0,1
114400,-66.6666666666667,4,1,0,90,0,1
114578,-76.9230769230769,4,1,0,90,0,1
115114,-71.4285714285714,4,1,0,90,0,1
115292,-76.9230769230769,4,1,0,90,0,1
115382,-74.05875051717,4,1,0,90,0,1
115471,-71.4285714285714,4,1,0,90,0,1
115650,-76.9230769230769,4,1,0,90,0,1
115739,-74.0740740740741,4,1,0,90,0,1
115828,-71.4285714285714,4,1,0,90,0,1
116007,-76.9230769230769,4,1,0,90,0,1
116542,-66.6666666666667,4,1,0,90,0,1
116721,-76.9230769230769,4,1,0,90,0,1
116810,-71.4570858283433,4,1,0,90,0,1
116900,-66.6666666666667,4,1,0,90,0,1
117078,-76.9230769230769,4,1,0,90,0,1
117254,-86.9565217391304,4,1,0,90,0,1
117343,-85.909309598268,4,1,0,90,0,1
117432,-84.8870203378248,4,1,0,90,0,1
117522,-83.8776918221453,4,1,0,90,0,1
117611,-82.9029075503453,4,1,0,90,0,1
117700,-81.9505198996056,4,1,0,90,0,1
117789,-81.0197657601452,4,1,0,90,0,1
117879,-80.0998093529214,4,1,0,90,0,1
117968,-79.2103913387027,4,1,0,90,0,1
118057,-78.3405083769777,4,1,0,90,0,1
118147,-77.4800672560612,4,1,0,90,0,1
118236,-76.6475740787938,4,1,0,90,0,1
118325,-75.8327803583278,4,1,0,90,0,1
118414,-75.035127575475,4,1,0,90,0,1
118504,-74.2453970192695,4,1,0,90,0,1
118593,-73.4806203544148,4,1,0,90,0,1
118682,-72.7314384633988,4,1,0,90,0,1
118772,-71.9892154762955,4,1,0,90,0,1
118861,-71.2699877765859,4,1,0,90,0,1
118950,-70.5649891941957,4,1,0,90,0,1
119039,-69.8738016043827,4,1,0,90,0,1
119129,-69.1884823093503,4,1,0,90,0,1
119218,-68.523870627316,4,1,0,90,0,1
119307,-67.8719057347841,4,1,0,90,0,1
119397,-67.2251111790866,4,1,0,90,0,1
119486,-66.5975127915244,4,1,0,90,0,1
119575,-65.9815242494226,4,1,0,90,0,1
119664,-65.3768263521012,4,1,0,90,0,1
119754,-64.7765017968281,4,1,0,90,0,1
119843,-64.1935918752528,4,1,0,90,0,1
119932,-63.6210793537684,4,1,0,90,0,1
120022,-63.0524259845735,4,1,0,90,0,1
120111,-62.5,4,1,0,90,0,1
122971,346.820809248555,4,1,0,100,1,8
123664,346.820809248555,4,1,0,80,1,0
123837,-98.5125317054297,4,1,0,80,0,0
124010,-97.0686660736222,4,1,0,80,0,0
124097,-96.3584374080148,4,1,0,80,0,0
124184,-95.6585264036736,4,1,0,80,0,0
124357,-94.2965310069544,4,1,0,80,0,0
124444,-93.6261491317671,4,1,0,80,0,0
124531,-92.9652318552477,4,1,0,80,0,0
124704,-91.6783356671334,4,1,0,80,0,0
124791,-91.0445389169216,4,1,0,80,0,0
124877,-90.4265814293043,4,1,0,80,0,0
124964,-89.8099157358417,4,1,0,80,0,0
125051,-89.2016037992915,4,1,0,80,0,0
125224,-88.0161321298252,4,1,0,80,0,0
125311,-87.4317982372468,4,1,0,80,0,0
125398,-86.8551718909904,4,1,0,80,0,0
125571,-85.7308541284747,4,1,0,80,0,0
125658,-85.1763743820392,4,1,0,80,0,0
125744,-84.6352723915051,4,1,0,80,0,0
125831,-84.0948291680429,4,1,0,80,0,0
125918,-83.5612442110637,4,1,0,80,0,0
126091,-82.5200763441247,4,1,0,80,0,0
126265,-81.4987374186435,4,1,0,80,0,0
126351,-81.0044552450385,4,1,0,80,0,0
126438,333.333333333333,4,1,0,85,1,0
126438,-83.7655782306571,4,1,0,85,0,0
126604,-82.7997795860113,4,1,0,85,0,0
126771,-81.8503777396819,4,1,0,85,0,0
126854,-81.3865729025156,4,1,0,85,0,0
126938,-80.9225012109831,4,1,0,85,0,0
127021,-80.4691232636672,4,1,0,85,0,0
127104,-80.0207972203119,4,1,0,85,0,0
127271,-79.1337134713795,4,1,0,85,0,0
127354,-78.7001040824953,4,1,0,85,0,0
127438,-78.2660819085183,4,1,0,85,0,0
127521,-77.8419032021677,4,1,0,85,0,0
127604,-77.4222975541222,4,1,0,85,0,0
127771,-76.5915915441933,4,1,0,85,0,0
127938,-75.7785224924258,4,1,0,85,0,0
128021,-75.3808104328052,4,1,0,85,0,0
128104,-74.9872512401067,4,1,0,85,0,0
128188,-74.593112448118,4,1,0,85,0,0
128271,-74.2077143135234,4,1,0,85,0,0
128438,-73.4442181307702,4,1,0,85,0,0
128521,-73.0705707554382,4,1,0,85,0,0
128604,-72.7007059972311,4,1,0,85,0,0
128688,-72.3301778715285,4,1,0,85,0,0
128771,-71.9677519146124,4,1,0,85,0,0
128854,-71.6089398762335,4,1,0,85,0,0
128937,-71.2494293153392,4,1,0,85,0,0
129021,-70.8977267590233,4,1,0,85,0,0
129104,315.789473684211,4,1,0,90,1,0
129104,-74.4688948240282,4,1,0,90,0,0
129261,-73.7833504523156,4,1,0,90,0,0
129419,-73.1060653762682,4,1,0,90,0,0
129498,-72.7720643257679,4,1,0,90,0,0
129577,-72.4411013090594,4,1,0,90,0,0
129735,-71.7881250699727,4,1,0,90,0,0
129814,-71.4660315370732,4,1,0,90,0,0
129893,-71.1468153839944,4,1,0,90,0,0
129972,-70.8304382251564,4,1,0,90,0,0
130051,-70.5168623547321,4,1,0,90,0,0
130209,-69.8979669650891,4,1,0,90,0,0
130288,-69.5925753001143,4,1,0,90,0,0
130367,-69.2898406040041,4,1,0,90,0,0
130525,-68.6922046176824,4,1,0,90,0,0
130604,-68.3972360532146,4,1,0,90,0,0
130682,-68.1084761056002,4,1,0,90,0,0
130840,-67.5309603825914,4,1,0,90,0,0
130919,-67.245859734884,4,1,0,90,0,0
130998,-66.9631562296259,4,1,0,90,0,0
131077,-66.6828197604206,4,1,0,90,0,0
131156,-66.4048207229223,4,1,0,90,0,0
131235,-66.1291300044153,4,1,0,90,0,0
131314,-65.8557189736499,4,1,0,90,0,0
131393,-65.5845594709309,4,1,0,90,0,0
131472,-65.3156237984488,4,1,0,90,0,0
131551,-65.0491120796201,4,1,0,90,0,0
131630,300,4,1,0,95,1,0
131630,-68.1940162168734,4,1,0,95,0,0
131780,-67.6714166596899,4,1,0,95,0,0
131855,-67.4131090917088,4,1,0,95,0,0
131930,-67.156765989223,4,1,0,95,0,0
132080,-66.6498842170951,4,1,0,95,0,0
132155,-66.3993019018192,4,1,0,95,0,0
132230,-66.1505967482428,4,1,0,95,0,0
132380,-65.658734180407,4,1,0,95,0,0
132455,-65.4155356687379,4,1,0,95,0,0
132530,-65.1741321125023,4,1,0,95,0,0
132605,-64.9345037129416,4,1,0,95,0,0
132680,-64.6966309614106,4,1,0,95,0,0
132755,-64.4604946340823,4,1,0,95,0,0
132830,-64.2260757867694,4,1,0,100,0,0
133430,357.142857142857,4,1,0,100,1,8
133430,-53.9499036609279,4,1,0,100,0,8
133516,-56.8019526888817,4,1,0,100,0,8
133605,-59.9723784360257,4,1,0,100,0,8
133694,-63.517643386576,4,1,0,100,0,8
133784,-67.5560908571796,4,1,0,100,0,8
133873,-72.0885494548259,4,1,0,100,0,8
133962,-77.2729279816434,4,1,0,100,0,8
134052,-83.3333333333333,4,1,0,100,0,8
134144,357.142857142857,7,1,0,50,1,0
134144,-25,7,1,0,50,0,0
136078,357.142857142857,4,1,0,50,1,8

[Colours]
Combo1 : 199,250,84
Combo2 : 149,202,255
Combo3 : 255,255,128
Combo4 : 255,170,200

[HitObjects]
256,192,115,5,0,1:0:0:0:
256,192,293,1,0,1:0:0:0:
256,192,472,1,8,1:0:0:0:
256,192,829,1,8,1:0:0:0:
256,192,1007,1,0,1:0:0:0:
256,192,1186,1,0,1:0:0:0:
256,192,1543,1,8,1:0:0:0:
256,192,1722,1,8,1:0:0:0:
256,192,1900,1,0,1:0:0:0:
256,192,2257,1,8,1:0:0:0:
256,192,2436,1,0,1:0:0:0:
256,192,2614,1,8,1:0:0:0:
256,192,2793,1,0,1:0:0:0:
256,192,2882,1,8,1:0:0:0:
256,192,2972,1,0,1:0:0:0:
256,192,3150,1,0,1:0:0:0:
256,192,3329,1,8,1:0:0:0:
256,192,3686,1,8,1:0:0:0:
256,192,3864,1,0,1:0:0:0:
256,192,4043,1,0,1:0:0:0:
256,192,4400,1,8,1:0:0:0:
256,192,4579,1,8,1:0:0:0:
256,192,4757,1,0,1:0:0:0:
256,192,4936,1,8,1:0:0:0:
256,192,5114,1,8,1:0:0:0:
256,192,5382,1,0,1:0:0:0:
256,192,5472,1,8,1:0:0:0:
256,192,5650,1,8,1:0:0:0:
256,192,5829,1,0,1:0:0:0:
256,192,6007,1,0,1:0:0:0:
256,192,6186,1,8,1:0:0:0:
256,192,6543,1,8,1:0:0:0:
256,192,6722,1,0,1:0:0:0:
256,192,6900,1,0,1:0:0:0:
256,192,7257,1,8,1:0:0:0:
256,192,7436,1,8,1:0:0:0:
256,192,7614,1,0,1:0:0:0:
256,192,7972,1,8,1:0:0:0:
256,192,8150,1,0,1:0:0:0:
256,192,8329,1,8,1:0:0:0:
256,192,8507,1,0,1:0:0:0:
256,192,8597,1,0,1:0:0:0:
256,192,8686,1,8,1:0:0:0:
256,192,8864,1,0,1:0:0:0:
256,192,9043,1,8,1:0:0:0:
256,192,9400,1,0,1:0:0:0:
256,192,9579,1,0,1:0:0:0:
256,192,9757,1,8,1:0:0:0:
256,192,9936,1,0,1:0:0:0:
256,192,10114,1,8,1:0:0:0:
256,192,10293,1,8,1:0:0:0:
256,192,10338,1,8,1:0:0:0:
256,192,10382,1,8,1:0:0:0:
256,192,10472,1,0,1:0:0:0:
256,192,10561,1,0,1:0:0:0:
256,192,10650,1,0,1:0:0:0:
256,192,10829,1,8,1:0:0:0:
256,192,10888,1,8,1:0:0:0:
256,192,10948,1,8,1:0:0:0:
256,192,11007,1,0,1:0:0:0:
256,192,11097,1,8,1:0:0:0:
256,192,11186,1,0,1:0:0:0:
256,192,11364,1,8,1:0:0:0:
256,192,11454,1,8,1:0:0:0:
256,192,11543,1,0,1:0:0:0:
256,192,11900,1,8,1:0:0:0:
256,192,12257,1,8,1:0:0:0:
256,192,12793,1,8,1:0:0:0:
256,192,12972,1,0,1:0:0:0:
256,192,13150,1,8,1:0:0:0:
256,192,13329,1,8,1:0:0:0:
256,192,13507,1,0,1:0:0:0:
256,192,13686,1,0,1:0:0:0:
256,192,13864,1,8,1:0:0:0:
256,192,14043,2,0,P|246:251|384:320,1,210,0|0,1:0|1:0,1:0:0:0:
256,192,14400,1,0,1:0:0:0:
256,192,14757,1,8,1:0:0:0:
256,192,15114,1,8,1:0:0:0:
256,192,15650,1,8,1:0:0:0:
256,192,15829,1,0,1:0:0:0:
256,192,16007,1,8,1:0:0:0:
256,192,16186,1,8,1:0:0:0:
256,192,16364,1,0,1:0:0:0:
256,192,16543,1,0,1:0:0:0:
256,192,16722,1,8,1:0:0:0:
256,192,16781,1,0,1:0:0:0:
256,192,16841,1,0,1:0:0:0:
256,192,16900,1,8,1:0:0:0:
256,192,16960,1,0,1:0:0:0:
256,192,17019,1,0,1:0:0:0:
256,192,17079,1,8,1:0:0:0:
256,192,17168,1,8,1:0:0:0:
256,192,17257,1,4,1:0:0:0:
256,192,17614,1,8,1:0:0:0:
256,192,17793,1,0,1:0:0:0:
256,192,17882,1,0,1:0:0:0:
256,192,17972,1,8,1:0:0:0:
256,192,18061,1,0,1:0:0:0:
256,192,18150,1,0,1:0:0:0:
256,192,18329,1,8,1:0:0:0:
256,192,18507,1,0,1:0:0:0:
256,192,18597,1,8,1:0:0:0:
256,192,18686,1,0,1:0:0:0:
256,192,18864,1,0,1:0:0:0:
256,192,18954,1,0,1:0:0:0:
256,192,19043,1,8,1:0:0:0:
256,192,19132,1,8,1:0:0:0:
256,192,19222,1,0,1:0:0:0:
256,192,19400,1,8,1:0:0:0:
256,192,19579,1,8,1:0:0:0:
256,192,19638,1,0,1:0:0:0:
256,192,19698,1,0,1:0:0:0:
256,192,19757,1,8,1:0:0:0:
256,192,19817,1,0,1:0:0:0:
256,192,19876,1,0,1:0:0:0:
256,192,19936,1,8,1:0:0:0:
256,192,20025,1,0,1:0:0:0:
256,192,20114,1,8,1:0:0:0:
256,192,20293,1,0,1:0:0:0:
256,192,20472,1,8,1:0:0:0:
256,192,20650,1,0,1:0:0:0:
256,192,20739,1,8,1:0:0:0:
256,192,20829,1,0,1:0:0:0:
256,192,20918,1,8,1:0:0:0:
256,192,21007,1,0,1:0:0:0:
256,192,21186,1,8,1:0:0:0:
256,192,21364,1,0,1:0:0:0:
256,192,21543,1,8,1:0:0:0:
256,192,21603,1,8,1:0:0:0:
256,192,21662,1,0,1:0:0:0:
256,192,21722,1,8,1:0:0:0:
256,192,21781,1,0,1:0:0:0:
256,192,21841,1,0,1:0:0:0:
256,192,21900,1,8,1:0:0:0:
256,192,21989,1,0,1:0:0:0:
256,192,22079,1,8,1:0:0:0:
256,192,22168,1,0,1:0:0:0:
256,192,22257,1,8,1:0:0:0:
256,192,22317,1,8,1:0:0:0:
256,192,22376,1,8,1:0:0:0:
256,192,22436,1,0,1:0:0:0:
256,192,22525,1,0,1:0:0:0:
256,192,22614,1,8,1:0:0:0:
256,192,22674,1,0,1:0:0:0:
256,192,22734,1,0,1:0:0:0:
256,192,22793,1,8,1:0:0:0:
256,192,22972,1,12,1:0:0:0:
256,192,23150,1,0,1:0:0:0:
256,192,23329,1,0,1:0:0:0:
256,192,23418,1,0,1:0:0:0:
256,192,23507,1,8,1:0:0:0:
256,192,23686,1,0,1:0:0:0:
256,192,23775,1,8,1:0:0:0:
256,192,23954,1,8,1:0:0:0:
256,192,24043,1,0,1:0:0:0:
256,192,24132,1,0,1:0:0:0:
256,192,24222,1,8,1:0:0:0:
256,192,24311,1,8,1:0:0:0:
256,192,24400,1,0,1:0:0:0:
256,192,24579,1,8,1:0:0:0:
256,192,24668,1,0,1:0:0:0:
256,192,24757,1,0,1:0:0:0:
256,192,24847,1,0,1:0:0:0:
256,192,24936,1,8,1:0:0:0:
256,192,25114,1,0,1:0:0:0:
256,192,25293,1,0,1:0:0:0:
256,192,25353,1,8,1:0:0:0:
256,192,25412,1,8,1:0:0:0:
256,192,25472,1,0,1:0:0:0:
256,192,25531,1,8,1:0:0:0:
256,192,25591,1,8,1:0:0:0:
256,192,25650,1,0,1:0:0:0:
256,192,25739,1,0,1:0:0:0:
256,192,25829,1,8,1:0:0:0:
256,192,26007,1,0,1:0:0:0:
256,192,26186,1,8,1:0:0:0:
256,192,26275,1,8,1:0:0:0:
256,192,26364,1,0,1:0:0:0:
256,192,26543,1,8,1:0:0:0:
256,192,26722,1,0,1:0:0:0:
256,192,26900,1,8,1:0:0:0:
256,192,26989,1,8,1:0:0:0:
256,192,27079,1,0,1:0:0:0:
256,192,27257,1,12,1:0:0:0:
256,192,27436,1,0,1:0:0:0:
256,192,27525,1,0,1:0:0:0:
256,192,27614,1,12,1:0:0:0:
256,192,27793,1,0,1:0:0:0:
256,192,27882,1,0,1:0:0:0:
256,192,27972,1,8,1:0:0:0:
256,192,28061,1,0,1:0:0:0:
256,192,28150,1,8,1:0:0:0:
256,192,28239,1,8,1:0:0:0:
256,192,28329,1,0,1:0:0:0:
256,192,28418,1,8,1:0:0:0:
256,192,28507,1,8,1:0:0:0:
256,192,28597,1,8,1:0:0:0:
256,192,28686,1,4,1:0:0:0:
256,192,28864,1,8,1:0:0:0:
256,192,28954,1,0,1:0:0:0:
256,192,29043,1,0,1:0:0:0:
256,192,29222,1,8,1:0:0:0:
256,192,29311,1,8,1:0:0:0:
256,192,29400,1,0,1:0:0:0:
256,192,29489,1,8,1:0:0:0:
256,192,29579,1,0,1:0:0:0:
256,192,29757,1,0,1:0:0:0:
256,192,29936,1,8,1:0:0:0:
256,192,30025,1,0,1:0:0:0:
256,192,30114,1,8,1:0:0:0:
256,192,30204,1,0,1:0:0:0:
256,192,30293,1,8,1:0:0:0:
256,192,30472,1,0,1:0:0:0:
256,192,30650,1,8,1:0:0:0:
256,192,30829,1,8,1:0:0:0:
256,192,30918,1,0,1:0:0:0:
256,192,31007,1,8,1:0:0:0:
256,192,31186,1,12,1:0:0:0:
256,192,31364,1,0,1:0:0:0:
256,192,31543,1,12,1:0:0:0:
256,192,31722,1,8,1:0:0:0:
256,192,31811,1,0,1:0:0:0:
256,192,31900,1,0,1:0:0:0:
256,192,32079,1,8,1:0:0:0:
256,192,32168,1,0,1:0:0:0:
256,192,32257,1,0,1:0:0:0:
256,192,32347,1,8,1:0:0:0:
256,192,32436,1,0,1:0:0:0:
256,192,32614,1,8,1:0:0:0:
256,192,32793,1,0,1:0:0:0:
256,192,32972,1,12,1:0:0:0:
256,192,33150,1,8,1:0:0:0:
256,192,33329,1,4,1:0:0:0:
256,192,33507,1,8,1:0:0:0:
256,192,33686,1,12,1:0:0:0:
256,192,33864,1,0,1:0:0:0:
256,192,34043,1,12,1:0:0:0:
256,192,34222,1,8,1:0:0:0:
256,192,34400,1,4,1:0:0:0:
256,192,34579,1,0,1:0:0:0:
256,192,34668,1,0,1:0:0:0:
256,192,34757,1,8,1:0:0:0:
256,192,34936,1,8,1:0:0:0:
256,192,35025,1,8,1:0:0:0:
256,192,35114,1,0,1:0:0:0:
256,192,35204,1,8,1:0:0:0:
256,192,35293,1,0,1:0:0:0:
256,192,35382,1,0,1:0:0:0:
256,192,35472,1,8,1:0:0:0:
256,192,35561,1,0,1:0:0:0:
256,192,35650,1,8,1:0:0:0:
256,192,35829,1,8,1:0:0:0:
256,192,35918,1,0,1:0:0:0:
256,192,36007,1,8,1:0:0:0:
256,192,36186,1,0,1:0:0:0:
256,192,36364,1,8,1:0:0:0:
256,192,36543,1,8,1:0:0:0:
256,192,36632,1,0,1:0:0:0:
256,192,36722,1,8,1:0:0:0:
256,192,36900,1,12,1:0:0:0:
256,192,37079,1,0,1:0:0:0:
256,192,37257,1,8,1:0:0:0:
256,192,37347,1,0,1:0:0:0:
256,192,37436,1,8,1:0:0:0:
256,192,37614,1,12,1:0:0:0:
256,192,37793,1,0,1:0:0:0:
256,192,37882,1,0,1:0:0:0:
256,192,37972,1,8,1:0:0:0:
256,192,38061,1,0,1:0:0:0:
256,192,38150,1,8,1:0:0:0:
256,192,38329,1,12,1:0:0:0:
256,192,38507,1,0,1:0:0:0:
256,192,38686,1,8,1:0:0:0:
256,192,38775,1,0,1:0:0:0:
256,192,38864,1,8,1:0:0:0:
256,192,38954,1,0,1:0:0:0:
256,192,39043,1,8,1:0:0:0:
256,192,39132,1,8,1:0:0:0:
256,192,39222,1,8,1:0:0:0:
256,192,39311,1,8,1:0:0:0:
256,192,39400,1,0,1:0:0:0:
256,192,39489,1,8,1:0:0:0:
256,192,39579,1,0,1:0:0:0:
256,192,39668,1,8,1:0:0:0:
256,192,39757,1,0,1:0:0:0:
256,192,39847,1,8,1:0:0:0:
256,192,39936,1,0,1:0:0:0:
256,192,40025,1,0,1:0:0:0:
256,192,40114,1,0,1:0:0:0:
256,192,40472,1,8,1:0:0:0:
256,192,40829,1,8,1:0:0:0:
256,192,41186,1,8,1:0:0:0:
256,192,41543,1,0,1:0:0:0:
256,192,41900,1,0,1:0:0:0:
256,192,42079,1,0,1:0:0:0:
256,192,42257,1,8,1:0:0:0:
256,192,42436,1,0,1:0:0:0:
256,192,42525,1,8,1:0:0:0:
256,192,42614,1,8,1:0:0:0:
256,192,42793,1,8,1:0:0:0:
256,192,42972,1,0,1:0:0:0:
256,192,43329,1,8,1:0:0:0:
256,192,43686,1,8,1:0:0:0:
256,192,44043,1,8,1:0:0:0:
256,192,44400,1,0,1:0:0:0:
256,192,44579,1,0,1:0:0:0:
256,192,44936,1,0,1:0:0:0:
256,192,45114,1,8,1:0:0:0:
256,192,45293,1,0,1:0:0:0:
256,192,45650,1,8,1:0:0:0:
256,192,45829,1,12,1:0:0:0:
256,192,46007,1,8,1:0:0:0:
256,192,46186,1,4,1:0:0:0:
256,192,46364,1,8,1:0:0:0:
256,192,46543,1,12,1:0:0:0:
256,192,46722,1,0,1:0:0:0:
256,192,46900,1,12,1:0:0:0:
256,192,47079,1,8,1:0:0:0:
256,192,47257,1,4,1:0:0:0:
256,192,47436,1,8,1:0:0:0:
256,192,47614,1,12,1:0:0:0:
256,192,47793,1,0,1:0:0:0:
256,192,47972,1,12,1:0:0:0:
256,192,48150,1,4,1:0:0:0:
256,192,48329,1,12,1:0:0:0:
256,192,48507,1,0,1:0:0:0:
256,192,48686,1,12,1:0:0:0:
256,192,48864,1,8,1:0:0:0:
256,192,49043,1,4,1:0:0:0:
256,192,49222,1,8,1:0:0:0:
256,192,49400,1,12,1:0:0:0:
256,192,49579,1,0,1:0:0:0:
256,192,49757,1,12,1:0:0:0:
256,192,49936,1,8,1:0:0:0:
256,192,50114,1,4,1:0:0:0:
256,192,50293,1,8,1:0:0:0:
256,192,50472,1,12,1:0:0:0:
256,192,50650,1,8,1:0:0:0:
256,192,50829,1,4,1:0:0:0:
256,192,51007,1,12,1:0:0:0:
256,192,51186,1,4,1:0:0:0:
256,192,51364,1,0,1:0:0:0:
256,192,51543,1,12,1:0:0:0:
256,192,51722,1,8,1:0:0:0:
256,192,51900,1,4,1:0:0:0:
256,192,52079,1,8,1:0:0:0:
256,192,52257,1,12,1:0:0:0:
256,192,52436,1,0,1:0:0:0:
256,192,52614,1,12,1:0:0:0:
256,192,52793,1,8,1:0:0:0:
256,192,52972,1,4,1:0:0:0:
256,192,53150,1,8,1:0:0:0:
256,192,53329,1,12,1:0:0:0:
256,192,53507,1,0,1:0:0:0:
256,192,53686,1,12,1:0:0:0:
256,192,53864,1,4,1:0:0:0:
256,192,54043,1,12,1:0:0:0:
256,192,54222,1,0,1:0:0:0:
256,192,54400,1,12,1:0:0:0:
256,192,54579,1,8,1:0:0:0:
256,192,54757,1,4,1:0:0:0:
256,192,54936,1,0,1:0:0:0:
256,192,55114,1,12,1:0:0:0:
256,192,55293,1,8,1:0:0:0:
256,192,55472,1,4,1:0:0:0:
256,192,55650,1,0,1:0:0:0:
256,192,55829,1,8,1:0:0:0:
256,192,56007,1,8,1:0:0:0:
256,192,56186,1,8,1:0:0:0:
256,192,56364,1,0,1:0:0:0:
256,192,56543,1,0,1:0:0:0:
256,192,56722,1,8,1:0:0:0:
256,192,56900,1,8,1:0:0:0:
256,192,57079,1,8,1:0:0:0:
256,192,57257,1,4,1:0:0:0:
256,192,57436,1,8,1:0:0:0:
256,192,57525,1,8,1:0:0:0:
256,192,57614,1,0,1:0:0:0:
256,192,57793,1,8,1:0:0:0:
256,192,57853,1,8,1:0:0:0:
256,192,57912,1,8,1:0:0:0:
256,192,57972,1,0,1:0:0:0:
256,192,58150,1,0,1:0:0:0:
256,192,58329,1,4,1:0:0:0:
256,192,58507,1,12,1:0:0:0:
256,192,58864,1,8,1:0:0:0:
256,192,58954,1,0,1:0:0:0:
256,192,59043,1,8,1:0:0:0:
256,192,59132,1,8,1:0:0:0:
256,192,59222,1,0,1:0:0:0:
256,192,59266,1,0,1:0:0:0:
256,192,59311,1,8,1:0:0:0:
256,192,59356,1,8,1:0:0:0:
256,192,59400,1,0,1:0:0:0:
256,192,59489,1,0,1:0:0:0:
256,192,59579,1,8,1:0:0:0:
256,192,59668,1,0,1:0:0:0:
256,192,59757,1,8,1:0:0:0:
256,192,59847,1,8,1:0:0:0:
256,192,59936,1,4,1:0:0:0:
256,192,60114,1,0,1:0:0:0:
256,192,60204,1,8,1:0:0:0:
256,192,60293,1,0,1:0:0:0:
256,192,60472,1,8,1:0:0:0:
256,192,60650,1,12,1:0:0:0:
256,192,60829,1,0,1:0:0:0:
256,192,60918,1,0,1:0:0:0:
256,192,61007,1,8,1:0:0:0:
256,192,61097,1,0,1:0:0:0:
256,192,61186,1,0,1:0:0:0:
256,192,61364,1,4,1:0:0:0:
256,192,61722,1,0,1:0:0:0:
256,192,61781,1,0,1:0:0:0:
256,192,61841,1,8,1:0:0:0:
256,192,61900,1,8,1:0:0:0:
256,192,62079,1,8,1:0:0:0:
256,192,62138,1,8,1:0:0:0:
256,192,62198,1,0,1:0:0:0:
256,192,62257,1,8,1:0:0:0:
256,192,62317,1,0,1:0:0:0:
256,192,62376,1,0,1:0:0:0:
256,192,62436,1,8,1:0:0:0:
256,192,62525,1,0,1:0:0:0:
256,192,62614,1,8,1:0:0:0:
256,192,62704,1,0,1:0:0:0:
256,192,62793,1,8,1:0:0:0:
256,192,62882,1,8,1:0:0:0:
256,192,62972,1,0,1:0:0:0:
256,192,63061,1,8,1:0:0:0:
256,192,63150,1,0,1:0:0:0:
256,192,63239,1,8,1:0:0:0:
256,192,63329,1,0,1:0:0:0:
256,192,63418,1,0,1:0:0:0:
256,192,63507,1,8,1:0:0:0:
256,192,63597,1,8,1:0:0:0:
256,192,63686,1,0,1:0:0:0:
256,192,63775,1,8,1:0:0:0:
256,192,63864,1,0,1:0:0:0:
256,192,63924,1,0,1:0:0:0:
256,192,63984,1,0,1:0:0:0:
256,192,64043,1,8,1:0:0:0:
256,192,64132,1,0,1:0:0:0:
256,192,64222,1,8,1:0:0:0:
256,192,64311,1,0,1:0:0:0:
256,192,64400,1,0,1:0:0:0:
256,192,64579,1,8,1:0:0:0:
256,192,64668,1,0,1:0:0:0:
256,192,64757,1,8,1:0:0:0:
256,192,64936,1,0,1:0:0:0:
256,192,65025,1,8,1:0:0:0:
256,192,65114,1,0,1:0:0:0:
256,192,65293,1,8,1:0:0:0:
256,192,65472,1,0,1:0:0:0:
256,192,65650,1,4,1:0:0:0:
256,192,66007,1,0,1:0:0:0:
256,192,66186,1,8,1:0:0:0:
256,192,66364,1,12,1:0:0:0:
256,192,66722,1,0,1:0:0:0:
256,192,66900,1,8,1:0:0:0:
256,192,67079,1,8,1:0:0:0:
256,192,67257,1,0,1:0:0:0:
256,192,67347,1,0,1:0:0:0:
256,192,67436,1,8,1:0:0:0:
256,192,67525,1,8,1:0:0:0:
256,192,67614,1,0,1:0:0:0:
256,192,67704,1,8,1:0:0:0:
256,192,67793,1,0,1:0:0:0:
256,192,67882,1,0,1:0:0:0:
256,192,67972,1,8,1:0:0:0:
256,192,68061,1,0,1:0:0:0:
256,192,68150,1,0,1:0:0:0:
256,192,68239,1,8,1:0:0:0:
256,192,68329,1,8,1:0:0:0:
256,192,68418,1,0,1:0:0:0:
256,192,68507,1,0,1:0:0:0:
256,192,68686,1,0,1:0:0:0:
256,192,69043,12,0,70114,1:0:0:0:
256,192,71543,5,0,1:0:0:0:
256,192,71900,1,8,1:0:0:0:
256,192,72257,1,8,1:0:0:0:
256,192,72793,1,8,1:0:0:0:
256,192,72971,1,0,1:0:0:0:
256,192,73150,1,8,1:0:0:0:
256,192,73328,1,8,1:0:0:0:
256,192,73507,1,0,1:0:0:0:
256,192,73685,1,0,1:0:0:0:
256,192,73864,1,8,1:0:0:0:
256,192,74043,1,4,1:0:0:0:
256,192,74221,1,0,1:0:0:0:
256,192,74310,1,0,1:0:0:0:
256,192,74400,1,12,1:0:0:0:
256,192,74578,1,0,1:0:0:0:
256,192,74757,1,12,1:0:0:0:
256,192,74935,1,0,1:0:0:0:
256,192,75114,1,12,1:0:0:0:
256,192,75293,1,0,1:0:0:0:
256,192,75382,1,0,1:0:0:0:
256,192,75471,1,8,1:0:0:0:
256,192,75650,1,8,1:0:0:0:
256,192,75739,1,0,1:0:0:0:
256,192,75828,1,8,1:0:0:0:
256,192,75918,1,0,1:0:0:0:
256,192,76007,1,8,1:0:0:0:
256,192,76096,1,8,1:0:0:0:
256,192,76185,1,0,1:0:0:0:
256,192,76275,1,0,1:0:0:0:
256,192,76364,1,8,1:0:0:0:
256,192,76453,1,0,1:0:0:0:
256,192,76543,1,8,1:0:0:0:
256,192,76632,1,0,1:0:0:0:
256,192,76721,1,8,1:0:0:0:
256,192,76810,1,8,1:0:0:0:
256,192,76900,1,0,1:0:0:0:
256,192,76989,1,8,1:0:0:0:
256,192,77034,1,8,1:0:0:0:
256,192,77078,1,0,1:0:0:0:
256,192,77168,1,8,1:0:0:0:
256,192,77212,1,8,1:0:0:0:
256,192,77257,1,0,1:0:0:0:
256,192,77614,1,0,1:0:0:0:
256,192,77882,1,0,1:0:0:0:
256,192,77971,1,8,1:0:0:0:
256,192,78150,1,0,1:0:0:0:
256,192,78328,1,0,1:0:0:0:
256,192,78596,1,8,1:0:0:0:
256,192,78685,1,8,1:0:0:0:
256,192,78864,1,8,1:0:0:0:
256,192,79043,1,0,1:0:0:0:
256,192,79132,1,8,1:0:0:0:
256,192,79221,1,0,1:0:0:0:
256,192,79400,1,8,1:0:0:0:
256,192,79489,1,8,1:0:0:0:
256,192,79578,1,0,1:0:0:0:
256,192,79757,1,0,1:0:0:0:
256,192,79935,1,8,1:0:0:0:
256,192,80114,1,8,1:0:0:0:
256,192,80471,1,0,1:0:0:0:
256,192,80650,1,0,1:0:0:0:
256,192,80739,1,8,1:0:0:0:
256,192,80918,1,8,1:0:0:0:
256,192,81007,1,0,1:0:0:0:
256,192,81096,1,0,1:0:0:0:
256,192,81185,1,8,1:0:0:0:
256,192,81364,1,0,1:0:0:0:
256,192,81453,1,8,1:0:0:0:
256,192,81543,1,0,1:0:0:0:
256,192,81632,1,8,1:0:0:0:
256,192,81721,1,8,1:0:0:0:
256,192,81900,1,8,1:0:0:0:
256,192,82257,1,0,1:0:0:0:
256,192,82346,1,8,1:0:0:0:
256,192,82435,1,0,1:0:0:0:
256,192,82525,1,8,1:0:0:0:
256,192,82614,1,0,1:0:0:0:
256,192,82793,1,0,1:0:0:0:
256,192,82971,1,8,1:0:0:0:
256,192,83328,1,8,1:0:0:0:
256,192,83507,1,8,1:0:0:0:
256,192,83685,1,0,1:0:0:0:
256,192,83864,1,0,1:0:0:0:
256,192,83953,1,8,1:0:0:0:
256,192,84043,1,0,1:0:0:0:
256,192,84132,1,8,1:0:0:0:
256,192,84221,1,0,1:0:0:0:
256,192,84310,1,8,1:0:0:0:
256,192,84578,1,8,1:0:0:0:
256,192,84757,1,0,1:0:0:0:
256,192,84846,1,8,1:0:0:0:
256,192,84935,1,0,1:0:0:0:
256,192,85114,1,8,1:0:0:0:
256,192,85203,1,0,1:0:0:0:
256,192,85293,1,8,1:0:0:0:
256,192,85471,1,0,1:0:0:0:
256,192,85650,1,0,1:0:0:0:
256,192,85828,1,8,1:0:0:0:
256,192,86185,1,0,1:0:0:0:
256,192,86364,1,0,1:0:0:0:
256,192,86453,1,8,1:0:0:0:
256,192,86543,1,8,1:0:0:0:
256,192,86900,1,0,1:0:0:0:
256,192,87078,1,0,1:0:0:0:
256,192,87168,1,0,1:0:0:0:
256,192,87257,1,8,1:0:0:0:
256,192,87614,1,0,1:0:0:0:
256,192,87793,1,0,1:0:0:0:
256,192,87882,1,8,1:0:0:0:
256,192,87971,1,0,1:0:0:0:
256,192,88060,1,8,1:0:0:0:
256,192,88150,1,0,1:0:0:0:
256,192,88239,1,8,1:0:0:0:
256,192,88328,1,0,1:0:0:0:
256,192,88418,1,8,1:0:0:0:
256,192,88507,1,0,1:0:0:0:
256,192,88596,1,8,1:0:0:0:
256,192,88685,1,0,1:0:0:0:
256,192,89043,1,8,1:0:0:0:
256,192,89221,1,0,1:0:0:0:
256,192,89400,1,8,1:0:0:0:
256,192,89757,1,0,1:0:0:0:
256,192,89935,1,0,1:0:0:0:
256,192,90114,1,8,1:0:0:0:
256,192,90292,1,8,1:0:0:0:
256,192,90382,1,8,1:0:0:0:
256,192,90471,1,0,1:0:0:0:
256,192,90650,1,0,1:0:0:0:
256,192,90828,1,8,1:0:0:0:
256,192,90917,1,0,1:0:0:0:
256,192,91007,1,0,1:0:0:0:
256,192,91185,1,8,1:0:0:0:
256,192,91275,1,0,1:0:0:0:
256,192,91364,1,0,1:0:0:0:
256,192,91453,1,0,1:0:0:0:
256,192,91542,1,8,1:0:0:0:
256,192,91900,1,0,1:0:0:0:
256,192,92078,1,8,1:0:0:0:
256,192,92257,1,8,1:0:0:0:
256,192,92435,1,0,1:0:0:0:
256,192,92614,1,8,1:0:0:0:
256,192,92703,1,8,1:0:0:0:
256,192,92792,1,0,1:0:0:0:
256,192,92882,1,0,1:0:0:0:
256,192,92971,1,8,1:0:0:0:
256,192,93150,1,8,1:0:0:0:
256,192,93239,1,0,1:0:0:0:
256,192,93328,1,8,1:0:0:0:
256,192,93507,1,0,1:0:0:0:
256,192,93685,1,8,1:0:0:0:
256,192,94043,1,8,1:0:0:0:
256,192,94221,1,8,1:0:0:0:
256,192,94310,1,8,1:0:0:0:
256,192,94400,1,0,1:0:0:0:
256,192,94757,1,8,1:0:0:0:
256,192,95114,1,0,1:0:0:0:
256,192,95471,1,8,1:0:0:0:
256,192,95828,1,0,1:0:0:0:
256,192,96185,1,8,1:0:0:0:
256,192,96542,1,0,1:0:0:0:
256,192,96900,1,8,1:0:0:0:
256,192,97257,1,8,1:0:0:0:
256,192,97435,1,0,1:0:0:0:
256,192,97614,1,8,1:0:0:0:
256,192,97792,1,0,1:0:0:0:
256,192,97882,1,0,1:0:0:0:
256,192,97971,1,8,1:0:0:0:
256,192,98150,1,8,1:0:0:0:
256,192,98328,1,0,1:0:0:0:
256,192,98417,1,0,1:0:0:0:
256,192,98507,1,0,1:0:0:0:
256,192,98596,1,8,1:0:0:0:
256,192,98685,1,8,1:0:0:0:
256,192,98864,1,0,1:0:0:0:
256,192,98953,1,0,1:0:0:0:
256,192,99042,1,8,1:0:0:0:
256,192,99221,1,8,1:0:0:0:
256,192,99310,1,0,1:0:0:0:
256,192,99400,1,0,1:0:0:0:
256,192,99578,1,0,1:0:0:0:
256,192,99757,1,8,1:0:0:0:
256,192,99935,1,8,1:0:0:0:
256,192,100114,1,4,1:0:0:0:
256,192,100292,1,0,1:0:0:0:
256,192,100471,1,8,1:0:0:0:
256,192,100560,1,0,1:0:0:0:
256,192,100650,1,8,1:0:0:0:
256,192,100739,1,8,1:0:0:0:
256,192,100828,1,0,1:0:0:0:
256,192,101007,1,8,1:0:0:0:
256,192,101096,1,0,1:0:0:0:
256,192,101185,1,8,1:0:0:0:
256,192,101364,1,8,1:0:0:0:
256,192,101453,1,8,1:0:0:0:
256,192,101542,1,0,1:0:0:0:
256,192,101721,1,0,1:0:0:0:
256,192,101810,1,8,1:0:0:0:
256,192,101900,1,0,1:0:0:0:
256,192,101989,1,0,1:0:0:0:
256,192,102078,1,8,1:0:0:0:
256,192,102257,1,8,1:0:0:0:
256,192,102346,1,0,1:0:0:0:
256,192,102435,1,8,1:0:0:0:
256,192,102525,1,8,1:0:0:0:
256,192,102614,1,0,1:0:0:0:
256,192,102792,1,0,1:0:0:0:
256,192,102882,1,0,1:0:0:0:
256,192,102971,1,8,1:0:0:0:
256,192,103060,1,0,1:0:0:0:
256,192,103150,1,8,1:0:0:0:
256,192,103239,1,0,1:0:0:0:
256,192,103328,1,8,1:0:0:0:
256,192,103507,1,0,1:0:0:0:
256,192,103596,1,8,1:0:0:0:
256,192,103685,1,0,1:0:0:0:
256,192,103864,1,0,1:0:0:0:
256,192,103953,1,0,1:0:0:0:
256,192,104042,1,8,1:0:0:0:
256,192,104132,1,0,1:0:0:0:
256,192,104221,1,0,1:0:0:0:
256,192,104310,1,0,1:0:0:0:
256,192,104400,1,8,1:0:0:0:
256,192,104578,1,8,1:0:0:0:
256,192,104667,1,0,1:0:0:0:
256,192,104757,1,8,1:0:0:0:
256,192,104846,1,8,1:0:0:0:
256,192,104935,1,8,1:0:0:0:
256,192,105025,1,8,1:0:0:0:
256,192,105114,1,0,1:0:0:0:
256,192,105292,1,0,1:0:0:0:
256,192,105471,1,8,1:0:0:0:
256,192,105560,1,8,1:0:0:0:
256,192,105650,1,0,1:0:0:0:
256,192,105739,1,0,1:0:0:0:
256,192,105828,1,8,1:0:0:0:
256,192,106007,1,0,1:0:0:0:
256,192,106096,1,0,1:0:0:0:
256,192,106185,1,8,1:0:0:0:
256,192,106364,1,0,1:0:0:0:
256,192,106453,1,8,1:0:0:0:
256,192,106542,1,8,1:0:0:0:
256,192,106721,1,0,1:0:0:0:
256,192,106810,1,8,1:0:0:0:
256,192,106900,1,8,1:0:0:0:
256,192,106989,1,8,1:0:0:0:
256,192,107078,1,8,1:0:0:0:
256,192,107167,1,8,1:0:0:0:
256,192,107257,1,8,1:0:0:0:
256,192,107435,1,8,1:0:0:0:
256,192,107525,1,8,1:0:0:0:
256,192,107614,1,0,1:0:0:0:
256,192,107792,1,8,1:0:0:0:
256,192,107882,1,0,1:0:0:0:
256,192,107971,1,8,1:0:0:0:
256,192,108060,1,0,1:0:0:0:
256,192,108150,1,0,1:0:0:0:
256,192,108328,1,8,1:0:0:0:
256,192,108507,1,0,1:0:0:0:
256,192,108685,1,8,1:0:0:0:
256,192,108775,1,8,1:0:0:0:
256,192,108864,1,0,1:0:0:0:
256,192,108953,1,8,1:0:0:0:
256,192,109042,1,8,1:0:0:0:
256,192,109132,1,0,1:0:0:0:
256,192,109221,1,8,1:0:0:0:
256,192,109310,1,0,1:0:0:0:
256,192,109400,1,8,1:0:0:0:
256,192,109489,1,8,1:0:0:0:
256,192,109578,1,0,1:0:0:0:
256,192,109667,1,0,1:0:0:0:
256,192,109757,1,8,1:0:0:0:
256,192,109846,1,0,1:0:0:0:
256,192,109935,1,0,1:0:0:0:
256,192,110025,1,0,1:0:0:0:
256,192,110114,1,8,1:0:0:0:
256,192,110203,1,0,1:0:0:0:
256,192,110292,1,8,1:0:0:0:
256,192,110382,1,0,1:0:0:0:
256,192,110471,1,8,1:0:0:0:
256,192,110650,1,8,1:0:0:0:
256,192,110739,1,0,1:0:0:0:
256,192,110828,1,8,1:0:0:0:
256,192,111007,1,4,1:0:0:0:
256,192,111185,1,12,1:0:0:0:
256,192,111364,1,0,1:0:0:0:
256,192,111542,1,4,1:0:0:0:
256,192,111721,1,0,1:0:0:0:
256,192,111810,1,0,1:0:0:0:
256,192,111900,1,12,1:0:0:0:
256,192,112078,1,8,1:0:0:0:
256,192,112167,1,8,1:0:0:0:
256,192,112257,1,4,1:0:0:0:
256,192,112435,1,0,1:0:0:0:
256,192,112525,1,0,1:0:0:0:
256,192,112614,1,8,1:0:0:0:
256,192,112703,1,0,1:0:0:0:
256,192,112792,1,8,1:0:0:0:
256,192,112971,1,12,1:0:0:0:
256,192,113150,1,0,1:0:0:0:
256,192,113328,1,8,1:0:0:0:
256,192,113417,1,0,1:0:0:0:
256,192,113507,1,8,1:0:0:0:
256,192,113685,1,12,1:0:0:0:
256,192,113864,1,8,1:0:0:0:
256,192,113953,1,8,1:0:0:0:
256,192,114042,1,4,1:0:0:0:
256,192,114221,1,0,1:0:0:0:
256,192,114310,1,0,1:0:0:0:
256,192,114400,1,12,1:0:0:0:
256,192,114578,1,0,1:0:0:0:
256,192,114667,1,8,1:0:0:0:
256,192,114757,1,0,1:0:0:0:
256,192,114846,1,0,1:0:0:0:
256,192,114935,1,8,1:0:0:0:
256,192,115114,1,4,1:0:0:0:
256,192,115292,1,8,1:0:0:0:
256,192,115382,1,0,1:0:0:0:
256,192,115471,1,12,1:0:0:0:
256,192,115650,1,0,1:0:0:0:
256,192,115739,1,8,1:0:0:0:
256,192,115828,1,4,1:0:0:0:
256,192,116007,1,8,1:0:0:0:
256,192,116096,1,8,1:0:0:0:
256,192,116185,1,0,1:0:0:0:
256,192,116275,1,0,1:0:0:0:
256,192,116364,1,8,1:0:0:0:
256,192,116542,1,12,1:0:0:0:
256,192,116721,1,8,1:0:0:0:
256,192,116810,1,8,1:0:0:0:
256,192,116900,1,4,1:0:0:0:
256,192,117257,1,0,1:0:0:0:
256,192,117346,1,8,1:0:0:0:
256,192,117435,1,8,1:0:0:0:
256,192,117525,1,8,1:0:0:0:
256,192,117614,1,0,1:0:0:0:
256,192,117703,1,0,1:0:0:0:
256,192,117792,1,8,1:0:0:0:
256,192,117882,1,8,1:0:0:0:
256,192,117971,1,0,1:0:0:0:
256,192,118060,1,8,1:0:0:0:
256,192,118150,1,0,1:0:0:0:
256,192,118239,1,0,1:0:0:0:
256,192,118328,1,8,1:0:0:0:
256,192,118417,1,8,1:0:0:0:
256,192,118507,1,0,1:0:0:0:
256,192,118596,1,8,1:0:0:0:
256,192,118685,1,0,1:0:0:0:
256,192,118775,1,8,1:0:0:0:
256,192,118864,1,0,1:0:0:0:
256,192,118953,1,0,1:0:0:0:
256,192,119042,1,8,1:0:0:0:
256,192,119132,1,8,1:0:0:0:
256,192,119221,1,0,1:0:0:0:
256,192,119310,1,8,1:0:0:0:
256,192,119400,1,0,1:0:0:0:
256,192,119489,1,8,1:0:0:0:
256,192,119578,1,0,1:0:0:0:
256,192,119667,1,8,1:0:0:0:
256,192,119757,1,8,1:0:0:0:
256,192,119846,1,8,1:0:0:0:
256,192,119935,1,0,1:0:0:0:
256,192,120025,1,0,1:0:0:0:
256,192,120114,1,8,1:0:0:0:
256,192,120203,1,0,1:0:0:0:
256,192,120292,1,8,1:0:0:0:
256,192,120382,1,0,1:0:0:0:
256,192,120471,1,8,1:0:0:0:
256,192,120560,1,8,1:0:0:0:
256,192,120650,1,0,1:0:0:0:
256,192,120739,1,8,1:0:0:0:
256,192,120828,1,0,1:0:0:0:
256,192,120917,1,0,1:0:0:0:
256,192,121007,1,8,1:0:0:0:
256,192,121096,1,0,1:0:0:0:
256,192,121185,1,8,1:0:0:0:
256,192,121275,1,0,1:0:0:0:
256,192,121364,1,0,1:0:0:0:
256,192,121453,1,0,1:0:0:0:
256,192,121542,1,8,1:0:0:0:
256,192,121602,1,0,1:0:0:0:
256,192,121662,1,0,1:0:0:0:
256,192,121721,1,8,1:0:0:0:
256,192,121781,1,0,1:0:0:0:
256,192,121840,1,0,1:0:0:0:
256,192,121900,1,8,1:0:0:0:
256,192,121989,1,8,1:0:0:0:
256,192,122078,1,0,1:0:0:0:
256,192,122167,1,0,1:0:0:0:
256,192,122257,1,8,1:0:0:0:
256,192,122316,1,0,1:0:0:0:
256,192,122376,1,0,1:0:0:0:
256,192,122435,1,8,1:0:0:0:
256,192,122525,1,0,1:0:0:0:
256,192,122614,1,8,1:0:0:0:
256,192,122673,1,8,1:0:0:0:
256,192,122733,1,8,1:0:0:0:
256,192,122792,1,8,1:0:0:0:
256,192,123664,1,4,1:0:0:0:
256,192,123837,1,8,1:0:0:0:
256,192,124010,1,0,1:0:0:0:
256,192,124097,1,8,1:0:0:0:
256,192,124184,1,8,1:0:0:0:
256,192,124357,1,8,1:0:0:0:
256,192,124444,1,0,1:0:0:0:
256,192,124531,1,0,1:0:0:0:
256,192,124704,1,8,1:0:0:0:
256,192,124791,1,0,1:0:0:0:
256,192,124877,1,8,1:0:0:0:
256,192,124964,1,8,1:0:0:0:
256,192,125051,1,0,1:0:0:0:
256,192,125224,1,8,1:0:0:0:
256,192,125311,1,0,1:0:0:0:
256,192,125398,1,0,1:0:0:0:
256,192,125571,1,8,1:0:0:0:
256,192,125658,1,0,1:0:0:0:
256,192,125744,1,0,1:0:0:0:
256,192,125831,1,0,1:0:0:0:
256,192,125918,1,8,1:0:0:0:
256,192,126091,1,0,1:0:0:0:
256,192,126265,1,8,1:0:0:0:
256,192,126351,1,8,1:0:0:0:
256,192,126438,1,4,1:0:0:0:
256,192,126604,1,8,1:0:0:0:
256,192,126771,1,0,1:0:0:0:
256,192,126854,1,0,1:0:0:0:
256,192,126938,1,8,1:0:0:0:
256,192,127021,1,8,1:0:0:0:
256,192,127104,1,8,1:0:0:0:
256,192,127271,1,0,1:0:0:0:
256,192,127354,1,8,1:0:0:0:
256,192,127438,1,0,1:0:0:0:
256,192,127521,1,8,1:0:0:0:
256,192,127604,1,8,1:0:0:0:
256,192,127771,1,0,1:0:0:0:
256,192,127938,1,8,1:0:0:0:
256,192,128021,1,8,1:0:0:0:
256,192,128104,1,0,1:0:0:0:
256,192,128188,1,0,1:0:0:0:
256,192,128271,1,8,1:0:0:0:
256,192,128438,1,8,1:0:0:0:
256,192,128521,1,0,1:0:0:0:
256,192,128604,1,0,1:0:0:0:
256,192,128688,1,0,1:0:0:0:
256,192,128771,1,8,1:0:0:0:
256,192,128854,1,0,1:0:0:0:
256,192,128938,1,8,1:0:0:0:
256,192,129021,1,8,1:0:0:0:
256,192,129104,1,4,1:0:0:0:
256,192,129261,1,0,1:0:0:0:
256,192,129419,1,8,1:0:0:0:
256,192,129498,1,8,1:0:0:0:
256,192,129577,1,0,1:0:0:0:
256,192,129735,1,8,1:0:0:0:
256,192,129814,1,0,1:0:0:0:
256,192,129893,1,8,1:0:0:0:
256,192,129972,1,8,1:0:0:0:
256,192,130051,1,0,1:0:0:0:
256,192,130209,1,8,1:0:0:0:
256,192,130288,1,8,1:0:0:0:
256,192,130367,1,4,1:0:0:0:
256,192,130525,1,8,1:0:0:0:
256,192,130604,1,0,1:0:0:0:
256,192,130682,1,0,1:0:0:0:
256,192,130840,1,8,1:0:0:0:
256,192,130919,1,8,1:0:0:0:
256,192,130998,1,0,1:0:0:0:
256,192,131077,1,8,1:0:0:0:
256,192,131156,1,0,1:0:0:0:
256,192,131235,1,0,1:0:0:0:
256,192,131314,1,8,1:0:0:0:
256,192,131393,1,0,1:0:0:0:
256,192,131472,1,8,1:0:0:0:
256,192,131551,1,8,1:0:0:0:
256,192,131630,1,4,1:0:0:0:
256,192,131780,1,0,1:0:0:0:
256,192,131855,1,0,1:0:0:0:
256,192,131930,1,8,1:0:0:0:
256,192,132080,1,0,1:0:0:0:
256,192,132155,1,8,1:0:0:0:
256,192,132230,1,4,1:0:0:0:
256,192,132380,1,8,1:0:0:0:
256,192,132455,1,8,1:0:0:0:
256,192,132530,1,8,1:0:0:0:
256,192,132605,1,0,1:0:0:0:
256,192,132680,1,8,1:0:0:0:
256,192,132755,1,0,1:0:0:0:
256,192,132830,1,8,1:0:0:0:
256,192,132905,1,8,1:0:0:0:
256,192,132980,1,0,1:0:0:0:
256,192,133055,1,8,1:0:0:0:
256,192,133130,1,0,1:0:0:0:
256,192,133205,1,8,1:0:0:0:
256,192,133280,1,8,1:0:0:0:
256,192,133355,1,0,1:0:0:0:
256,192,133430,1,8,1:0:0:0:
256,192,133519,1,0,1:0:0:0:
256,192,133608,1,8,1:0:0:0:
256,192,133697,1,0,1:0:0:0:
256,192,133787,1,8,1:0:0:0:
256,192,133876,1,0,1:0:0:0:
256,192,133965,1,8,1:0:0:0:
256,192,134055,1,0,1:0:0:0:
256,192,134144,12,0,136078,1:0:0:0:
